<?xml version="1.0" standalone="no"?>
<!DOCTYPE svg PUBLIC "-//W3C//DTD SVG 1.1//EN" "http://www.w3.org/Graphics/SVG/1.1/DTD/svg11.dtd" >
<svg xmlns="http://www.w3.org/2000/svg" xmlns:xlink="http://www.w3.org/1999/xlink" version="1.1">
<metadata>
Created by FontForge 20201107 at Fri Jul  8 21:53:57 2016
 By 
Copyright (c) 2015 by Radomir Tinkov. All rights reserved.
</metadata>
<defs>
<font id="Gilroy-SemiBoldItalic" horiz-adv-x="530" >
  <font-face 
    font-family="Gilroy-SemiBoldItalic"
    font-weight="400"
    font-style="italic"
    font-stretch="normal"
    units-per-em="1000"
    panose-1="0 0 7 0 0 0 0 0 0 0"
    ascent="774"
    descent="-226"
    x-height="500"
    cap-height="700"
    bbox="-327 -255 1058 970"
    underline-thickness="50"
    underline-position="-100"
    slope="-10"
    unicode-range="U+0020-FB02"
  />
<missing-glyph horiz-adv-x="500" 
d="M410 800v-1000h-317v1000h317zM333 733h-165v-33h65v-37h-66v-33h166v33h-66v37h66v33zM267 604h-100v-104h166v34h-66v70zM233 570v-36h-33v36h33zM333 473h-166v-33h66v-37h-66v-33h100v70h66v33zM333 413h-33v-66h-133v-34h166v100zM333 291h-100v-56h34v23h33v-47
h-100v80h-33v-113h166v113zM333 118h-166v-113h166v113zM300 85v-47h-100v47h100zM333 -18h-166v-33h70l-70 -47v-33h166v33h-102l70 47h32v33z" />
    <glyph glyph-name="fi" unicode="fi" horiz-adv-x="543" 
d="M525 500l-88 -500h-108l70 396h-166l-70 -396h-108l70 396h-76l18 104h76l2 10q18 105 82.5 154t179.5 49q53 0 108 -13l-17 -99q-45 8 -98 8q-64 0 -101 -22.5t-46 -76.5l-2 -10h274z" />
    <glyph glyph-name="fl" unicode="fl" horiz-adv-x="543" 
d="M407 713q72 0 152 -18l-122 -695h-108l108 617q-16 1 -47 1q-119 0 -137 -108l-2 -10h93l-18 -104h-93l-70 -396h-108l70 396h-76l18 104h76l2 10q18 105 82.5 154t179.5 49z" />
    <glyph glyph-name="f_f" unicode="ff" horiz-adv-x="600" 
d="M421 520q38 218 263 203l-19 -104q-116 11 -136 -99l-3 -20h118l-18 -104h-119l-69 -396h-108l69 396h-166l-70 -396h-108l70 396h-76l18 104h76l2 10q37 218 262 203l-18 -104q-117 11 -136 -99l-2 -10h167z" />
    <glyph glyph-name="f_f_i" unicode="ffi" horiz-adv-x="818" 
d="M800 500l-88 -500h-108l70 396h-167l-69 -396h-108l69 396h-166l-70 -396h-108l70 396h-76l18 104h76l2 10q37 218 262 203l-18 -104q-117 11 -136 -99l-2 -10h167l3 20q18 105 82 154t176 49q58 0 113 -13l-17 -99q-45 8 -98 8q-64 0 -101.5 -22.5t-46.5 -76.5l-3 -20
h274z" />
    <glyph glyph-name="f_f_l" unicode="ffl" horiz-adv-x="818" 
d="M684 723q72 0 152 -18l-124 -705h-108l110 627q-16 1 -47 1q-118 0 -138 -108l-3 -20h93l-18 -104h-94l-69 -396h-108l69 396h-166l-70 -396h-108l70 396h-76l18 104h76l2 10q37 218 262 203l-18 -104q-117 11 -136 -99l-2 -10h167l3 20q18 106 83 154.5t180 48.5z" />
    <glyph glyph-name=".notdef" horiz-adv-x="500" 
d="M410 800v-1000h-317v1000h317zM333 733h-165v-33h65v-37h-66v-33h166v33h-66v37h66v33zM267 604h-100v-104h166v34h-66v70zM233 570v-36h-33v36h33zM333 473h-166v-33h66v-37h-66v-33h100v70h66v33zM333 413h-33v-66h-133v-34h166v100zM333 291h-100v-56h34v23h33v-47
h-100v80h-33v-113h166v113zM333 118h-166v-113h166v113zM300 85v-47h-100v47h100zM333 -18h-166v-33h70l-70 -47v-33h166v33h-102l70 47h32v33z" />
    <glyph glyph-name=".null" horiz-adv-x="0" 
 />
    <glyph glyph-name="nonmarkingreturn" horiz-adv-x="333" 
 />
    <glyph glyph-name="space" unicode=" " horiz-adv-x="250" 
 />
    <glyph glyph-name="exclam" unicode="!" horiz-adv-x="255" 
d="M80 220l27 280l35 200h130l-35 -200l-72 -280h-85zM81 -12q-31 0 -48.5 22.5t-12.5 54.5q5 31 30 52t58 21q31 0 49 -22.5t13 -53.5q-6 -32 -30.5 -53t-58.5 -21z" />
    <glyph glyph-name="quotedbl" unicode="&#x22;" horiz-adv-x="355" 
d="M101 480l23 220h105l-53 -220h-75zM261 480l23 220h105l-53 -220h-75z" />
    <glyph glyph-name="numbersign" unicode="#" horiz-adv-x="610" 
d="M598 400h-112l-34 -100h112l-28 -85h-113l-57 -165h-89l57 165h-112l-57 -165h-89l57 165h-114l29 85h114l34 100h-114l29 85h114l57 165h89l-57 -165h112l57 165h89l-57 -165h112zM363 300l34 100h-112l-34 -100h112z" />
    <glyph glyph-name="dollar" unicode="$" horiz-adv-x="560" 
d="M349 397q84 -39 114 -64q72 -60 54 -160q-17 -86 -82.5 -133.5t-158.5 -52.5l-15 -87h-65l16 90q-77 9 -128.5 49.5t-71.5 105.5l104 53q26 -84 115 -97l37 207q-18 8 -30.5 14t-29.5 15t-28 17t-25.5 20t-21.5 23t-17 26t-11.5 30.5t-4 35.5t3.5 41q17 88 85 135t151 48
l15 87h65l-17 -93q56 -13 96 -47.5t61 -85.5l-102 -53q-29 57 -74 73zM221 520q-7 -34 11 -55.5t57 -40.5l31 177q-37 -3 -65 -24.5t-34 -56.5zM399 186q8 34 -11 55.5t-60 40.5l-32 -182q42 7 69 30t34 56z" />
    <glyph glyph-name="percent" unicode="%" horiz-adv-x="747" 
d="M242 393q-70 0 -109 48.5t-29 112.5q10 66 62.5 112.5t127.5 46.5q71 0 110 -51.5t26 -117.5q-13 -64 -64 -107.5t-124 -43.5zM254 481q31 0 55 21t29 51q5 31 -10.5 52t-47.5 21q-31 0 -54.5 -21t-28.5 -52q-6 -30 10 -51t47 -21zM82 104l550 514l54 -34l-551 -514z
M491 -12q-71 0 -110 49.5t-28 114.5q11 66 62.5 111t126.5 45q71 0 109.5 -50.5t26.5 -116.5q-12 -64 -63.5 -108.5t-123.5 -44.5zM503 76q31 0 55 21t29 51q5 31 -11 52t-47 21t-55 -21t-29 -52t11 -51.5t47 -20.5z" />
    <glyph glyph-name="ampersand" unicode="&#x26;" horiz-adv-x="677" 
d="M531 338l92 -58q-33 -83 -87 -150l79 -105l-98 -51l-60 80q-92 -67 -207 -67q-110 0 -167.5 61.5t-40.5 155.5q24 126 163 193q-34 62 -22 132q14 84 79 134t156 50q77 0 131 -37.5t77 -108.5l-103 -55q-27 89 -113 89q-42 0 -74.5 -23t-38.5 -66q-8 -52 40 -116
l135 -180q32 48 59 122zM271 94q68 0 125 41l-138 183q-87 -38 -99 -113q-9 -50 21 -80.5t91 -30.5z" />
    <glyph glyph-name="quotesingle" unicode="'" horiz-adv-x="195" 
d="M101 480l23 220h105l-53 -220h-75z" />
    <glyph glyph-name="parenleft" unicode="(" horiz-adv-x="294" 
d="M104 -100q-72 220 -30 458q40 227 189 442h108q-149 -219 -189 -450t30 -450h-108z" />
    <glyph glyph-name="parenright" unicode=")" horiz-adv-x="293" 
d="M225 800q72 -220 30 -458q-40 -227 -189 -442h-108q149 219 189 450t-30 450h108z" />
    <glyph glyph-name="asterisk" unicode="*" horiz-adv-x="397" 
d="M405 609l-13 -72l-90 6l41 -72l-65 -38l-29 83l-59 -83l-59 38l66 72l-91 -6l13 72l89 -6l-41 72l66 38l29 -83l59 83l58 -38l-66 -72z" />
    <glyph glyph-name="plus" unicode="+" horiz-adv-x="550" 
d="M522 401l-18 -102h-169l-30 -169h-102l30 169h-169l18 102h169l30 169h102l-30 -169h169z" />
    <glyph glyph-name="comma" unicode="," horiz-adv-x="265" 
d="M190 120l-116 -260h-91l87 260h120z" />
    <glyph glyph-name="hyphen" unicode="-" horiz-adv-x="510" 
d="M71 252l18 104h370l-18 -104h-370z" />
    <glyph glyph-name="period" unicode="." horiz-adv-x="255" 
d="M81 -12q-31 0 -48.5 22.5t-12.5 54.5q5 31 30 52t58 21q31 0 49 -22.5t13 -53.5q-6 -32 -30.5 -53t-58.5 -21z" />
    <glyph glyph-name="slash" unicode="/" horiz-adv-x="525" 
d="M32 -100h-59l555 900h59z" />
    <glyph glyph-name="zero" unicode="0" horiz-adv-x="632" 
d="M275 -13q-129 0 -187 103.5t-29 268.5t116 259.5t218 94.5q129 0 186.5 -103.5t28.5 -268.5t-115.5 -259.5t-217.5 -94.5zM289 99q78 0 130 65t74 186q21 121 -8.5 186t-106.5 65q-78 0 -130 -65t-74 -186q-21 -121 8.5 -186t106.5 -65z" />
    <glyph glyph-name="one" unicode="1" horiz-adv-x="372" 
d="M276 700h100l-123 -700h-115l101 574v-1l-147 -40l-11 102z" />
    <glyph glyph-name="two" unicode="2" 
d="M-13 0l16 90l288 249q105 91 116 154q9 51 -16 79.5t-71 28.5q-82 0 -143 -89l-91 59q92 142 249 142q90 0 148 -62.5t40 -162.5q-11 -61 -48.5 -111.5t-104.5 -107.5l-186 -158h284l-20 -111h-461z" />
    <glyph glyph-name="three" unicode="3" horiz-adv-x="540" 
d="M555 700l-17 -98l-172 -190q69 -21 107 -76t24 -132q-19 -105 -96 -161t-180 -56q-81 0 -138.5 37t-78.5 108l104 55q23 -88 125 -88q59 0 99.5 30.5t49.5 82.5t-20.5 82t-88.5 30h-27l-34 70l180 198h-286l19 108h430z" />
    <glyph glyph-name="four" unicode="4" horiz-adv-x="575" 
d="M560 233l-19 -107h-80l-22 -126h-116l22 126h-344l19 107l319 467h130l-319 -467h214l32 182h116l-32 -182h80z" />
    <glyph glyph-name="five" unicode="5" horiz-adv-x="547" 
d="M545 592h-281l-39 -156h85q92 0 153.5 -64t43.5 -168q-19 -105 -95.5 -161t-178.5 -56q-82 0 -141 38t-82 112l105 55q21 -93 130 -93q58 0 98 30.5t49 82.5t-20 82t-87 30h-204l92 376h390z" />
    <glyph glyph-name="six" unicode="6" horiz-adv-x="546" 
d="M306 465q105 0 166.5 -71t42.5 -176q-19 -106 -95.5 -168.5t-187.5 -62.5q-109 0 -168.5 70.5t-40.5 176.5q15 84 69 143l274 323h139l-201 -235h2zM400 226q10 59 -20.5 94.5t-88.5 35.5t-100.5 -35.5t-52.5 -94.5q-11 -59 19 -94.5t89 -35.5q58 0 100.5 35.5t53.5 94.5
z" />
    <glyph glyph-name="seven" unicode="7" horiz-adv-x="490" 
d="M94 700h445l-17 -100l-346 -600h-127l340 590h-314z" />
    <glyph glyph-name="eight" unicode="8" horiz-adv-x="562" 
d="M549 506q-17 -96 -107 -146q92 -62 74 -174q-18 -96 -91.5 -147.5t-185.5 -51.5q-108 0 -169 59.5t-44 155.5q20 113 134 165q-72 56 -55 151q17 96 88.5 145.5t166.5 49.5q90 0 148 -55.5t41 -151.5zM219 507q-8 -45 18.5 -71t71.5 -26q47 0 81.5 26t42.5 71
q8 47 -18 72t-72 25t-81 -25.5t-43 -71.5zM403 205q9 52 -23 80.5t-88 28.5q-57 0 -98.5 -28.5t-50.5 -80.5t22 -80.5t89 -28.5t98.5 28.5t50.5 80.5z" />
    <glyph glyph-name="nine" unicode="9" horiz-adv-x="547" 
d="M350 713q108 0 168 -71t41 -177q-14 -85 -72 -146l-271 -319h-138l199 235h-2q-105 0 -166.5 71.5t-42.5 176.5q19 106 96 168t188 62zM181 474q-10 -59 20.5 -94.5t88.5 -35.5t101 35.5t53 94.5t-20 94.5t-88 35.5q-59 0 -102 -35.5t-53 -94.5z" />
    <glyph glyph-name="colon" unicode=":" horiz-adv-x="255" 
d="M147 363q-31 0 -48.5 22.5t-12.5 54.5q5 31 30 52t58 21q31 0 49 -22.5t13 -53.5q-6 -32 -30.5 -53t-58.5 -21zM81 -12q-31 0 -48.5 22.5t-12.5 54.5q5 31 30 52t58 21q31 0 49 -22.5t13 -53.5q-6 -32 -30.5 -53t-58.5 -21z" />
    <glyph glyph-name="semicolon" unicode=";" horiz-adv-x="268" 
d="M160 363q-31 0 -48.5 22.5t-12.5 54.5q5 31 30 52t58 21q31 0 49 -22.5t13 -53.5q-6 -32 -30.5 -53t-58.5 -21zM190 120l-116 -260h-91l87 260h120z" />
    <glyph glyph-name="less" unicode="&#x3c;" horiz-adv-x="525" 
d="M535 585l-22 -120l-323 -121l281 -121l-19 -108l-393 185l18 100z" />
    <glyph glyph-name="equal" unicode="=" 
d="M77 402l18 102h430l-18 -102h-430zM41 197l18 102h430l-19 -102h-429z" />
    <glyph glyph-name="greater" unicode="&#x3e;" horiz-adv-x="525" 
d="M110 585l391 -185l-8 -50l-9 -50l-457 -185l21 120l323 121l-280 121z" />
    <glyph glyph-name="question" unicode="?" horiz-adv-x="546" 
d="M195 220q7 43 31.5 79.5t54.5 61t59.5 47t52.5 49.5t28 57q7 42 -17.5 64.5t-69.5 22.5q-97 0 -144 -95l-95 59q37 71 105.5 109.5t149.5 38.5q90 0 146.5 -55t40.5 -145q-7 -42 -31.5 -78t-55 -60.5t-60.5 -47.5t-52.5 -50.5t-27.5 -56.5h-115zM211 -12
q-31 0 -48.5 22.5t-12.5 54.5q5 31 30 52t58 21q31 0 49 -22.5t13 -53.5q-6 -32 -30.5 -53t-58.5 -21z" />
    <glyph glyph-name="at" unicode="@" horiz-adv-x="785" 
d="M462 612q104 0 177 -53.5t100.5 -132t12.5 -163.5q-19 -105 -71 -156.5t-120 -51.5q-43 0 -72.5 20.5t-36.5 58.5q-48 -46 -112 -46t-100.5 49.5t-23.5 118.5q12 69 61 113t113 44q60 0 94 -47l7 37h92l-40 -226q-15 -81 46 -81q43 0 78 43t51 131q23 132 -52 221
t-208 89q-139 0 -250.5 -94t-136.5 -234q-25 -143 57 -237.5t232 -94.5q95 0 171 26l-6 -34q-77 -24 -170 -24q-163 0 -254.5 107t-63.5 264q26 150 147.5 251.5t277.5 101.5zM373 172q33 0 58.5 21.5t31.5 56.5q7 35 -11 57t-51 22q-34 0 -60 -22t-32 -57
q-7 -35 11.5 -56.5t52.5 -21.5z" />
    <glyph glyph-name="A" unicode="A" horiz-adv-x="655" 
d="M483 0l-23 141h-298l-75 -141h-126l377 700h138l130 -700h-123zM220 249h222l-52 320z" />
    <glyph glyph-name="B" unicode="B" horiz-adv-x="610" 
d="M597 501q-13 -90 -95 -141q84 -54 68 -165q-12 -85 -78.5 -140t-170.5 -55h-295l123 700h266q88 0 141.5 -57t40.5 -142zM403 592h-158l-32 -184h160q40 0 70.5 26.5t38.5 65.5q7 39 -15 65.5t-64 26.5zM457 206q8 42 -15 70t-65 28h-183l-34 -196h179q44 0 77.5 28.5
t40.5 69.5z" />
    <glyph glyph-name="C" unicode="C" horiz-adv-x="734" 
d="M360 -13q-159 0 -245.5 109.5t-60.5 263.5q26 153 144 253t270 100q100 0 173 -45t109 -123l-104 -55q-52 111 -187 111q-110 0 -191 -71t-100 -180t37.5 -180t162.5 -71q143 0 225 116l94 -61q-56 -77 -142.5 -122t-184.5 -45z" />
    <glyph glyph-name="D" unicode="D" horiz-adv-x="717" 
d="M424 700q139 0 219.5 -106.5t54.5 -253.5q-26 -148 -137 -244t-260 -96h-275l123 700h275zM587 353q18 104 -32.5 170.5t-149.5 66.5h-160l-85 -480h156q102 0 177.5 68.5t93.5 174.5z" />
    <glyph glyph-name="E" unicode="E" 
d="M550 590h-305l-32 -182h280l-19 -108h-280l-34 -190h311l-20 -110h-425l123 700h420z" />
    <glyph glyph-name="F" unicode="F" horiz-adv-x="518" 
d="M540 590h-295l-35 -196h285l-19 -110h-285l-50 -284h-115l123 700h410z" />
    <glyph glyph-name="G" unicode="G" horiz-adv-x="787" 
d="M771 362l-8 -48q-25 -146 -133.5 -236.5t-261.5 -90.5q-164 0 -252 110t-61 266q26 152 143.5 251t271.5 99q103 0 177 -45t114 -126l-105 -55q-58 114 -195 114q-111 0 -192 -70t-100 -179q-19 -110 38 -181.5t171 -71.5q96 0 161 43t94 117h-230l18 103h350z" />
    <glyph glyph-name="H" unicode="H" horiz-adv-x="670" 
d="M564 700h115l-123 -700h-115l53 303h-300l-53 -303h-115l123 700h115l-50 -287h300z" />
    <glyph glyph-name="I" unicode="I" horiz-adv-x="255" 
d="M149 700h115l-123 -700h-115z" />
    <glyph glyph-name="J" unicode="J" horiz-adv-x="562" 
d="M224 -13q-164 0 -212 133l105 57q23 -78 116 -78q62 0 99 29.5t47 83.5l86 488h115l-86 -489q-20 -114 -92.5 -169t-177.5 -55z" />
    <glyph glyph-name="K" unicode="K" horiz-adv-x="602" 
d="M673 700l-356 -344l236 -356h-124l-228 341l-60 -341h-115l123 700h115l-54 -309l322 309h141z" />
    <glyph glyph-name="L" unicode="L" horiz-adv-x="485" 
d="M160 110h286l-20 -110h-400l123 700h115z" />
    <glyph glyph-name="M" unicode="M" horiz-adv-x="810" 
d="M819 700l-123 -700h-115l88 498l-276 -351h-14l-149 361l-89 -508h-115l123 700h121l144 -355l274 355h131z" />
    <glyph glyph-name="N" unicode="N" horiz-adv-x="675" 
d="M26 0l123 700h87l249 -481l84 481h115l-123 -700h-87l-248 481l-85 -481h-115z" />
    <glyph glyph-name="O" unicode="O" horiz-adv-x="798" 
d="M356 -13q-151 0 -240 110t-62 263q27 154 145 253.5t277 99.5q151 0 240 -111t63 -264q-28 -154 -145.5 -252.5t-277.5 -98.5zM371 99q107 0 190.5 70.5t102.5 178.5t-40 180.5t-166 72.5q-106 0 -188 -71.5t-101 -179.5t38.5 -179.5t163.5 -71.5z" />
    <glyph glyph-name="P" unicode="P" horiz-adv-x="590" 
d="M398 700q104 0 159.5 -67t40.5 -168q-16 -99 -91.5 -162t-191.5 -63h-132l-42 -240h-115l123 700h249zM484 475q9 53 -17.5 85t-84.5 32h-137l-43 -244h125q64 0 105.5 35.5t51.5 91.5z" />
    <glyph glyph-name="Q" unicode="Q" horiz-adv-x="803" 
d="M779 338q-26 -143 -133 -239l56 -70l-87 -68l-59 74q-93 -48 -200 -48q-148 0 -238.5 110.5t-63.5 262.5q27 153 146.5 253t275.5 100q151 0 240 -111t63 -264zM486 123l-106 133l87 67l111 -139q68 68 86 164q19 108 -40 180.5t-166 72.5q-106 0 -188 -71.5t-101 -179.5
t38.5 -179.5t163.5 -71.5q61 0 115 24z" />
    <glyph glyph-name="R" unicode="R" horiz-adv-x="613" 
d="M615 465q-13 -70 -59.5 -122t-114.5 -74l110 -269h-117l-103 255h-145l-45 -255h-115l123 700h275q92 0 149.5 -71t41.5 -164zM501 475q9 49 -18.5 83t-76.5 34h-161l-41 -234h165q48 0 85.5 34t46.5 83z" />
    <glyph glyph-name="S" unicode="S" horiz-adv-x="585" 
d="M269 -13q-104 0 -169.5 46t-85.5 126l104 54q25 -115 159 -115q61 0 98.5 24t45.5 64q10 45 -24 69.5t-110 49.5q-24 8 -44 16t-42 20t-37 24.5t-30 29.5t-21 36t-10 44t3 53q16 91 87.5 138t161.5 47q86 0 144.5 -41.5t83.5 -111.5l-101 -53q-36 95 -136 95
q-48 0 -82 -22t-42 -60q-9 -45 23.5 -69.5t106.5 -50.5q104 -37 144 -75q60 -57 42 -150q-17 -91 -90 -139.5t-179 -48.5z" />
    <glyph glyph-name="T" unicode="T" horiz-adv-x="540" 
d="M604 700l-19 -110h-197l-104 -590h-115l104 590h-198l19 110h510z" />
    <glyph glyph-name="U" unicode="U" horiz-adv-x="651" 
d="M292 -13q-122 0 -188 68.5t-47 176.5l83 468h115l-81 -461q-11 -64 19.5 -102t104.5 -38q75 0 120 39t56 101l81 461h115l-83 -468q-20 -118 -100.5 -181.5t-194.5 -63.5z" />
    <glyph glyph-name="V" unicode="V" horiz-adv-x="624" 
d="M199 0l-115 700h119l83 -563l282 563h130l-361 -700h-138z" />
    <glyph glyph-name="W" unicode="W" horiz-adv-x="999" 
d="M174 0l-75 700h115l52 -549l255 549h106l63 -549l244 549h124l-321 -700h-133l-59 511l-238 -511h-133z" />
    <glyph glyph-name="X" unicode="X" horiz-adv-x="600" 
d="M652 700l-269 -345l158 -355h-123l-113 254l-198 -254h-136l285 366l-149 334h123l104 -234l182 234h136z" />
    <glyph glyph-name="Y" unicode="Y" horiz-adv-x="593" 
d="M667 700l-302 -386l-55 -314h-115l55 316l-166 384h123l113 -275l210 275h137z" />
    <glyph glyph-name="Z" unicode="Z" 
d="M574 700l-16 -95l-400 -495h320l-19 -110h-466l18 95l400 495h-306l19 110h450z" />
    <glyph glyph-name="bracketleft" unicode="[" horiz-adv-x="300" 
d="M359 696h-117l-123 -692h118l-19 -104h-225l159 900h225z" />
    <glyph glyph-name="backslash" unicode="\" horiz-adv-x="525" 
d="M374 -100l-242 900h54l242 -900h-54z" />
    <glyph glyph-name="bracketright" unicode="]" horiz-adv-x="300" 
d="M342 800l-159 -900h-225l19 104h116l123 692h-117l18 104h225z" />
    <glyph glyph-name="asciicircum" unicode="^" horiz-adv-x="540" 
d="M393 700l130 -320h-114l-76 197l-147 -197h-123l242 320h88z" />
    <glyph glyph-name="underscore" unicode="_" horiz-adv-x="520" 
d="M-38 -161l18 104h451l-18 -104h-451z" />
    <glyph glyph-name="grave" unicode="`" horiz-adv-x="251" 
d="M286 565l-60 135h-127l85 -135h102z" />
    <glyph glyph-name="a" unicode="a" horiz-adv-x="631" 
d="M504 500h108l-88 -500h-108l10 59q-70 -72 -183 -72q-109 0 -167.5 82.5t-38.5 191.5q20 112 99.5 182t184.5 70q117 0 169 -94zM275 90q64 0 115 39.5t67 102.5l5 29q7 69 -32 109t-103 40q-65 0 -117 -42t-65 -115q-12 -70 25 -116.5t105 -46.5z" />
    <glyph glyph-name="b" unicode="b" horiz-adv-x="630" 
d="M387 513q106 0 165.5 -79.5t41.5 -189.5q-18 -108 -97 -182.5t-191 -74.5q-116 0 -165 94l-14 -81h-108l123 700h108l-47 -265q75 78 184 78zM486 253q12 70 -24.5 113.5t-104.5 43.5t-121 -45t-65 -115t25.5 -115t104.5 -45q69 0 121 46t64 117z" />
    <glyph glyph-name="c" unicode="c" horiz-adv-x="544" 
d="M262 -13q-114 0 -179 80t-46 194q19 110 103.5 181t197.5 71q76 0 130.5 -35t77.5 -95l-97 -50q-29 74 -121 74q-67 0 -119 -43t-64 -111q-11 -68 25 -114t103 -46q44 0 81.5 21t61.5 57l87 -56q-38 -62 -102 -95t-139 -33z" />
    <glyph glyph-name="d" unicode="d" horiz-adv-x="632" 
d="M540 700h108l-123 -700h-108l11 60q-71 -73 -185 -73q-109 0 -167.5 82.5t-38.5 191.5q20 112 99.5 182t184.5 70q118 0 169 -95zM276 90q64 0 115 39.5t67 103.5l5 29q7 69 -32 108.5t-103 39.5q-65 0 -117.5 -42t-65.5 -115q-12 -70 25.5 -116.5t105.5 -46.5z" />
    <glyph glyph-name="e" unicode="e" horiz-adv-x="583" 
d="M335 513q112 0 174.5 -77t41.5 -187q-9 -36 -12 -45h-398q1 -58 38 -88t97 -30q89 0 141 63l79 -60q-82 -102 -229 -102q-121 0 -185 79t-45 194q19 110 103 181.5t195 71.5zM156 293h293q1 62 -32.5 92t-88.5 30q-59 0 -104.5 -32.5t-67.5 -89.5z" />
    <glyph glyph-name="f" unicode="f" horiz-adv-x="326" 
d="M145 510q18 106 84.5 158t177.5 45l-18 -104q-117 11 -136 -99l-2 -10h118l-18 -104h-118l-70 -396h-108l70 396h-76l18 104h76z" />
    <glyph glyph-name="g" unicode="g" horiz-adv-x="632" 
d="M507 500h106l-84 -477q-21 -119 -99 -177.5t-189 -58.5q-82 0 -141 31t-86 90l97 50q32 -73 137 -73q73 0 118 35.5t57 102.5l9 52q-72 -78 -181 -78q-114 0 -172.5 79t-40.5 190q17 106 96.5 176.5t183.5 70.5q59 0 104.5 -25.5t69.5 -71.5zM279 99q68 0 119.5 42.5
t64.5 110.5q14 72 -26.5 115.5t-107.5 43.5q-66 0 -119 -42t-64 -111t26 -114t107 -45z" />
    <glyph glyph-name="h" unicode="h" horiz-adv-x="569" 
d="M367 513q86 0 131.5 -55.5t29.5 -150.5l-54 -307h-108l52 296q10 57 -14.5 86.5t-77.5 29.5q-55 0 -96 -33t-54 -101l-49 -278h-108l123 700h108l-46 -260q63 73 163 73z" />
    <glyph glyph-name="i" unicode="i" horiz-adv-x="233" 
d="M174 575q-29 0 -45.5 20.5t-11.5 48.5t28 48.5t52 20.5t46 -20t12 -49q-5 -28 -28 -48.5t-53 -20.5zM19 0l88 500h108l-88 -500h-108z" />
    <glyph glyph-name="j" unicode="j" horiz-adv-x="253" 
d="M217 713q28 0 45.5 -20t12.5 -49q-5 -28 -28.5 -48.5t-52.5 -20.5t-45.5 20.5t-11.5 48.5t28 48.5t52 20.5zM35 -20l91 520h108l-91 -520q-20 -112 -78 -156.5t-162 -36.5l19 104q49 -5 76.5 16t36.5 73z" />
    <glyph glyph-name="k" unicode="k" horiz-adv-x="510" 
d="M536 500l-261 -245l181 -255h-120l-167 240l-42 -240h-108l123 700h108l-73 -413l227 213h132z" />
    <glyph glyph-name="l" unicode="l" horiz-adv-x="234" 
d="M20 0l54 309l74 421h108l-75 -424l-53 -306h-108z" />
    <glyph glyph-name="m" unicode="m" horiz-adv-x="849" 
d="M652 513q83 0 127.5 -56t28.5 -147l-54 -310h-108l53 303q9 52 -12 80.5t-67 28.5q-47 0 -82 -31t-47 -94l-51 -287h-108l53 303q9 52 -10.5 80.5t-64.5 28.5t-80.5 -28.5t-50.5 -85.5l-52 -298h-108l88 500h108l-10 -55q62 68 151 68q97 0 130 -80q65 80 166 80z" />
    <glyph glyph-name="n" unicode="n" horiz-adv-x="569" 
d="M367 513q86 0 131.5 -55.5t29.5 -150.5l-54 -307h-108l52 296q10 57 -14.5 86.5t-77.5 29.5q-54 0 -95 -32.5t-55 -98.5l-49 -281h-108l88 500h108l-11 -60q63 73 163 73z" />
    <glyph glyph-name="o" unicode="o" horiz-adv-x="599" 
d="M264 -13q-118 0 -183 80.5t-43 195.5q21 111 107 180.5t198 69.5q111 0 175 -80t44 -193q-20 -112 -105.5 -182.5t-192.5 -70.5zM272 92q65 0 117.5 43t65.5 117q13 71 -25 113.5t-102 42.5q-65 0 -117 -42.5t-65 -115.5q-12 -73 25 -115.5t101 -42.5z" />
    <glyph glyph-name="p" unicode="p" horiz-adv-x="631" 
d="M387 513q105 0 165 -81.5t42 -191.5t-96.5 -181.5t-183.5 -71.5q-122 0 -172 96l-50 -283h-109l124 700h108l-11 -63q73 76 183 76zM486 248q12 70 -25 116t-105 46q-64 0 -115 -39.5t-67 -103.5l-5 -29q-7 -69 32.5 -108.5t102.5 -39.5q65 0 117 42t65 116z" />
    <glyph glyph-name="q" unicode="q" horiz-adv-x="631" 
d="M504 500h108l-123 -700h-108l46 259q-72 -72 -184 -72q-109 0 -167 82.5t-39 191.5q20 112 99.5 182t184.5 70q117 0 169 -94zM275 90q64 0 115 40t67 103l5 27q7 69 -32 109.5t-103 40.5q-65 0 -117 -42t-65 -115q-12 -70 25 -116.5t105 -46.5z" />
    <glyph glyph-name="r" unicode="r" horiz-adv-x="343" 
d="M202 425q60 87 169 84l-21 -117q-36 3 -70 -7t-64.5 -41t-41.5 -79l-47 -265h-108l88 500h108z" />
    <glyph glyph-name="s" unicode="s" horiz-adv-x="472" 
d="M206 -13q-150 0 -196 121l97 50q9 -33 37 -52.5t71 -19.5q81 0 90 53q4 25 -21.5 40.5t-63.5 27t-75.5 27t-59.5 50t-13 87.5q12 65 68 103.5t129 38.5q64 0 110.5 -27.5t69.5 -76.5l-97 -49q-18 56 -89 56q-30 0 -54 -13.5t-29 -40.5q-5 -26 20.5 -42t64 -26.5t76 -25.5
t59.5 -50t13 -89q-12 -69 -68.5 -105.5t-138.5 -36.5z" />
    <glyph glyph-name="t" unicode="t" horiz-adv-x="383" 
d="M244 396l-42 -240q-5 -31 7 -45t39.5 -15t67.5 1l-17 -97q-119 -15 -170.5 22.5t-34.5 133.5l42 240h-92l19 104h92l19 108l113 32l-25 -140h125l-19 -104h-124z" />
    <glyph glyph-name="u" unicode="u" horiz-adv-x="569" 
d="M442 500h108l-88 -500h-108l11 60q-63 -73 -163 -73q-86 0 -131.5 55.5t-29.5 150.5l54 307h108l-52 -296q-10 -57 14.5 -86.5t77.5 -29.5q54 0 95 32.5t55 98.5z" />
    <glyph glyph-name="v" unicode="v" horiz-adv-x="490" 
d="M409 500h120l-270 -500h-115l-95 500h111l59 -372z" />
    <glyph glyph-name="w" unicode="w" horiz-adv-x="775" 
d="M681 500h118l-245 -500h-106l-45 337l-159 -337h-111l-69 500h108l40 -345l162 345h106l-1 -2l46 -343z" />
    <glyph glyph-name="x" unicode="x" horiz-adv-x="520" 
d="M545 500l-222 -248l143 -252h-118l-97 171l-154 -171h-131l234 261l-136 239h118l90 -158l142 158h131z" />
    <glyph glyph-name="y" unicode="y" horiz-adv-x="520" 
d="M439 500h120l-283 -516q-105 -195 -276 -184l18 101q49 -3 82 20t63 76l9 14l-123 489h111l86 -367z" />
    <glyph glyph-name="z" unicode="z" horiz-adv-x="453" 
d="M459 500l-12 -72l-287 -326h239l-18 -102h-390l13 72l286 326h-219l18 102h370z" />
    <glyph glyph-name="braceleft" unicode="{" horiz-adv-x="358" 
d="M274 -108q-95 -8 -139.5 39.5t-28.5 139.5l27 154q8 47 -10 61.5t-64 12.5l19 105q45 -2 68.5 12.5t31.5 61.5l27 154q18 103 74 144.5t157 33.5l-18 -104q-47 6 -72 -10t-33 -64l-27 -154q-9 -54 -30.5 -83.5t-57.5 -45.5q59 -30 43 -124l-27 -154q-9 -48 10.5 -64
t68.5 -11z" />
    <glyph glyph-name="bar" unicode="|" horiz-adv-x="248" 
d="M-9 -200l162 920h108l-162 -920h-108z" />
    <glyph glyph-name="braceright" unicode="}" horiz-adv-x="358" 
d="M119 810q95 8 139.5 -39.5t28.5 -139.5l-27 -154q-8 -47 10 -61.5t64 -12.5l-19 -105q-45 2 -68.5 -12.5t-31.5 -61.5l-27 -154q-18 -103 -74 -144.5t-157 -33.5l18 104q47 -6 72 10t33 64l27 154q9 54 30.5 83.5t57.5 45.5q-59 30 -43 124l27 154q9 48 -10.5 64
t-68.5 11z" />
    <glyph glyph-name="asciitilde" unicode="~" horiz-adv-x="597" 
d="M143 265l-83 43q37 95 109.5 120.5t153.5 -23.5q70 -39 104.5 -32.5t62.5 60.5l82 -43q-37 -95 -109 -120.5t-153 23.5q-69 39 -104.5 33t-62.5 -61z" />
    <glyph glyph-name="exclamdown" unicode="&#xa1;" horiz-adv-x="255" 
d="M174 512q31 0 48.5 -22.5t12.5 -54.5q-5 -31 -30 -52t-58 -21q-31 0 -49 22.5t-13 53.5q6 32 30.5 53t58.5 21zM175 280l-27 -280l-35 -200h-130l35 200l72 280h85z" />
    <glyph glyph-name="cent" unicode="&#xa2;" horiz-adv-x="545" 
d="M291 193q44 0 81.5 21t61.5 57l87 -56q-38 -62 -102 -95t-139 -33q-33 0 -65 8l-47 -95h-58l56 114q-64 33 -94 99.5t-17 147.5q19 110 103.5 181t197.5 71q26 0 54 -5l46 92h58l-53 -108q73 -33 103 -109l-97 -50q-17 43 -55 60l-148 -298q18 -2 27 -2zM163 353
q-7 -45 7 -82t46 -57l144 292q-4 1 -14 1q-67 0 -119 -43t-64 -111z" />
    <glyph glyph-name="sterling" unicode="&#xa3;" horiz-adv-x="583" 
d="M236 279l-30 -168h340l-20 -111h-535l20 111h80l30 168h-65l18 101h64l21 116q19 108 83 162.5t158 54.5q70 0 122 -37.5t73 -103.5l-101 -53q-29 82 -107 82q-42 0 -73 -26.5t-40 -78.5l-21 -116h213l-18 -101h-212z" />
    <glyph glyph-name="currency" unicode="&#xa4;" horiz-adv-x="546" 
d="M565 552l-83 -71q36 -57 23 -133q-13 -74 -69 -131l57 -69l-41 -34l-57 69q-64 -44 -141 -44q-71 0 -121 42l-82 -69l-34 36l83 71q-36 57 -23 133q13 75 69 131l-57 69l39 35l58 -70q66 44 142 44q71 0 120 -41l82 69zM184 350q-8 -47 17 -77.5t71 -30.5t82 30.5
t44 77.5t-17 77.5t-71 30.5t-82 -30.5t-44 -77.5z" />
    <glyph glyph-name="yen" unicode="&#xa5;" horiz-adv-x="593" 
d="M667 700l-269 -343h143l-13 -73h-168l-9 -50h168l-13 -73h-168l-28 -161h-115l28 161h-167l13 73h167l9 50h-167l13 73h141l-148 343h123l113 -275l210 275h137z" />
    <glyph glyph-name="brokenbar" unicode="&#xa6;" horiz-adv-x="248" 
d="M88 350l65 370h108l-65 -370h-108zM-9 -200l65 370h108l-65 -370h-108z" />
    <glyph glyph-name="section" unicode="&#xa7;" horiz-adv-x="536" 
d="M374 448q148 -63 127 -181q-13 -75 -85 -121q32 -45 21 -106q-13 -74 -70.5 -113t-142.5 -39q-155 0 -206 129l97 52q27 -84 119 -84q84 0 95 59q6 33 -25.5 56t-94.5 51q-4 1 -5.5 2t-4.5 2t-5 2q-144 62 -123 183q12 74 87 119q-28 44 -17 105q13 72 68 110.5t134 38.5
q63 0 112 -32t73 -92l-92 -47q-30 74 -101 74q-33 0 -57 -15.5t-29 -43.5q-2 -13 0.5 -24t13 -21t18 -17t28 -17t30 -14.5t35.5 -15.5zM179 335q-9 -57 77 -91q71 -30 91 -40q37 24 45 63q6 33 -15.5 53.5t-67.5 39.5q-58 24 -83 38q-39 -23 -47 -63z" />
    <glyph glyph-name="dieresis" unicode="&#xa8;" horiz-adv-x="335" 
d="M135 558q-25 0 -39.5 17.5t-10.5 42.5t25 42.5t46 17.5t39.5 -17.5t9.5 -42.5t-25 -42.5t-45 -17.5zM325 558q-25 0 -39.5 17.5t-10.5 42.5t25 42.5t46 17.5t39.5 -17.5t9.5 -42.5t-25 -42.5t-45 -17.5z" />
    <glyph glyph-name="copyright" unicode="&#xa9;" horiz-adv-x="794" 
d="M356 -12q-148 0 -238.5 109.5t-63.5 258.5q26 150 147 253t274 103q147 0 237 -109t64 -259q-27 -151 -147.5 -253.5t-272.5 -102.5zM359 20q138 0 248 96t135 234q23 137 -57 233.5t-214 96.5q-138 0 -248.5 -96t-133.5 -234q-25 -136 55.5 -233t214.5 -97zM384 156
q-82 0 -129 60.5t-33 141.5t76.5 134t144.5 53q51 0 93.5 -26.5t64.5 -70.5l-86 -44q-25 46 -83 46q-44 0 -76 -29.5t-39 -70.5q-7 -40 14.5 -70t63.5 -30q61 0 96 50l78 -50q-33 -44 -82 -69t-103 -25z" />
    <glyph glyph-name="guillemotleft" unicode="&#xab;" 
d="M326 494l-143 -189l75 -181h-106l-77 185l140 185h111zM508 494l-144 -192l74 -178h-106l-76 183l141 187h111z" />
    <glyph glyph-name="logicalnot" unicode="&#xac;" horiz-adv-x="540" 
d="M517 401l-39 -220h-108l21 118h-332l18 102h440z" />
    <glyph glyph-name="registered" unicode="&#xae;" horiz-adv-x="794" 
d="M475 712q147 0 237 -109t64 -259q-27 -151 -147.5 -253.5t-272.5 -102.5q-148 0 -238.5 109.5t-63.5 258.5q26 150 147 253t274 103zM742 350q23 137 -57 233.5t-214 96.5q-138 0 -248.5 -96t-133.5 -234q-25 -136 55.5 -233t214.5 -97q138 0 248 96t135 234zM459 535
q60 0 94 -38.5t25 -92.5q-13 -75 -77 -105l51 -134h-96l-38 117h-3h-47l-21 -117h-92l65 370h139zM397 450l-15 -88h42q53 0 60 44q9 44 -44 44h-43z" />
    <glyph glyph-name="macron" unicode="&#xaf;" horiz-adv-x="321" 
d="M77 570l15 89h280l-15 -89h-280z" />
    <glyph glyph-name="degree" unicode="&#xb0;" horiz-adv-x="396" 
d="M242 490q-68 0 -107.5 49t-28.5 116q12 67 65 111t125 44q68 0 107.5 -48.5t28.5 -115.5q-12 -68 -63.5 -112t-126.5 -44zM257 580q30 0 53 20t28 50t-10.5 50t-46.5 20q-30 0 -53 -20t-28 -50t10.5 -50t46.5 -20z" />
    <glyph glyph-name="plusminus" unicode="&#xb1;" horiz-adv-x="551" 
d="M368 484h169l-18 -102h-169l-27 -152h-102l27 152h-169l18 102h169l26 151h102zM23 65l18 102h440l-18 -102h-440z" />
    <glyph glyph-name="acute" unicode="&#xb4;" horiz-adv-x="250" 
d="M75 565h107l126 135h-133z" />
    <glyph glyph-name="uni00B5" unicode="&#xb5;" horiz-adv-x="613" 
d="M498 135q-3 -15 4.5 -24t22.5 -9h37l-18 -102h-56q-71 0 -94 56q-62 -69 -158 -69q-63 0 -105 34l-39 -221h-109l124 700h108l-53 -302q-7 -53 17 -81.5t75 -28.5q57 0 98.5 36t54.5 109l47 267h108z" />
    <glyph glyph-name="paragraph" unicode="&#xb6;" horiz-adv-x="639" 
d="M674 700l-17 -96h-61l-141 -804h-102l141 804h-90l-141 -804h-102l84 480q-87 1 -137 66t-34 151q15 87 86 145t159 58h355z" />
    <glyph glyph-name="periodcentered" unicode="&#xb7;" horiz-adv-x="255" 
d="M131 273q-31 0 -48.5 22.5t-12.5 54.5q5 31 30 52t58 21q31 0 49 -22.5t13 -53.5q-6 -32 -30.5 -53t-58.5 -21z" />
    <glyph glyph-name="cedilla" unicode="&#xb8;" horiz-adv-x="255" 
d="M105 -46q32 -7 51 -30t13 -56q-19 -100 -231 -84l14 79q118 -10 125 25q6 28 -68 30l15 82h89z" />
    <glyph glyph-name="guillemotright" unicode="&#xbb;" horiz-adv-x="531" 
d="M219 494l76 -183l-141 -187h-111l144 192l-74 178h106zM399 494l77 -185l-140 -185h-111l143 189l-75 181h106z" />
    <glyph glyph-name="onequarter" unicode="&#xbc;" horiz-adv-x="817" 
d="M174 600l-88 -25l-10 82l128 43h80l-71 -400h-92zM595 700h85l-518 -700h-85zM782 152l-15 -84h-43l-12 -68h-89l12 68h-194l15 84l176 248h103l-172 -248h86l14 79h89l-14 -79h44z" />
    <glyph glyph-name="onehalf" unicode="&#xbd;" horiz-adv-x="812" 
d="M174 600l-88 -25l-10 82l128 43h80l-71 -400h-92zM595 700h85l-518 -700h-85zM781 279q-8 -54 -87 -118l-92 -76h150l-14 -85h-294l11 64l184 155q45 38 50 65q4 20 -7.5 32t-34.5 12q-43 0 -78 -56l-72 45q55 96 163 96q62 0 96.5 -37t24.5 -97z" />
    <glyph glyph-name="threequarters" unicode="&#xbe;" horiz-adv-x="906" 
d="M347 413q-11 -62 -56.5 -94t-115.5 -32q-105 0 -139 87l81 42q19 -47 70 -47q29 0 46.5 13.5t21.5 36.5t-10.5 36.5t-42.5 13.5h-15l-27 54l89 92h-154l14 85h270l-13 -72l-91 -95q40 -14 59.5 -46t12.5 -74zM684 700h85l-518 -700h-85zM871 152l-15 -84h-43l-12 -68h-89
l12 68h-194l15 84l176 248h103l-172 -248h86l14 79h89l-14 -79h44z" />
    <glyph glyph-name="questiondown" unicode="&#xbf;" horiz-adv-x="546" 
d="M335 512q31 0 48.5 -22.5t12.5 -54.5q-5 -31 -30 -52t-58 -21q-31 0 -49 22.5t-13 53.5q6 32 30.5 53t58.5 21zM351 280q-7 -43 -31.5 -79.5t-54.5 -61t-59.5 -47t-52.5 -49.5t-28 -57q-7 -42 17.5 -64.5t69.5 -22.5q97 0 144 95l95 -59q-37 -71 -105.5 -109.5
t-149.5 -38.5q-90 0 -146.5 55t-40.5 145q7 42 31.5 78t55 60.5t60.5 47.5t52.5 50.5t27.5 56.5h115z" />
    <glyph glyph-name="Agrave" unicode="&#xc0;" horiz-adv-x="655" 
d="M484 765h-102l-85 135h127zM483 0l-23 141h-298l-75 -141h-126l377 700h138l130 -700h-123zM220 249h222l-52 320z" />
    <glyph glyph-name="Aacute" unicode="&#xc1;" horiz-adv-x="655" 
d="M582 900l-126 -135h-107l100 135h133zM483 0l-23 141h-298l-75 -141h-126l377 700h138l130 -700h-123zM220 249h222l-52 320z" />
    <glyph glyph-name="Acircumflex" unicode="&#xc2;" horiz-adv-x="655" 
d="M431 833l-67 -73h-111l130 140h113l82 -140h-109zM483 0l-23 141h-298l-75 -141h-126l377 700h138l130 -700h-123zM220 249h222l-52 320z" />
    <glyph glyph-name="Atilde" unicode="&#xc3;" horiz-adv-x="655" 
d="M417 790q-29 26 -45.5 22.5t-23.5 -45.5h-89q6 52 26 85.5t46.5 44.5t56 6t56.5 -26q28 -26 44.5 -22.5t24.5 45.5h89q-6 -52 -26.5 -85.5t-47 -44.5t-55.5 -6t-56 26zM483 0l-23 141h-298l-75 -141h-126l377 700h138l130 -700h-123zM220 249h222l-52 320z" />
    <glyph glyph-name="Adieresis" unicode="&#xc4;" horiz-adv-x="655" 
d="M322 758q-25 0 -39.5 17.5t-10.5 42.5t25 42.5t46 17.5t39.5 -17.5t9.5 -42.5t-25 -42.5t-45 -17.5zM512 758q-25 0 -39.5 17.5t-10.5 42.5t25 42.5t46 17.5t39.5 -17.5t9.5 -42.5t-25 -42.5t-45 -17.5zM483 0l-23 141h-298l-75 -141h-126l377 700h138l130 -700h-123z
M220 249h222l-52 320z" />
    <glyph glyph-name="Aring" unicode="&#xc5;" horiz-adv-x="655" 
d="M483 0l-23 141h-298l-75 -141h-126l365 679q-38 34 -29 90q8 48 46.5 78.5t90.5 30.5q53 0 81.5 -34t20.5 -82q-9 -56 -56 -86l126 -676h-123zM374 766q-3 -19 6 -30.5t29 -11.5q21 0 35 11.5t17 29.5t-7 30t-30 12q-42 0 -50 -41zM220 249h222l-52 320z" />
    <glyph glyph-name="AE" unicode="&#xc6;" horiz-adv-x="880" 
d="M900 590h-277l-32 -182h257l-19 -108h-257l-34 -190h283l-20 -110h-395l25 141h-233l-110 -141h-132l542 700h421zM282 249h168l49 278z" />
    <glyph glyph-name="Ccedilla" unicode="&#xc7;" horiz-adv-x="734" 
d="M368 99q143 0 225 116l94 -61q-50 -69 -125 -112.5t-161 -52.5l-6 -35q32 -7 51 -30t13 -56q-19 -100 -231 -84l14 79q118 -10 125 25q6 28 -68 30l13 72q-138 17 -210 123t-48 247q26 153 144 253t270 100q100 0 173 -45t109 -123l-104 -55q-52 111 -187 111
q-110 0 -191 -71t-100 -180t37.5 -180t162.5 -71z" />
    <glyph glyph-name="Egrave" unicode="&#xc8;" 
d="M437 765h-102l-85 135h127zM550 590h-305l-32 -182h280l-19 -108h-280l-34 -190h311l-20 -110h-425l123 700h420z" />
    <glyph glyph-name="Eacute" unicode="&#xc9;" 
d="M535 900l-126 -135h-107l100 135h133zM550 590h-305l-32 -182h280l-19 -108h-280l-34 -190h311l-20 -110h-425l123 700h420z" />
    <glyph glyph-name="Ecircumflex" unicode="&#xca;" 
d="M384 833l-67 -73h-111l130 140h113l82 -140h-109zM550 590h-305l-32 -182h280l-19 -108h-280l-34 -190h311l-20 -110h-425l123 700h420z" />
    <glyph glyph-name="Edieresis" unicode="&#xcb;" 
d="M275 758q-25 0 -39.5 17.5t-10.5 42.5t25 42.5t46 17.5t39.5 -17.5t9.5 -42.5t-25 -42.5t-45 -17.5zM465 758q-25 0 -39.5 17.5t-10.5 42.5t25 42.5t46 17.5t39.5 -17.5t9.5 -42.5t-25 -42.5t-45 -17.5zM550 590h-305l-32 -182h280l-19 -108h-280l-34 -190h311l-20 -110
h-425l123 700h420z" />
    <glyph glyph-name="Igrave" unicode="&#xcc;" horiz-adv-x="255" 
d="M284 765l-60 135h-127l85 -135h102zM149 700h115l-123 -700h-115z" />
    <glyph glyph-name="Iacute" unicode="&#xcd;" horiz-adv-x="255" 
d="M149 765h107l126 135h-133zM149 700h115l-123 -700h-115z" />
    <glyph glyph-name="Icircumflex" unicode="&#xce;" horiz-adv-x="255" 
d="M296 900l82 -140h-109l-38 73l-67 -73h-111l130 140h113zM26 0l123 700h115l-123 -700h-115z" />
    <glyph glyph-name="Idieresis" unicode="&#xcf;" horiz-adv-x="255" 
d="M122 758q-25 0 -39.5 17.5t-10.5 42.5t25 42.5t46 17.5t39.5 -17.5t9.5 -42.5t-25 -42.5t-45 -17.5zM312 758q-25 0 -39.5 17.5t-10.5 42.5t25 42.5t46 17.5t39.5 -17.5t9.5 -42.5t-25 -42.5t-45 -17.5zM149 700h115l-123 -700h-115z" />
    <glyph glyph-name="Eth" unicode="&#xd0;" horiz-adv-x="748" 
d="M455 700q139 0 219.5 -106.5t54.5 -253.5q-26 -148 -137 -244t-260 -96h-275l51 293h-75l18 104h76l53 303h275zM618 353q18 104 -32.5 170.5t-149.5 66.5h-160l-34 -193h179l-18 -104h-180l-32 -183h156q102 0 177.5 68.5t93.5 174.5z" />
    <glyph glyph-name="Ntilde" unicode="&#xd1;" horiz-adv-x="675" 
d="M269 767q6 52 26 85.5t46.5 44.5t56 6t56.5 -26q28 -26 44.5 -22.5t24.5 45.5h89q-6 -52 -26.5 -85.5t-47 -44.5t-55.5 -6t-56 26q-29 26 -45.5 22.5t-23.5 -45.5h-89zM26 0l123 700h87l249 -481l84 481h115l-123 -700h-87l-248 481l-85 -481h-115z" />
    <glyph glyph-name="Ograve" unicode="&#xd2;" horiz-adv-x="798" 
d="M556 770l-60 135h-127l85 -135h102zM356 -13q-151 0 -240 110t-62 263q27 154 145 253.5t277 99.5q151 0 240 -111t63 -264q-28 -154 -145.5 -252.5t-277.5 -98.5zM371 99q107 0 190.5 70.5t102.5 178.5t-40 180.5t-166 72.5q-106 0 -188 -71.5t-101 -179.5t38.5 -179.5
t163.5 -71.5z" />
    <glyph glyph-name="Oacute" unicode="&#xd3;" horiz-adv-x="798" 
d="M421 770h107l126 135h-133zM356 -13q-151 0 -240 110t-62 263q27 154 145 253.5t277 99.5q151 0 240 -111t63 -264q-28 -154 -145.5 -252.5t-277.5 -98.5zM371 99q107 0 190.5 70.5t102.5 178.5t-40 180.5t-166 72.5q-106 0 -188 -71.5t-101 -179.5t38.5 -179.5
t163.5 -71.5z" />
    <glyph glyph-name="Ocircumflex" unicode="&#xd4;" horiz-adv-x="798" 
d="M503 838l-67 -73h-111l130 140h113l82 -140h-109zM476 713q151 0 240 -111t63 -264q-28 -154 -145.5 -252.5t-277.5 -98.5q-151 0 -240 110t-62 263q27 154 145 253.5t277 99.5zM664 348q19 108 -40 180.5t-166 72.5q-106 0 -188 -71.5t-101 -179.5t38.5 -179.5
t163.5 -71.5q107 0 190.5 70.5t102.5 178.5z" />
    <glyph glyph-name="Otilde" unicode="&#xd5;" horiz-adv-x="798" 
d="M331 772q6 52 26 85.5t46.5 44.5t56 6t56.5 -26q28 -26 44.5 -22.5t24.5 45.5h89q-6 -52 -26.5 -85.5t-47 -44.5t-55.5 -6t-56 26q-29 26 -45.5 22.5t-23.5 -45.5h-89zM356 -13q-151 0 -240 110t-62 263q27 154 145 253.5t277 99.5q151 0 240 -111t63 -264
q-28 -154 -145.5 -252.5t-277.5 -98.5zM371 99q107 0 190.5 70.5t102.5 178.5t-40 180.5t-166 72.5q-106 0 -188 -71.5t-101 -179.5t38.5 -179.5t163.5 -71.5z" />
    <glyph glyph-name="Odieresis" unicode="&#xd6;" horiz-adv-x="798" 
d="M394 763q-25 0 -39.5 17.5t-10.5 42.5t25 42.5t46 17.5t39.5 -17.5t9.5 -42.5t-25 -42.5t-45 -17.5zM584 763q-25 0 -39.5 17.5t-10.5 42.5t25 42.5t46 17.5t39.5 -17.5t9.5 -42.5t-25 -42.5t-45 -17.5zM356 -13q-151 0 -240 110t-62 263q27 154 145 253.5t277 99.5
q151 0 240 -111t63 -264q-28 -154 -145.5 -252.5t-277.5 -98.5zM371 99q107 0 190.5 70.5t102.5 178.5t-40 180.5t-166 72.5q-106 0 -188 -71.5t-101 -179.5t38.5 -179.5t163.5 -71.5z" />
    <glyph glyph-name="multiply" unicode="&#xd7;" horiz-adv-x="498" 
d="M489 478l-151 -130l106 -126l-79 -70l-107 127l-147 -127l-65 70l150 130l-105 126l78 70l107 -127l146 127z" />
    <glyph glyph-name="Oslash" unicode="&#xd8;" horiz-adv-x="806" 
d="M721 605q92 -112 65 -267q-27 -153 -144.5 -252t-277.5 -99q-113 0 -195 65l-59 -59l-59 37l70 70q-86 110 -59 260q26 153 144.5 253t277.5 100q106 0 188 -61l55 55l59 -37zM177 350q-18 -96 28 -166l383 383q-51 34 -122 34q-107 0 -188.5 -71.5t-100.5 -179.5z
M671 348q18 100 -34 173l-385 -385q52 -37 126 -37q108 0 191 70.5t102 178.5z" />
    <glyph glyph-name="Ugrave" unicode="&#xd9;" horiz-adv-x="651" 
d="M481 765l-60 135h-127l85 -135h102zM292 -13q-122 0 -188 68.5t-47 176.5l83 468h115l-81 -461q-11 -64 19.5 -102t104.5 -38q75 0 120 39t56 101l81 461h115l-83 -468q-20 -118 -100.5 -181.5t-194.5 -63.5z" />
    <glyph glyph-name="Uacute" unicode="&#xda;" horiz-adv-x="651" 
d="M346 765h107l126 135h-133zM292 -13q-122 0 -188 68.5t-47 176.5l83 468h115l-81 -461q-11 -64 19.5 -102t104.5 -38q75 0 120 39t56 101l81 461h115l-83 -468q-20 -118 -100.5 -181.5t-194.5 -63.5z" />
    <glyph glyph-name="Ucircumflex" unicode="&#xdb;" horiz-adv-x="651" 
d="M428 833l-67 -73h-111l130 140h113l82 -140h-109zM555 700h115l-83 -468q-20 -118 -100.5 -181.5t-194.5 -63.5q-122 0 -188 68.5t-47 176.5l83 468h115l-81 -461q-11 -64 19.5 -102t104.5 -38q75 0 120 39t56 101z" />
    <glyph glyph-name="Udieresis" unicode="&#xdc;" horiz-adv-x="651" 
d="M319 758q-25 0 -39.5 17.5t-10.5 42.5t25 42.5t46 17.5t39.5 -17.5t9.5 -42.5t-25 -42.5t-45 -17.5zM509 758q-25 0 -39.5 17.5t-10.5 42.5t25 42.5t46 17.5t39.5 -17.5t9.5 -42.5t-25 -42.5t-45 -17.5zM292 -13q-122 0 -188 68.5t-47 176.5l83 468h115l-81 -461
q-11 -64 19.5 -102t104.5 -38q75 0 120 39t56 101l81 461h115l-83 -468q-20 -118 -100.5 -181.5t-194.5 -63.5z" />
    <glyph glyph-name="Yacute" unicode="&#xdd;" horiz-adv-x="593" 
d="M549 900l-126 -135h-107l100 135h133zM667 700l-302 -386l-55 -314h-115l55 316l-166 384h123l113 -275l210 275h137z" />
    <glyph glyph-name="Thorn" unicode="&#xde;" horiz-adv-x="590" 
d="M378 580q104 0 159.5 -67t39.5 -168q-15 -99 -90.5 -162t-192.5 -63h-132l-21 -120h-115l123 700h115l-21 -120h135zM463 355q10 53 -17 85t-85 32h-137l-43 -244h125q64 0 105.5 35t51.5 92z" />
    <glyph glyph-name="germandbls" unicode="&#xdf;" 
d="M238 -5l17 96q120 -12 134 67q6 32 -18.5 75t-49 85.5t-18.5 73.5q4 23 26 49t44.5 52.5t27.5 49.5q7 33 -13.5 51.5t-58.5 18.5q-39 0 -70.5 -23.5t-41.5 -76.5l-90 -513h-108l91 515q17 96 77.5 147t158.5 51q82 0 130 -48t35 -116q-8 -43 -51.5 -93.5t-46.5 -67.5
q-3 -19 11 -48.5t32.5 -57t30.5 -67.5t6 -79q-13 -75 -75.5 -114.5t-179.5 -26.5z" />
    <glyph glyph-name="agrave" unicode="&#xe0;" horiz-adv-x="631" 
d="M422 565h-102l-85 135h127zM504 500h108l-88 -500h-108l10 59q-70 -72 -183 -72q-109 0 -167.5 82.5t-38.5 191.5q20 112 99.5 182t184.5 70q117 0 169 -94zM275 90q64 0 115 39.5t67 102.5l5 29q7 69 -32 109t-103 40q-65 0 -117 -42t-65 -115q-12 -70 25 -116.5
t105 -46.5z" />
    <glyph glyph-name="aacute" unicode="&#xe1;" horiz-adv-x="631" 
d="M520 700l-126 -135h-107l100 135h133zM504 500h108l-88 -500h-108l10 59q-70 -72 -183 -72q-109 0 -167.5 82.5t-38.5 191.5q20 112 99.5 182t184.5 70q117 0 169 -94zM275 90q64 0 115 39.5t67 102.5l5 29q7 69 -32 109t-103 40q-65 0 -117 -42t-65 -115
q-12 -70 25 -116.5t105 -46.5z" />
    <glyph glyph-name="acircumflex" unicode="&#xe2;" horiz-adv-x="631" 
d="M369 633l-67 -73h-111l130 140h113l82 -140h-109zM504 500h108l-88 -500h-108l10 59q-70 -72 -183 -72q-109 0 -167.5 82.5t-38.5 191.5q20 112 99.5 182t184.5 70q117 0 169 -94zM275 90q64 0 115 39.5t67 102.5l5 29q7 69 -32 109t-103 40q-65 0 -117 -42t-65 -115
q-12 -70 25 -116.5t105 -46.5z" />
    <glyph glyph-name="atilde" unicode="&#xe3;" horiz-adv-x="631" 
d="M355 590q-29 26 -45.5 22.5t-23.5 -45.5h-89q6 52 26 85.5t46.5 44.5t56 6t56.5 -26q28 -26 44.5 -22.5t24.5 45.5h89q-6 -52 -26.5 -85.5t-47 -44.5t-55.5 -6t-56 26zM504 500h108l-88 -500h-108l10 59q-70 -72 -183 -72q-109 0 -167.5 82.5t-38.5 191.5
q20 112 99.5 182t184.5 70q117 0 169 -94zM275 90q64 0 115 39.5t67 102.5l5 29q7 69 -32 109t-103 40q-65 0 -117 -42t-65 -115q-12 -70 25 -116.5t105 -46.5z" />
    <glyph glyph-name="adieresis" unicode="&#xe4;" horiz-adv-x="631" 
d="M260 558q-25 0 -39.5 17.5t-10.5 42.5t25 42.5t46 17.5t39.5 -17.5t9.5 -42.5t-25 -42.5t-45 -17.5zM450 558q-25 0 -39.5 17.5t-10.5 42.5t25 42.5t46 17.5t39.5 -17.5t9.5 -42.5t-25 -42.5t-45 -17.5zM504 500h108l-88 -500h-108l10 59q-70 -72 -183 -72
q-109 0 -167.5 82.5t-38.5 191.5q20 112 99.5 182t184.5 70q117 0 169 -94zM275 90q64 0 115 39.5t67 102.5l5 29q7 69 -32 109t-103 40q-65 0 -117 -42t-65 -115q-12 -70 25 -116.5t105 -46.5z" />
    <glyph glyph-name="aring" unicode="&#xe5;" horiz-adv-x="631" 
d="M356 543q-53 0 -82 34t-21 82t46.5 78.5t90.5 30.5q53 0 81.5 -34t20.5 -82t-45.5 -78.5t-90.5 -30.5zM330 656q-3 -19 6 -30.5t29 -11.5q21 0 35 11.5t17 29.5t-7 30t-30 12q-42 0 -50 -41zM504 500h108l-88 -500h-108l10 59q-70 -72 -183 -72q-109 0 -167.5 82.5
t-38.5 191.5q20 112 99.5 182t184.5 70q117 0 169 -94zM275 90q64 0 115 39.5t67 102.5l5 29q7 69 -32 109t-103 40q-65 0 -117 -42t-65 -115q-12 -70 25 -116.5t105 -46.5z" />
    <glyph glyph-name="ae" unicode="&#xe6;" horiz-adv-x="1007" 
d="M780 513q105 0 160 -77t35 -187q-4 -20 -12 -45h-398q1 -58 38 -88t96 -30q88 0 143 62l78 -60q-90 -101 -217 -101q-119 0 -171 85l-13 -72h-103l11 65q-73 -78 -184 -78q-109 0 -167.5 82.5t-38.5 191.5q20 112 99.5 182t184.5 70q120 0 169 -90l14 77h103l-10 -59
q72 72 183 72zM581 293h292q0 61 -33.5 91.5t-86.5 30.5q-60 0 -105.5 -32.5t-66.5 -89.5zM275 90q64 0 115 39.5t67 102.5l5 29q7 69 -32 109t-103 40q-65 0 -117.5 -42t-65.5 -115q-12 -70 25.5 -116.5t105.5 -46.5z" />
    <glyph glyph-name="ccedilla" unicode="&#xe7;" horiz-adv-x="544" 
d="M273 93q44 0 81.5 21t61.5 57l87 -56q-68 -110 -205 -126l-6 -35q32 -7 51 -30t13 -56q-19 -100 -231 -84l14 79q118 -10 125 25q6 28 -68 30l14 74q-92 19 -140.5 94.5t-32.5 174.5q19 110 103.5 181t197.5 71q76 0 130.5 -35t77.5 -95l-97 -50q-29 74 -121 74
q-67 0 -119 -43t-64 -111q-11 -68 25 -114t103 -46z" />
    <glyph glyph-name="egrave" unicode="&#xe8;" horiz-adv-x="583" 
d="M423 568h-102l-85 135h127zM335 513q112 0 174.5 -77t41.5 -187q-9 -36 -12 -45h-398q1 -58 38 -88t97 -30q89 0 141 63l79 -60q-82 -102 -229 -102q-121 0 -185 79t-45 194q19 110 103 181.5t195 71.5zM156 293h293q1 62 -32.5 92t-88.5 30q-59 0 -104.5 -32.5
t-67.5 -89.5z" />
    <glyph glyph-name="eacute" unicode="&#xe9;" horiz-adv-x="583" 
d="M521 703l-126 -135h-107l100 135h133zM335 513q112 0 174.5 -77t41.5 -187q-9 -36 -12 -45h-398q1 -58 38 -88t97 -30q89 0 141 63l79 -60q-82 -102 -229 -102q-121 0 -185 79t-45 194q19 110 103 181.5t195 71.5zM156 293h293q1 62 -32.5 92t-88.5 30
q-59 0 -104.5 -32.5t-67.5 -89.5z" />
    <glyph glyph-name="ecircumflex" unicode="&#xea;" horiz-adv-x="583" 
d="M370 636l-67 -73h-111l130 140h113l82 -140h-109zM335 513q112 0 174.5 -77t41.5 -187q-9 -36 -12 -45h-398q1 -58 38 -88t97 -30q89 0 141 63l79 -60q-82 -102 -229 -102q-121 0 -185 79t-45 194q19 110 103 181.5t195 71.5zM156 293h293q1 62 -32.5 92t-88.5 30
q-59 0 -104.5 -32.5t-67.5 -89.5z" />
    <glyph glyph-name="edieresis" unicode="&#xeb;" horiz-adv-x="583" 
d="M261 561q-25 0 -39.5 17.5t-10.5 42.5t25 42.5t46 17.5t39.5 -17.5t9.5 -42.5t-25 -42.5t-45 -17.5zM451 561q-25 0 -39.5 17.5t-10.5 42.5t25 42.5t46 17.5t39.5 -17.5t9.5 -42.5t-25 -42.5t-45 -17.5zM335 513q112 0 174.5 -77t41.5 -187q-9 -36 -12 -45h-398
q1 -58 38 -88t97 -30q89 0 141 63l79 -60q-82 -102 -229 -102q-121 0 -185 79t-45 194q19 110 103 181.5t195 71.5zM156 293h293q1 62 -32.5 92t-88.5 30q-59 0 -104.5 -32.5t-67.5 -89.5z" />
    <glyph glyph-name="igrave" unicode="&#xec;" horiz-adv-x="233" 
d="M222 560l-26 140h-120l45 -140h101zM127 0h-108l88 500h108z" />
    <glyph glyph-name="iacute" unicode="&#xed;" horiz-adv-x="233" 
d="M119 560h104l90 140h-125zM19 0l88 500h108l-88 -500h-108z" />
    <glyph glyph-name="icircumflex" unicode="&#xee;" horiz-adv-x="233" 
d="M184 622l-47 -62h-113l115 140h113l67 -140h-107zM19 0l88 500h108l-88 -500h-108z" />
    <glyph glyph-name="idieresis" unicode="&#xef;" horiz-adv-x="233" 
d="M92 560q-25 0 -39.5 17.5t-10.5 42.5t25 42.5t46 17.5t39.5 -17.5t9.5 -42.5t-25 -42.5t-45 -17.5zM251 560q-25 0 -39.5 17.5t-10.5 42.5t25 42.5t46 17.5t39.5 -17.5t9.5 -42.5t-25 -42.5t-45 -17.5zM19 0l88 500h108l-88 -500h-108z" />
    <glyph glyph-name="eth" unicode="&#xf0;" horiz-adv-x="578" 
d="M508 371q43 -75 30 -153q-20 -109 -99.5 -169.5t-185.5 -60.5q-103 0 -171 73t-48 182q18 105 105.5 166t192.5 44q2 0 5 -0.5t4 -0.5l-53 96l-140 -67l15 83l92 44l-51 92h112l29 -50l132 63l-15 -82l-83 -39zM430 225q8 52 -11 86q-32 55 -114 55q-64 0 -108.5 -34.5
t-54.5 -96.5q-12 -64 24.5 -104.5t99.5 -40.5q62 0 107 35.5t57 99.5z" />
    <glyph glyph-name="ntilde" unicode="&#xf1;" horiz-adv-x="569" 
d="M337 595q-29 26 -45.5 22.5t-23.5 -45.5h-89q6 52 26 85.5t46.5 44.5t56 6t56.5 -26q28 -26 44.5 -22.5t24.5 45.5h89q-6 -52 -26.5 -85.5t-47 -44.5t-55.5 -6t-56 26zM367 513q86 0 131.5 -55.5t29.5 -150.5l-54 -307h-108l52 296q10 57 -14.5 86.5t-77.5 29.5
q-54 0 -95 -32.5t-55 -98.5l-49 -281h-108l88 500h108l-11 -60q63 73 163 73z" />
    <glyph glyph-name="ograve" unicode="&#xf2;" horiz-adv-x="599" 
d="M422 570l-60 135h-127l85 -135h102zM264 -13q-118 0 -183 80.5t-43 195.5q21 111 107 180.5t198 69.5q111 0 175 -80t44 -193q-20 -112 -105.5 -182.5t-192.5 -70.5zM272 92q65 0 117.5 43t65.5 117q13 71 -25 113.5t-102 42.5q-65 0 -117 -42.5t-65 -115.5
q-12 -73 25 -115.5t101 -42.5z" />
    <glyph glyph-name="oacute" unicode="&#xf3;" horiz-adv-x="599" 
d="M287 570h107l126 135h-133zM264 -13q-118 0 -183 80.5t-43 195.5q21 111 107 180.5t198 69.5q111 0 175 -80t44 -193q-20 -112 -105.5 -182.5t-192.5 -70.5zM272 92q65 0 117.5 43t65.5 117q13 71 -25 113.5t-102 42.5q-65 0 -117 -42.5t-65 -115.5q-12 -73 25 -115.5
t101 -42.5z" />
    <glyph glyph-name="ocircumflex" unicode="&#xf4;" horiz-adv-x="599" 
d="M369 638l-67 -73h-111l130 140h113l82 -140h-109zM343 513q111 0 175 -80t44 -193q-20 -112 -105.5 -182.5t-192.5 -70.5q-118 0 -183 80.5t-43 195.5q21 111 107 180.5t198 69.5zM455 252q13 71 -25 113.5t-102 42.5q-65 0 -117 -42.5t-65 -115.5q-12 -73 25 -115.5
t101 -42.5q65 0 117.5 43t65.5 117z" />
    <glyph glyph-name="otilde" unicode="&#xf5;" horiz-adv-x="599" 
d="M197 572q6 52 26 85.5t46.5 44.5t56 6t56.5 -26q28 -26 44.5 -22.5t24.5 45.5h89q-6 -52 -26.5 -85.5t-47 -44.5t-55.5 -6t-56 26q-29 26 -45.5 22.5t-23.5 -45.5h-89zM264 -13q-118 0 -183 80.5t-43 195.5q21 111 107 180.5t198 69.5q111 0 175 -80t44 -193
q-20 -112 -105.5 -182.5t-192.5 -70.5zM272 92q65 0 117.5 43t65.5 117q13 71 -25 113.5t-102 42.5q-65 0 -117 -42.5t-65 -115.5q-12 -73 25 -115.5t101 -42.5z" />
    <glyph glyph-name="odieresis" unicode="&#xf6;" horiz-adv-x="599" 
d="M260 563q-25 0 -39.5 17.5t-10.5 42.5t25 42.5t46 17.5t39.5 -17.5t9.5 -42.5t-25 -42.5t-45 -17.5zM450 563q-25 0 -39.5 17.5t-10.5 42.5t25 42.5t46 17.5t39.5 -17.5t9.5 -42.5t-25 -42.5t-45 -17.5zM264 -13q-118 0 -183 80.5t-43 195.5q21 111 107 180.5t198 69.5
q111 0 175 -80t44 -193q-20 -112 -105.5 -182.5t-192.5 -70.5zM272 92q65 0 117.5 43t65.5 117q13 71 -25 113.5t-102 42.5q-65 0 -117 -42.5t-65 -115.5q-12 -73 25 -115.5t101 -42.5z" />
    <glyph glyph-name="divide" unicode="&#xf7;" horiz-adv-x="570" 
d="M325 470q-31 0 -48.5 21.5t-12.5 52.5t29 51t56 20q30 0 47.5 -22t12.5 -53t-28.5 -50.5t-55.5 -19.5zM59 299l18 102h470l-18 -102h-470zM257 86q-31 0 -48.5 21.5t-11.5 52.5q5 31 29 51t55 20t48.5 -22t12.5 -53q-6 -31 -30 -50.5t-55 -19.5z" />
    <glyph glyph-name="oslash" unicode="&#xf8;" horiz-adv-x="599" 
d="M576 478l-53 -52q57 -76 39 -186q-20 -113 -104 -183t-194 -70q-86 0 -145 45l-41 -40l-51 30l51 50q-61 79 -40 191q21 111 107 180.5t198 69.5q81 0 140 -45l41 40zM146 250q-10 -56 13 -99l243 238q-33 19 -74 19q-65 0 -117 -42.5t-65 -115.5zM455 252q10 56 -12 96
l-244 -238q32 -18 73 -18q65 0 117.5 43t65.5 117z" />
    <glyph glyph-name="ugrave" unicode="&#xf9;" horiz-adv-x="569" 
d="M396 565h-102l-85 135h127zM442 500h108l-88 -500h-108l11 60q-63 -73 -163 -73q-86 0 -131.5 55.5t-29.5 150.5l54 307h108l-52 -296q-10 -57 14.5 -86.5t77.5 -29.5q54 0 95 32.5t55 98.5z" />
    <glyph glyph-name="uacute" unicode="&#xfa;" horiz-adv-x="569" 
d="M494 700l-126 -135h-107l100 135h133zM442 500h108l-88 -500h-108l11 60q-63 -73 -163 -73q-86 0 -131.5 55.5t-29.5 150.5l54 307h108l-52 -296q-10 -57 14.5 -86.5t77.5 -29.5q54 0 95 32.5t55 98.5z" />
    <glyph glyph-name="ucircumflex" unicode="&#xfb;" horiz-adv-x="569" 
d="M343 633l-67 -73h-111l130 140h113l82 -140h-109zM442 500h108l-88 -500h-108l11 60q-63 -73 -163 -73q-86 0 -131.5 55.5t-29.5 150.5l54 307h108l-52 -296q-10 -57 14.5 -86.5t77.5 -29.5q54 0 95 32.5t55 98.5z" />
    <glyph glyph-name="udieresis" unicode="&#xfc;" horiz-adv-x="569" 
d="M234 558q-25 0 -39.5 17.5t-10.5 42.5t25 42.5t46 17.5t39.5 -17.5t9.5 -42.5t-25 -42.5t-45 -17.5zM424 558q-25 0 -39.5 17.5t-10.5 42.5t25 42.5t46 17.5t39.5 -17.5t9.5 -42.5t-25 -42.5t-45 -17.5zM442 500h108l-88 -500h-108l11 60q-63 -73 -163 -73
q-86 0 -131.5 55.5t-29.5 150.5l54 307h108l-52 -296q-10 -57 14.5 -86.5t77.5 -29.5q54 0 95 32.5t55 98.5z" />
    <glyph glyph-name="yacute" unicode="&#xfd;" horiz-adv-x="520" 
d="M464 700l-126 -135h-107l100 135h133zM439 500h120l-283 -516q-105 -195 -276 -184l18 101q49 -3 82 20t63 76l9 14l-123 489h111l86 -367z" />
    <glyph glyph-name="thorn" unicode="&#xfe;" horiz-adv-x="631" 
d="M387 513q105 0 165 -81.5t42 -191.5t-96.5 -181.5t-183.5 -71.5q-121 0 -172 95l-50 -282h-109l159 900h108l-46 -264q72 77 183 77zM486 248q12 70 -25 116t-105 46q-65 0 -115.5 -40t-66.5 -104l-5 -27q-7 -69 32 -109t103 -40q65 0 117 42t65 116z" />
    <glyph glyph-name="ydieresis" unicode="&#xff;" horiz-adv-x="520" 
d="M204 558q-25 0 -39.5 17.5t-10.5 42.5t25 42.5t46 17.5t39.5 -17.5t9.5 -42.5t-25 -42.5t-45 -17.5zM394 558q-25 0 -39.5 17.5t-10.5 42.5t25 42.5t46 17.5t39.5 -17.5t9.5 -42.5t-25 -42.5t-45 -17.5zM439 500h120l-283 -516q-105 -195 -276 -184l18 101q49 -3 82 20
t63 76l9 14l-123 489h111l86 -367z" />
    <glyph glyph-name="Amacron" unicode="&#x100;" horiz-adv-x="655" 
d="M575 859l-15 -89h-280l15 89h280zM483 0l-23 141h-298l-75 -141h-126l377 700h138l130 -700h-123zM220 249h222l-52 320z" />
    <glyph glyph-name="amacron" unicode="&#x101;" horiz-adv-x="631" 
d="M513 659l-15 -89h-280l15 89h280zM504 500h108l-88 -500h-108l10 59q-70 -72 -183 -72q-109 0 -167.5 82.5t-38.5 191.5q20 112 99.5 182t184.5 70q117 0 169 -94zM275 90q64 0 115 39.5t67 102.5l5 29q7 69 -32 109t-103 40q-65 0 -117 -42t-65 -115q-12 -70 25 -116.5
t105 -46.5z" />
    <glyph glyph-name="Abreve" unicode="&#x102;" horiz-adv-x="655" 
d="M420 752q-73 0 -111 38t-26 102h98q-10 -59 49 -59t70 59h98q-11 -67 -56.5 -103.5t-121.5 -36.5zM483 0l-23 141h-298l-75 -141h-126l377 700h138l130 -700h-123zM220 249h222l-52 320z" />
    <glyph glyph-name="abreve" unicode="&#x103;" horiz-adv-x="631" 
d="M358 552q-73 0 -111 38t-26 102h98q-10 -59 49 -59t70 59h98q-11 -67 -56.5 -103.5t-121.5 -36.5zM504 500h108l-88 -500h-108l10 59q-70 -72 -183 -72q-109 0 -167.5 82.5t-38.5 191.5q20 112 99.5 182t184.5 70q117 0 169 -94zM275 90q64 0 115 39.5t67 102.5l5 29
q7 69 -32 109t-103 40q-65 0 -117 -42t-65 -115q-12 -70 25 -116.5t105 -46.5z" />
    <glyph glyph-name="Aogonek" unicode="&#x104;" horiz-adv-x="655" 
d="M527 -101q-6 -30 24 -30q18 0 33 5l-13 -73q-36 -14 -76 -14t-61.5 25.5t-14.5 65.5q10 58 86 122h-22l-23 141h-298l-75 -141h-126l377 700h138l130 -700q-69 -57 -79 -101zM220 249h222l-52 320z" />
    <glyph glyph-name="aogonek" unicode="&#x105;" horiz-adv-x="631" 
d="M524 0q-74 -64 -79 -108q-3 -25 23 -25q16 0 34 6l-13 -72q-31 -14 -70 -14q-43 0 -66 23.5t-16 63.5q10 53 87 126h-8l10 59q-70 -72 -183 -72q-109 0 -167.5 82.5t-38.5 191.5q20 112 99.5 182t184.5 70q117 0 169 -94l14 81h108zM275 90q64 0 115 39.5t67 102.5l5 29
q7 69 -32 109t-103 40q-65 0 -117 -42t-65 -115q-12 -70 25 -116.5t105 -46.5z" />
    <glyph glyph-name="Cacute" unicode="&#x106;" horiz-adv-x="734" 
d="M423 770h107l126 135h-133zM360 -13q-159 0 -245.5 109.5t-60.5 263.5q26 153 144 253t270 100q100 0 173 -45t109 -123l-104 -55q-52 111 -187 111q-110 0 -191 -71t-100 -180t37.5 -180t162.5 -71q143 0 225 116l94 -61q-56 -77 -142.5 -122t-184.5 -45z" />
    <glyph glyph-name="cacute" unicode="&#x107;" horiz-adv-x="544" 
d="M272 565h107l126 135h-133zM262 -13q-114 0 -179 80t-46 194q19 110 103.5 181t197.5 71q76 0 130.5 -35t77.5 -95l-97 -50q-29 74 -121 74q-67 0 -119 -43t-64 -111q-11 -68 25 -114t103 -46q44 0 81.5 21t61.5 57l87 -56q-38 -62 -102 -95t-139 -33z" />
    <glyph glyph-name="Cdotaccent" unicode="&#x10a;" horiz-adv-x="734" 
d="M491 763q-29 0 -46 20.5t-11 49.5q5 29 29 49.5t52 20.5q29 0 46.5 -20.5t12.5 -49.5q-6 -29 -30 -49.5t-53 -20.5zM360 -13q-159 0 -245.5 109.5t-60.5 263.5q26 153 144 253t270 100q100 0 173 -45t109 -123l-104 -55q-52 111 -187 111q-110 0 -191 -71t-100 -180
t37.5 -180t162.5 -71q143 0 225 116l94 -61q-56 -77 -142.5 -122t-184.5 -45z" />
    <glyph glyph-name="cdotaccent" unicode="&#x10b;" horiz-adv-x="544" 
d="M340 558q-29 0 -46 20.5t-11 49.5q5 29 29 49.5t52 20.5q29 0 46.5 -20.5t12.5 -49.5q-6 -29 -30 -49.5t-53 -20.5zM262 -13q-114 0 -179 80t-46 194q19 110 103.5 181t197.5 71q76 0 130.5 -35t77.5 -95l-97 -50q-29 74 -121 74q-67 0 -119 -43t-64 -111
q-11 -68 25 -114t103 -46q44 0 81.5 21t61.5 57l87 -56q-38 -62 -102 -95t-139 -33z" />
    <glyph glyph-name="Ccaron" unicode="&#x10c;" horiz-adv-x="734" 
d="M433 765l-82 140h106l40 -73l65 73h114l-130 -140h-113zM368 99q143 0 225 116l94 -61q-56 -77 -142.5 -122t-184.5 -45q-159 0 -245.5 109.5t-60.5 263.5q26 153 144 253t270 100q100 0 173 -45t109 -123l-104 -55q-52 111 -187 111q-110 0 -191 -71t-100 -180
t37.5 -180t162.5 -71z" />
    <glyph glyph-name="ccaron" unicode="&#x10d;" horiz-adv-x="544" 
d="M282 560l-82 140h106l40 -73l65 73h114l-130 -140h-113zM273 93q44 0 81.5 21t61.5 57l87 -56q-38 -62 -102 -95t-139 -33q-114 0 -179 80t-46 194q19 110 103.5 181t197.5 71q76 0 130.5 -35t77.5 -95l-97 -50q-29 74 -121 74q-67 0 -119 -43t-64 -111q-11 -68 25 -114
t103 -46z" />
    <glyph glyph-name="Dcaron" unicode="&#x10e;" horiz-adv-x="717" 
d="M361 760l-82 140h106l40 -73l65 73h114l-130 -140h-113zM424 700q139 0 219.5 -106.5t54.5 -253.5q-26 -148 -137 -244t-260 -96h-275l123 700h275zM587 353q18 104 -32.5 170.5t-149.5 66.5h-160l-85 -480h156q102 0 177.5 68.5t93.5 174.5z" />
    <glyph glyph-name="dcaron" unicode="&#x10f;" horiz-adv-x="727" 
d="M490 418l50 282h108l-123 -700h-108l11 60q-71 -73 -185 -73q-109 0 -167.5 82.5t-38.5 191.5q20 112 99.5 182t184.5 70q118 0 169 -95zM713 700h103l-63 -190h-83zM276 90q64 0 115 39.5t67 103.5l5 29q7 69 -32 108.5t-103 39.5q-65 0 -117.5 -42t-65.5 -115
q-12 -70 25.5 -116.5t105.5 -46.5z" />
    <glyph glyph-name="Dcroat" unicode="&#x110;" horiz-adv-x="748" 
d="M455 700q139 0 219.5 -106.5t54.5 -253.5q-26 -148 -137 -244t-260 -96h-275l51 293h-75l18 104h76l53 303h275zM618 353q18 104 -32.5 170.5t-149.5 66.5h-160l-34 -193h179l-18 -104h-180l-32 -183h156q102 0 177.5 68.5t93.5 174.5z" />
    <glyph glyph-name="dcroat" unicode="&#x111;" horiz-adv-x="637" 
d="M700 635l-13 -74h-63l-99 -561h-108l11 60q-71 -73 -185 -73q-109 0 -167.5 82.5t-38.5 191.5q20 112 99.5 182t184.5 70q118 0 169 -95l26 143h-164l13 74h164l11 65h108l-11 -65h63zM276 90q64 0 115 39t67 102l5 31q7 69 -32.5 108.5t-102.5 39.5q-65 0 -117.5 -42
t-65.5 -115q-12 -70 25.5 -116.5t105.5 -46.5z" />
    <glyph glyph-name="Emacron" unicode="&#x112;" 
d="M528 859l-15 -89h-280l15 89h280zM550 590h-305l-32 -182h280l-19 -108h-280l-34 -190h311l-20 -110h-425l123 700h420z" />
    <glyph glyph-name="emacron" unicode="&#x113;" horiz-adv-x="583" 
d="M514 662l-15 -89h-280l15 89h280zM335 513q112 0 174.5 -77t41.5 -187q-9 -36 -12 -45h-398q1 -58 38 -88t97 -30q89 0 141 63l79 -60q-82 -102 -229 -102q-121 0 -185 79t-45 194q19 110 103 181.5t195 71.5zM156 293h293q1 62 -32.5 92t-88.5 30q-59 0 -104.5 -32.5
t-67.5 -89.5z" />
    <glyph glyph-name="Edotaccent" unicode="&#x116;" 
d="M370 758q-29 0 -46 20.5t-11 49.5q5 29 29 49.5t52 20.5q29 0 46.5 -20.5t12.5 -49.5q-6 -29 -30 -49.5t-53 -20.5zM550 590h-305l-32 -182h280l-19 -108h-280l-34 -190h311l-20 -110h-425l123 700h420z" />
    <glyph glyph-name="edotaccent" unicode="&#x117;" horiz-adv-x="583" 
d="M356 561q-29 0 -46 20.5t-11 49.5q5 29 29 49.5t52 20.5q29 0 46.5 -20.5t12.5 -49.5q-6 -29 -30 -49.5t-53 -20.5zM335 513q112 0 174.5 -77t41.5 -187q-9 -36 -12 -45h-398q1 -58 38 -88t97 -30q89 0 141 63l79 -60q-82 -102 -229 -102q-121 0 -185 79t-45 194
q19 110 103 181.5t195 71.5zM156 293h293q1 62 -32.5 92t-88.5 30q-59 0 -104.5 -32.5t-67.5 -89.5z" />
    <glyph glyph-name="Eogonek" unicode="&#x118;" 
d="M550 590h-305l-32 -182h280l-19 -108h-280l-34 -190h311l-20 -110q-73 -61 -79 -103q-3 -14 3.5 -22t19.5 -8q12 -1 33 6l-13 -73q-32 -13 -75 -13q-42 0 -63 24.5t-14 63.5q11 60 91 125h-328l123 700h420z" />
    <glyph glyph-name="eogonek" unicode="&#x119;" horiz-adv-x="583" 
d="M335 513q112 0 174.5 -77t41.5 -187q-9 -36 -12 -45h-398q1 -58 38 -88t97 -30q89 0 141 63l79 -60q-20 -24 -42 -42q-113 -90 -125 -150q-6 -30 25 -30q16 0 32 6l-12 -72q-34 -14 -70 -14q-47 0 -68.5 24.5t-15.5 61.5q11 57 82 116q-24 -2 -35 -2q-121 0 -185 79
t-45 194q19 110 103 181.5t195 71.5zM156 293h293q1 62 -32.5 92t-88.5 30q-59 0 -104.5 -32.5t-67.5 -89.5z" />
    <glyph glyph-name="Ecaron" unicode="&#x11a;" 
d="M312 760l-82 140h106l40 -73l65 73h114l-130 -140h-113zM550 590h-305l-32 -182h280l-19 -108h-280l-34 -190h311l-20 -110h-425l123 700h420z" />
    <glyph glyph-name="ecaron" unicode="&#x11b;" horiz-adv-x="583" 
d="M298 563l-82 140h106l40 -73l65 73h114l-130 -140h-113zM335 513q112 0 174.5 -77t41.5 -187q-9 -36 -12 -45h-398q1 -58 38 -88t97 -30q89 0 141 63l79 -60q-82 -102 -229 -102q-121 0 -185 79t-45 194q19 110 103 181.5t195 71.5zM156 293h293q1 62 -32.5 92t-88.5 30
q-59 0 -104.5 -32.5t-67.5 -89.5z" />
    <glyph glyph-name="Gbreve" unicode="&#x11e;" horiz-adv-x="787" 
d="M487 757q-73 0 -111 38t-26 102h98q-10 -59 49 -59t70 59h98q-11 -67 -56.5 -103.5t-121.5 -36.5zM771 362l-8 -48q-25 -146 -133.5 -236.5t-261.5 -90.5q-164 0 -252 110t-61 266q26 152 143.5 251t271.5 99q103 0 177 -45t114 -126l-105 -55q-58 114 -195 114
q-111 0 -192 -70t-100 -179q-19 -110 38 -181.5t171 -71.5q96 0 161 43t94 117h-230l18 103h350z" />
    <glyph glyph-name="gbreve" unicode="&#x11f;" horiz-adv-x="632" 
d="M360 557q-73 0 -111 38t-26 102h98q-10 -59 49 -59t70 59h98q-11 -67 -56.5 -103.5t-121.5 -36.5zM507 500h106l-84 -477q-21 -119 -99 -177.5t-189 -58.5q-82 0 -141 31t-86 90l97 50q32 -73 137 -73q73 0 118 35.5t57 102.5l9 52q-72 -78 -181 -78q-114 0 -172.5 79
t-40.5 190q17 106 96.5 176.5t183.5 70.5q59 0 104.5 -25.5t69.5 -71.5zM279 99q68 0 119.5 42.5t64.5 110.5q14 72 -26.5 115.5t-107.5 43.5q-66 0 -119 -42t-64 -111t26 -114t107 -45z" />
    <glyph glyph-name="Gdotaccent" unicode="&#x120;" horiz-adv-x="787" 
d="M484 763q-29 0 -46 20.5t-11 49.5q5 29 29 49.5t52 20.5q29 0 46.5 -20.5t12.5 -49.5q-6 -29 -30 -49.5t-53 -20.5zM771 362l-8 -48q-25 -146 -133.5 -236.5t-261.5 -90.5q-164 0 -252 110t-61 266q26 152 143.5 251t271.5 99q103 0 177 -45t114 -126l-105 -55
q-58 114 -195 114q-111 0 -192 -70t-100 -179q-19 -110 38 -181.5t171 -71.5q96 0 161 43t94 117h-230l18 103h350z" />
    <glyph glyph-name="gdotaccent" unicode="&#x121;" horiz-adv-x="632" 
d="M357 563q-29 0 -46 20.5t-11 49.5q5 29 29 49.5t52 20.5q29 0 46.5 -20.5t12.5 -49.5q-6 -29 -30 -49.5t-53 -20.5zM507 500h106l-84 -477q-21 -119 -99 -177.5t-189 -58.5q-82 0 -141 31t-86 90l97 50q32 -73 137 -73q73 0 118 35.5t57 102.5l9 52q-72 -78 -181 -78
q-114 0 -172.5 79t-40.5 190q17 106 96.5 176.5t183.5 70.5q59 0 104.5 -25.5t69.5 -71.5zM279 99q68 0 119.5 42.5t64.5 110.5q14 72 -26.5 115.5t-107.5 43.5q-66 0 -119 -42t-64 -111t26 -114t107 -45z" />
    <glyph glyph-name="Gcommaaccent" unicode="&#x122;" horiz-adv-x="787" 
d="M771 362l-8 -48q-25 -146 -133.5 -236.5t-261.5 -90.5q-164 0 -252 110t-61 266q26 152 143.5 251t271.5 99q103 0 177 -45t114 -126l-105 -55q-58 114 -195 114q-111 0 -192 -70t-100 -179q-19 -110 38 -181.5t171 -71.5q96 0 161 43t94 117h-230l18 103h350zM266 -255
l43 190h104l-64 -190h-83z" />
    <glyph glyph-name="gcommaaccent" unicode="&#x123;" horiz-adv-x="632" 
d="M450 775l-43 -190h-103l63 190h83zM507 500h106l-84 -477q-21 -119 -99 -177.5t-189 -58.5q-82 0 -141 31t-86 90l97 50q32 -73 137 -73q73 0 118 35.5t57 102.5l9 52q-72 -78 -181 -78q-114 0 -172.5 79t-40.5 190q17 106 96.5 176.5t183.5 70.5q59 0 104.5 -25.5
t69.5 -71.5zM279 99q68 0 119.5 42.5t64.5 110.5q14 72 -26.5 115.5t-107.5 43.5q-66 0 -119 -42t-64 -111t26 -114t107 -45z" />
    <glyph glyph-name="Hbar" unicode="&#x126;" horiz-adv-x="715" 
d="M745 591l-15 -86h-62l-89 -505h-115l51 290h-300l-51 -290h-115l89 505h-63l15 86h63l19 109h115l-19 -109h300l19 109h115l-19 -109h62zM534 400l19 105h-300l-19 -105h300z" />
    <glyph glyph-name="hbar" unicode="&#x127;" horiz-adv-x="577" 
d="M374 513q87 0 132 -55.5t29 -150.5l-54 -307h-108l52 296q10 57 -14 86.5t-77 29.5q-55 0 -96.5 -33.5t-55.5 -103.5l-48 -275h-108l99 561h-65l13 74h65l11 65h108l-11 -65h142l-13 -74h-142l-22 -122q62 74 163 74z" />
    <glyph glyph-name="Imacron" unicode="&#x12a;" horiz-adv-x="255" 
d="M80 770l15 89h280l-15 -89h-280zM149 700h115l-123 -700h-115z" />
    <glyph glyph-name="imacron" unicode="&#x12b;" horiz-adv-x="233" 
d="M63 570l16 94h220l-16 -94h-220zM19 0l88 500h108l-88 -500h-108z" />
    <glyph glyph-name="Iogonek" unicode="&#x12e;" horiz-adv-x="255" 
d="M108 -133q13 -1 34 6l-13 -72q-34 -14 -76 -14q-41 0 -61 24.5t-15 62.5q7 56 64 126h-15l123 700h115l-123 -700q-51 -64 -57 -103q-4 -30 24 -30z" />
    <glyph glyph-name="iogonek" unicode="&#x12f;" horiz-adv-x="233" 
d="M197 713q29 0 46 -20t12 -49q-5 -28 -28 -48.5t-53 -20.5q-29 0 -45.5 20.5t-11.5 48.5t28 48.5t52 20.5zM127 0q-48 -62 -55 -101q-5 -32 23 -32q12 -1 33 6l-12 -72q-36 -14 -76 -14q-41 0 -61.5 25.5t-15.5 61.5q7 52 64 126h-8l88 500h108z" />
    <glyph glyph-name="Idotaccent" unicode="&#x130;" horiz-adv-x="255" 
d="M217 758q-29 0 -46 20.5t-11 49.5q5 29 29 49.5t52 20.5q29 0 46.5 -20.5t12.5 -49.5q-6 -29 -30 -49.5t-53 -20.5zM149 700h115l-123 -700h-115z" />
    <glyph glyph-name="dotlessi" unicode="&#x131;" horiz-adv-x="233" 
d="M19 0l88 500h108l-88 -500h-108z" />
    <glyph glyph-name="Kcommaaccent" unicode="&#x136;" horiz-adv-x="602" 
d="M673 700l-356 -344l236 -356h-124l-228 341l-60 -341h-115l123 700h115l-54 -309l322 309h141zM161 -255l43 190h104l-64 -190h-83z" />
    <glyph glyph-name="kcommaaccent" unicode="&#x137;" horiz-adv-x="510" 
d="M536 500l-261 -245l181 -255h-120l-167 240l-42 -240h-108l123 700h108l-73 -413l227 213h132zM129 -255l43 190h104l-64 -190h-83z" />
    <glyph glyph-name="Lacute" unicode="&#x139;" horiz-adv-x="485" 
d="M396 900l-126 -135h-107l100 135h133zM160 110h286l-20 -110h-400l123 700h115z" />
    <glyph glyph-name="lacute" unicode="&#x13a;" horiz-adv-x="234" 
d="M152 765h107l126 135h-133zM20 0l54 309l74 421h108l-75 -424l-53 -306h-108z" />
    <glyph glyph-name="Lcommaaccent" unicode="&#x13b;" horiz-adv-x="485" 
d="M160 110h286l-20 -110h-400l123 700h115zM127 -255l43 190h104l-64 -190h-83z" />
    <glyph glyph-name="lcommaaccent" unicode="&#x13c;" horiz-adv-x="234" 
d="M20 0l54 309l74 421h108l-75 -424l-53 -306h-108zM51 -255l64 190h-104l-43 -190h83z" />
    <glyph glyph-name="Lcaron" unicode="&#x13d;" horiz-adv-x="485" 
d="M264 700l-104 -590h286l-20 -110h-400l123 700h115zM465 700l-62 -180h-88l42 180h108z" />
    <glyph glyph-name="lcaron" unicode="&#x13e;" horiz-adv-x="319" 
d="M20 0l54 309l74 421h108l-75 -424l-53 -306h-108zM351 540l63 190h-103l-43 -190h83z" />
    <glyph glyph-name="Lslash" unicode="&#x141;" horiz-adv-x="515" 
d="M190 110h286l-20 -110h-400l40 225l-72 -42l20 116l72 42l63 359h115l-50 -283l157 92l-20 -116l-157 -92z" />
    <glyph glyph-name="lslash" unicode="&#x142;" horiz-adv-x="255" 
d="M281 480l-19 -105l-66 -40l-5 -29l-53 -306h-108l46 261l-66 -40l19 105l65 40l64 364h108l-51 -291z" />
    <glyph glyph-name="Nacute" unicode="&#x143;" horiz-adv-x="675" 
d="M359 765h107l126 135h-133zM26 0l123 700h87l249 -481l84 481h115l-123 -700h-87l-248 481l-85 -481h-115z" />
    <glyph glyph-name="nacute" unicode="&#x144;" horiz-adv-x="569" 
d="M502 705l-126 -135h-107l100 135h133zM367 513q86 0 131.5 -55.5t29.5 -150.5l-54 -307h-108l52 296q10 57 -14.5 86.5t-77.5 29.5q-54 0 -95 -32.5t-55 -98.5l-49 -281h-108l88 500h108l-11 -60q63 73 163 73z" />
    <glyph glyph-name="Ncommaaccent" unicode="&#x145;" horiz-adv-x="675" 
d="M26 0l123 700h87l249 -481l84 481h115l-123 -700h-87l-248 481l-85 -481h-115zM275 -255l64 190h-104l-43 -190h83z" />
    <glyph glyph-name="ncommaaccent" unicode="&#x146;" horiz-adv-x="569" 
d="M367 513q86 0 131.5 -55.5t29.5 -150.5l-54 -307h-108l52 296q10 57 -14.5 86.5t-77.5 29.5q-54 0 -95 -32.5t-55 -98.5l-49 -281h-108l88 500h108l-11 -60q63 73 163 73zM152 -255l43 190h104l-64 -190h-83z" />
    <glyph glyph-name="Ncaron" unicode="&#x147;" horiz-adv-x="675" 
d="M369 760l-82 140h106l40 -73l65 73h114l-130 -140h-113zM569 700h115l-123 -700h-87l-248 481l-85 -481h-115l123 700h87l249 -481z" />
    <glyph glyph-name="ncaron" unicode="&#x148;" horiz-adv-x="569" 
d="M279 565l-82 140h106l40 -73l65 73h114l-130 -140h-113zM367 513q86 0 131.5 -55.5t29.5 -150.5l-54 -307h-108l52 296q10 57 -14.5 86.5t-77.5 29.5q-54 0 -95 -32.5t-55 -98.5l-49 -281h-108l88 500h108l-11 -60q63 73 163 73z" />
    <glyph glyph-name="Eng" unicode="&#x14a;" horiz-adv-x="675" 
d="M569 700h115l-123 -700q-20 -112 -84.5 -159.5t-175.5 -40.5l19 106q55 -1 86 21t42 80l6 32l-228 442l-85 -481h-115l123 700h87l249 -481z" />
    <glyph glyph-name="eng" unicode="&#x14b;" horiz-adv-x="569" 
d="M367 513q86 0 131.5 -55.5t29.5 -150.5l-58 -327q-35 -208 -234 -193l19 104q90 -11 107 89l56 316q10 57 -14.5 86.5t-77.5 29.5q-54 0 -95 -32.5t-55 -98.5l-49 -281h-108l88 500h108l-11 -60q63 73 163 73z" />
    <glyph glyph-name="Omacron" unicode="&#x14c;" horiz-adv-x="798" 
d="M352 775l15 89h280l-15 -89h-280zM356 -13q-151 0 -240 110t-62 263q27 154 145 253.5t277 99.5q151 0 240 -111t63 -264q-28 -154 -145.5 -252.5t-277.5 -98.5zM371 99q107 0 190.5 70.5t102.5 178.5t-40 180.5t-166 72.5q-106 0 -188 -71.5t-101 -179.5t38.5 -179.5
t163.5 -71.5z" />
    <glyph glyph-name="omacron" unicode="&#x14d;" horiz-adv-x="599" 
d="M218 575l15 89h280l-15 -89h-280zM264 -13q-118 0 -183 80.5t-43 195.5q21 111 107 180.5t198 69.5q111 0 175 -80t44 -193q-20 -112 -105.5 -182.5t-192.5 -70.5zM272 92q65 0 117.5 43t65.5 117q13 71 -25 113.5t-102 42.5q-65 0 -117 -42.5t-65 -115.5
q-12 -73 25 -115.5t101 -42.5z" />
    <glyph glyph-name="Ohungarumlaut" unicode="&#x150;" horiz-adv-x="798" 
d="M330 765h109l104 135h-115zM493 765h109l114 135h-115zM356 -13q-151 0 -240 110t-62 263q27 154 145 253.5t277 99.5q151 0 240 -111t63 -264q-28 -154 -145.5 -252.5t-277.5 -98.5zM371 99q107 0 190.5 70.5t102.5 178.5t-40 180.5t-166 72.5q-106 0 -188 -71.5
t-101 -179.5t38.5 -179.5t163.5 -71.5z" />
    <glyph glyph-name="ohungarumlaut" unicode="&#x151;" horiz-adv-x="599" 
d="M196 565h109l104 135h-115zM359 565h109l114 135h-115zM264 -13q-118 0 -183 80.5t-43 195.5q21 111 107 180.5t198 69.5q111 0 175 -80t44 -193q-20 -112 -105.5 -182.5t-192.5 -70.5zM272 92q65 0 117.5 43t65.5 117q13 71 -25 113.5t-102 42.5q-65 0 -117 -42.5
t-65 -115.5q-12 -73 25 -115.5t101 -42.5z" />
    <glyph glyph-name="OE" unicode="&#x152;" horiz-adv-x="916" 
d="M936 590h-275l-32 -182h255l-19 -108h-255l-34 -190h281l-20 -110h-395q-46 -13 -99 -13q-149 0 -232.5 109t-56.5 262q27 152 144.5 253.5t267.5 101.5q59 0 99 -13h390zM462 114l83 472q-38 15 -94 15q-104 0 -183.5 -71t-98.5 -180t34 -180t157 -71q54 0 102 15z" />
    <glyph glyph-name="oe" unicode="&#x153;" horiz-adv-x="1002" 
d="M762 513q105 0 166 -77.5t42 -186.5q-9 -36 -12 -45h-398q1 -58 38 -88t97 -30q89 0 141 63l79 -60q-40 -49 -99.5 -75.5t-124.5 -26.5q-75 0 -127 31.5t-77 86.5q-40 -56 -100.5 -87t-130.5 -31q-118 0 -178 80t-41 191q19 108 101.5 181.5t200.5 73.5q65 0 114.5 -31.5
t74.5 -85.5q41 55 101.5 86t132.5 31zM575 293h293q1 62 -32.5 92t-88.5 30q-59 0 -104.5 -32.5t-67.5 -89.5zM456 250q12 68 -25 113t-103 45q-68 0 -119.5 -44.5t-63.5 -113.5t23.5 -113.5t103.5 -44.5q66 0 119 45t65 113z" />
    <glyph glyph-name="Racute" unicode="&#x154;" horiz-adv-x="613" 
d="M539 900l-126 -135h-107l100 135h133zM615 465q-13 -70 -59.5 -122t-114.5 -74l110 -269h-117l-103 255h-145l-45 -255h-115l123 700h275q92 0 149.5 -71t41.5 -164zM501 475q9 49 -18.5 83t-76.5 34h-161l-41 -234h165q48 0 85.5 34t46.5 83z" />
    <glyph glyph-name="racute" unicode="&#x155;" horiz-adv-x="343" 
d="M409 700l-126 -135h-107l100 135h133zM202 425q60 87 169 84l-21 -117q-36 3 -70 -7t-64.5 -41t-41.5 -79l-47 -265h-108l88 500h108z" />
    <glyph glyph-name="Rcommaaccent" unicode="&#x156;" horiz-adv-x="613" 
d="M615 465q-13 -70 -59.5 -122t-114.5 -74l110 -269h-117l-103 255h-145l-45 -255h-115l123 700h275q92 0 149.5 -71t41.5 -164zM501 475q9 49 -18.5 83t-76.5 34h-161l-41 -234h165q48 0 85.5 34t46.5 83zM189 -255l43 190h104l-64 -190h-83z" />
    <glyph glyph-name="rcommaaccent" unicode="&#x157;" horiz-adv-x="343" 
d="M202 425q60 87 169 84l-21 -117q-36 3 -70 -7t-64.5 -41t-41.5 -79l-47 -265h-108l88 500h108zM-31 -255l43 190h104l-64 -190h-83z" />
    <glyph glyph-name="Rcaron" unicode="&#x158;" horiz-adv-x="613" 
d="M316 760l-82 140h106l40 -73l65 73h114l-130 -140h-113zM615 465q-13 -70 -59.5 -122t-114.5 -74l110 -269h-117l-103 255h-145l-45 -255h-115l123 700h275q92 0 149.5 -71t41.5 -164zM501 475q9 49 -18.5 83t-76.5 34h-161l-41 -234h165q48 0 85.5 34t46.5 83z" />
    <glyph glyph-name="rcaron" unicode="&#x159;" horiz-adv-x="343" 
d="M186 560l-82 140h106l40 -73l65 73h114l-130 -140h-113zM202 425q60 87 169 84l-21 -117q-36 3 -70 -7t-64.5 -41t-41.5 -79l-47 -265h-108l88 500h108z" />
    <glyph glyph-name="Sacute" unicode="&#x15a;" horiz-adv-x="585" 
d="M315 770h107l126 135h-133zM269 -13q-104 0 -169.5 46t-85.5 126l104 54q25 -115 159 -115q61 0 98.5 24t45.5 64q10 45 -24 69.5t-110 49.5q-24 8 -44 16t-42 20t-37 24.5t-30 29.5t-21 36t-10 44t3 53q16 91 87.5 138t161.5 47q86 0 144.5 -41.5t83.5 -111.5l-101 -53
q-36 95 -136 95q-48 0 -82 -22t-42 -60q-9 -45 23.5 -69.5t106.5 -50.5q104 -37 144 -75q60 -57 42 -150q-17 -91 -90 -139.5t-179 -48.5z" />
    <glyph glyph-name="sacute" unicode="&#x15b;" horiz-adv-x="472" 
d="M224 570h107l126 135h-133zM206 -13q-150 0 -196 121l97 50q9 -33 37 -52.5t71 -19.5q81 0 90 53q4 25 -21.5 40.5t-63.5 27t-75.5 27t-59.5 50t-13 87.5q12 65 68 103.5t129 38.5q64 0 110.5 -27.5t69.5 -76.5l-97 -49q-18 56 -89 56q-30 0 -54 -13.5t-29 -40.5
q-5 -26 20.5 -42t64 -26.5t76 -25.5t59.5 -50t13 -89q-12 -69 -68.5 -105.5t-138.5 -36.5z" />
    <glyph glyph-name="Scedilla" unicode="&#x15e;" horiz-adv-x="585" 
d="M352 400q104 -37 144 -75q60 -57 42 -150q-15 -84 -79 -132t-158 -55l-6 -34q32 -7 51 -30t13 -56q-19 -100 -231 -84l14 79q118 -10 125 25q6 28 -68 30l13 73q-80 12 -130.5 55.5t-67.5 112.5l104 54q25 -115 159 -115q61 0 98.5 24t45.5 64q10 45 -24 69.5t-110 49.5
q-24 8 -44 16t-42 20t-37 24.5t-30 29.5t-21 36t-10 44t3 53q16 91 87.5 138t161.5 47q86 0 144.5 -41.5t83.5 -111.5l-101 -53q-36 95 -136 95q-48 0 -82 -22t-42 -60q-9 -45 23.5 -69.5t106.5 -50.5z" />
    <glyph glyph-name="scedilla" unicode="&#x15f;" horiz-adv-x="472" 
d="M180 362q-5 -26 20.5 -42t64 -26.5t76 -25.5t59.5 -50t13 -89q-11 -61 -56.5 -96.5t-113.5 -43.5l-6 -35q32 -7 51 -30t13 -56q-19 -100 -231 -84l14 79q118 -10 125 25q6 28 -68 30l13 73q-108 20 -144 117l97 50q9 -33 37 -52.5t71 -19.5q81 0 90 53q4 25 -21.5 40.5
t-63.5 27t-75.5 27t-59.5 50t-13 87.5q12 65 68 103.5t129 38.5q64 0 110.5 -27.5t69.5 -76.5l-97 -49q-18 56 -89 56q-30 0 -54 -13.5t-29 -40.5z" />
    <glyph glyph-name="Scaron" unicode="&#x160;" horiz-adv-x="585" 
d="M325 765l-82 140h106l40 -73l65 73h114l-130 -140h-113zM352 400q104 -37 144 -75q60 -57 42 -150q-17 -91 -90 -139.5t-179 -48.5q-104 0 -169.5 46t-85.5 126l104 54q25 -115 159 -115q61 0 98.5 24t45.5 64q10 45 -24 69.5t-110 49.5q-24 8 -44 16t-42 20t-37 24.5
t-30 29.5t-21 36t-10 44t3 53q16 91 87.5 138t161.5 47q86 0 144.5 -41.5t83.5 -111.5l-101 -53q-36 95 -136 95q-48 0 -82 -22t-42 -60q-9 -45 23.5 -69.5t106.5 -50.5z" />
    <glyph glyph-name="scaron" unicode="&#x161;" horiz-adv-x="472" 
d="M234 565l-82 140h106l40 -73l65 73h114l-130 -140h-113zM263 416q-30 0 -54 -13.5t-29 -40.5q-5 -26 20.5 -42t64 -26.5t76 -25.5t59.5 -50t13 -89q-12 -69 -68.5 -105.5t-138.5 -36.5q-150 0 -196 121l97 50q9 -33 37 -52.5t71 -19.5q81 0 90 53q4 25 -21.5 40.5
t-63.5 27t-75.5 27t-59.5 50t-13 87.5q12 65 68 103.5t129 38.5q64 0 110.5 -27.5t69.5 -76.5l-97 -49q-18 56 -89 56z" />
    <glyph glyph-name="uni0162" unicode="&#x162;" horiz-adv-x="540" 
d="M604 700l-19 -110h-197l-104 -590h-115l104 590h-198l19 110h510zM122 -255l43 190h104l-64 -190h-83z" />
    <glyph glyph-name="uni0163" unicode="&#x163;" horiz-adv-x="383" 
d="M244 396l-42 -240q-5 -31 7 -45t39.5 -15t67.5 1l-17 -97q-119 -15 -170.5 22.5t-34.5 133.5l42 240h-92l19 104h92l19 108l113 32l-25 -140h125l-19 -104h-124zM85 -255l43 190h104l-64 -190h-83z" />
    <glyph glyph-name="Tcaron" unicode="&#x164;" horiz-adv-x="540" 
d="M301 760l-82 140h106l40 -73l65 73h114l-130 -140h-113zM604 700l-19 -110h-197l-104 -590h-115l104 590h-198l19 110h510z" />
    <glyph glyph-name="tcaron" unicode="&#x165;" horiz-adv-x="396" 
d="M360 723h103l-61 -175h-83zM287 640l-25 -140h125l-19 -104h-124l-42 -240q-5 -31 7 -45t39.5 -15t67.5 1l-17 -97q-119 -15 -170.5 22.5t-34.5 133.5l42 240h-92l19 104h92l19 108z" />
    <glyph glyph-name="Tbar" unicode="&#x166;" horiz-adv-x="540" 
d="M585 590h-197l-34 -193h127l-18 -104h-128l-51 -293h-115l51 293h-127l18 104h128l34 193h-198l19 110h510z" />
    <glyph glyph-name="tbar" unicode="&#x167;" horiz-adv-x="383" 
d="M368 396h-124l-17 -98h86l-15 -87h-86l-10 -55q-5 -31 7 -45t39.5 -15t67.5 1l-17 -97q-119 -15 -170.5 22.5t-34.5 133.5l10 55h-61l15 87h61l17 98h-92l19 104h92l19 108l113 32l-25 -140h125z" />
    <glyph glyph-name="Umacron" unicode="&#x16a;" horiz-adv-x="651" 
d="M277 770l15 89h280l-15 -89h-280zM292 -13q-122 0 -188 68.5t-47 176.5l83 468h115l-81 -461q-11 -64 19.5 -102t104.5 -38q75 0 120 39t56 101l81 461h115l-83 -468q-20 -118 -100.5 -181.5t-194.5 -63.5z" />
    <glyph glyph-name="umacron" unicode="&#x16b;" horiz-adv-x="569" 
d="M487 659l-15 -89h-280l15 89h280zM442 500h108l-88 -500h-108l11 60q-63 -73 -163 -73q-86 0 -131.5 55.5t-29.5 150.5l54 307h108l-52 -296q-10 -57 14.5 -86.5t77.5 -29.5q54 0 95 32.5t55 98.5z" />
    <glyph glyph-name="Uring" unicode="&#x16e;" horiz-adv-x="651" 
d="M410 713q-53 0 -82 34t-21 82t46.5 78.5t90.5 30.5q53 0 81.5 -34t20.5 -82t-45.5 -78.5t-90.5 -30.5zM419 784q21 0 35 11.5t17 29.5t-7 30t-30 12q-42 0 -50 -41q-3 -19 6 -30.5t29 -11.5zM292 -13q-122 0 -188 68.5t-47 176.5l83 468h115l-81 -461q-11 -64 19.5 -102
t104.5 -38q75 0 120 39t56 101l81 461h115l-83 -468q-20 -118 -100.5 -181.5t-194.5 -63.5z" />
    <glyph glyph-name="uring" unicode="&#x16f;" horiz-adv-x="569" 
d="M330 543q-53 0 -82 34t-21 82t46.5 78.5t90.5 30.5q53 0 81.5 -34t20.5 -82t-45.5 -78.5t-90.5 -30.5zM304 656q-3 -19 6 -30.5t29 -11.5q21 0 35 11.5t17 29.5t-7 30t-30 12q-42 0 -50 -41zM442 500h108l-88 -500h-108l11 60q-63 -73 -163 -73q-86 0 -131.5 55.5
t-29.5 150.5l54 307h108l-52 -296q-10 -57 14.5 -86.5t77.5 -29.5q54 0 95 32.5t55 98.5z" />
    <glyph glyph-name="Uhungarumlaut" unicode="&#x170;" horiz-adv-x="651" 
d="M255 760h109l104 135h-115zM418 760h109l114 135h-115zM292 -13q-122 0 -188 68.5t-47 176.5l83 468h115l-81 -461q-11 -64 19.5 -102t104.5 -38q75 0 120 39t56 101l81 461h115l-83 -468q-20 -118 -100.5 -181.5t-194.5 -63.5z" />
    <glyph glyph-name="uhungarumlaut" unicode="&#x171;" horiz-adv-x="569" 
d="M383 695l-104 -135h-109l98 135h115zM442 560h-109l108 135h115zM393 219l49 281h108l-88 -500h-108l11 60q-63 -73 -163 -73q-86 0 -131.5 55.5t-29.5 150.5l54 307h108l-52 -296q-10 -57 14.5 -86.5t77.5 -29.5q54 0 95 32.5t55 98.5z" />
    <glyph glyph-name="Uogonek" unicode="&#x172;" horiz-adv-x="651" 
d="M555 700h115l-83 -468q-23 -137 -130 -202q-112 -83 -121 -134q-5 -28 24 -29q14 -1 32 6l-12 -73q-33 -13 -70 -13q-47 0 -68.5 26t-14.5 65q11 55 75 109h-10q-122 0 -188 68.5t-47 176.5l83 468h115l-81 -461q-11 -64 19.5 -102t104.5 -38q75 0 120 39t56 101z" />
    <glyph glyph-name="uogonek" unicode="&#x173;" horiz-adv-x="570" 
d="M442 500h108l-88 -500h-1q-74 -64 -79 -108q-3 -25 23 -25q16 0 34 6l-13 -72q-31 -14 -69 -14q-43 0 -66.5 23t-16.5 64q9 51 87 126h-7l11 60q-63 -73 -163 -73q-86 0 -131.5 55.5t-29.5 150.5l54 307h108l-52 -296q-10 -57 14.5 -86.5t77.5 -29.5q54 0 95 32.5
t55 98.5z" />
    <glyph glyph-name="Wcircumflex" unicode="&#x174;" horiz-adv-x="999" 
d="M603 833l-67 -73h-111l130 140h113l82 -140h-109zM934 700h124l-321 -700h-133l-59 511l-238 -511h-133l-75 700h115l52 -549l255 549h106l63 -549z" />
    <glyph glyph-name="wcircumflex" unicode="&#x175;" horiz-adv-x="775" 
d="M456 633l-67 -73h-111l130 140h113l82 -140h-109zM681 500h118l-245 -500h-106l-45 337l-159 -337h-111l-69 500h108l40 -345l162 345h106l-1 -2l46 -343z" />
    <glyph glyph-name="Ycircumflex" unicode="&#x176;" horiz-adv-x="593" 
d="M398 833l-67 -73h-111l130 140h113l82 -140h-109zM667 700l-302 -386l-55 -314h-115l55 316l-166 384h123l113 -275l210 275h137z" />
    <glyph glyph-name="ycircumflex" unicode="&#x177;" horiz-adv-x="520" 
d="M313 633l-67 -73h-111l130 140h113l82 -140h-109zM439 500h120l-283 -516q-105 -195 -276 -184l18 101q49 -3 82 20t63 76l9 14l-123 489h111l86 -367z" />
    <glyph glyph-name="Ydieresis" unicode="&#x178;" horiz-adv-x="593" 
d="M289 758q-25 0 -39.5 17.5t-10.5 42.5t25 42.5t46 17.5t39.5 -17.5t9.5 -42.5t-25 -42.5t-45 -17.5zM479 758q-25 0 -39.5 17.5t-10.5 42.5t25 42.5t46 17.5t39.5 -17.5t9.5 -42.5t-25 -42.5t-45 -17.5zM667 700l-302 -386l-55 -314h-115l55 316l-166 384h123l113 -275
l210 275h137z" />
    <glyph glyph-name="Zacute" unicode="&#x179;" 
d="M524 900l-126 -135h-107l100 135h133zM574 700l-16 -95l-400 -495h320l-19 -110h-466l18 95l400 495h-306l19 110h450z" />
    <glyph glyph-name="zacute" unicode="&#x17a;" horiz-adv-x="453" 
d="M450 700l-126 -135h-107l100 135h133zM459 500l-12 -72l-287 -326h239l-18 -102h-390l13 72l286 326h-219l18 102h370z" />
    <glyph glyph-name="Zdotaccent" unicode="&#x17b;" 
d="M359 758q-29 0 -46 20.5t-11 49.5q5 29 29 49.5t52 20.5q29 0 46.5 -20.5t12.5 -49.5q-6 -29 -30 -49.5t-53 -20.5zM574 700l-16 -95l-400 -495h320l-19 -110h-466l18 95l400 495h-306l19 110h450z" />
    <glyph glyph-name="zdotaccent" unicode="&#x17c;" horiz-adv-x="453" 
d="M285 558q-29 0 -46 20.5t-11 49.5q5 29 29 49.5t52 20.5q29 0 46.5 -20.5t12.5 -49.5q-6 -29 -30 -49.5t-53 -20.5zM459 500l-12 -72l-287 -326h239l-18 -102h-390l13 72l286 326h-219l18 102h370z" />
    <glyph glyph-name="Zcaron" unicode="&#x17d;" 
d="M301 760l-82 140h106l40 -73l65 73h114l-130 -140h-113zM574 700l-16 -95l-400 -495h320l-19 -110h-466l18 95l400 495h-306l19 110h450z" />
    <glyph glyph-name="zcaron" unicode="&#x17e;" horiz-adv-x="453" 
d="M227 560l-82 140h106l40 -73l65 73h114l-130 -140h-113zM71 398l18 102h370l-12 -72l-287 -326h239l-18 -102h-390l13 72l286 326h-219z" />
    <glyph glyph-name="florin" unicode="&#x192;" horiz-adv-x="441" 
d="M269 554q36 104 102.5 139t149.5 11l-19 -107q-36 19 -73.5 2.5t-52.5 -62.5l-46 -133h98l-19 -104h-115l-121 -351q-36 -104 -102.5 -139t-149.5 -11l18 107q36 -19 73.5 -2.5t53.5 62.5l115 334h-92l19 104h109z" />
    <glyph glyph-name="Scommaaccent" unicode="&#x218;" horiz-adv-x="585" 
d="M269 -13q-104 0 -169.5 46t-85.5 126l104 54q25 -115 159 -115q61 0 98.5 24t45.5 64q10 45 -24 69.5t-110 49.5q-24 8 -44 16t-42 20t-37 24.5t-30 29.5t-21 36t-10 44t3 53q16 91 87.5 138t161.5 47q86 0 144.5 -41.5t83.5 -111.5l-101 -53q-36 95 -136 95
q-48 0 -82 -22t-42 -60q-9 -45 23.5 -69.5t106.5 -50.5q104 -37 144 -75q60 -57 42 -150q-17 -91 -90 -139.5t-179 -48.5zM245 -255l64 190h-104l-43 -190h83z" />
    <glyph glyph-name="scommaaccent" unicode="&#x219;" horiz-adv-x="472" 
d="M206 -13q-150 0 -196 121l97 50q9 -33 37 -52.5t71 -19.5q81 0 90 53q4 25 -21.5 40.5t-63.5 27t-75.5 27t-59.5 50t-13 87.5q12 65 68 103.5t129 38.5q64 0 110.5 -27.5t69.5 -76.5l-97 -49q-18 56 -89 56q-30 0 -54 -13.5t-29 -40.5q-5 -26 20.5 -42t64 -26.5t76 -25.5
t59.5 -50t13 -89q-12 -69 -68.5 -105.5t-138.5 -36.5zM187 -255l64 190h-104l-43 -190h83z" />
    <glyph glyph-name="uni021A" unicode="&#x21a;" horiz-adv-x="540" 
d="M604 700l-19 -110h-197l-104 -590h-115l104 590h-198l19 110h510zM122 -255l43 190h104l-64 -190h-83z" />
    <glyph glyph-name="uni021B" unicode="&#x21b;" horiz-adv-x="383" 
d="M244 396l-42 -240q-5 -31 7 -45t39.5 -15t67.5 1l-17 -97q-119 -15 -170.5 22.5t-34.5 133.5l42 240h-92l19 104h92l19 108l113 32l-25 -140h125l-19 -104h-124zM85 -255l43 190h104l-64 -190h-83z" />
    <glyph glyph-name="circumflex" unicode="&#x2c6;" horiz-adv-x="365" 
d="M400 560h-109l-38 73l-67 -73h-111l130 140h113z" />
    <glyph glyph-name="caron" unicode="&#x2c7;" horiz-adv-x="365" 
d="M310 700h114l-130 -140h-113l-82 140h106l40 -73z" />
    <glyph glyph-name="breve" unicode="&#x2d8;" horiz-adv-x="355" 
d="M235 552q-73 0 -111 38t-26 102h98q-10 -59 49 -59t70 59h98q-11 -67 -56.5 -103.5t-121.5 -36.5z" />
    <glyph glyph-name="dotaccent" unicode="&#x2d9;" horiz-adv-x="160" 
d="M141 558q-29 0 -46 20.5t-11 49.5q5 29 29 49.5t52 20.5q29 0 46.5 -20.5t12.5 -49.5q-6 -29 -30 -49.5t-53 -20.5z" />
    <glyph glyph-name="ring" unicode="&#x2da;" horiz-adv-x="280" 
d="M192 543q-53 0 -82 34t-21 82t46.5 78.5t90.5 30.5q53 0 81.5 -34t20.5 -82t-45.5 -78.5t-90.5 -30.5zM201 614q21 0 35 11.5t17 29.5t-7 30t-30 12q-42 0 -50 -41q-3 -19 6 -30.5t29 -11.5z" />
    <glyph glyph-name="ogonek" unicode="&#x2db;" horiz-adv-x="206" 
d="M31 -213q-42 0 -63 24.5t-14 63.5q11 60 91 125h97q-73 -61 -79 -103q-3 -14 3.5 -22t19.5 -8q12 -1 33 6l-13 -73q-32 -13 -75 -13z" />
    <glyph glyph-name="tilde" unicode="&#x2dc;" horiz-adv-x="359" 
d="M82 567q6 52 26 85.5t46.5 44.5t56 6t56.5 -26q28 -26 44.5 -22.5t24.5 45.5h89q-6 -52 -26.5 -85.5t-47 -44.5t-55.5 -6t-56 26q-29 26 -45.5 22.5t-23.5 -45.5h-89z" />
    <glyph glyph-name="hungarumlaut" unicode="&#x2dd;" horiz-adv-x="402" 
d="M74 560h109l104 135h-115zM237 560h109l114 135h-115z" />
    <glyph glyph-name="gravecomb" unicode="&#x300;" horiz-adv-x="0" 
d="M36 565l-60 135h-127l85 -135h102z" />
    <glyph glyph-name="acutecomb" unicode="&#x301;" horiz-adv-x="0" 
d="M-174 565h107l126 135h-133z" />
    <glyph glyph-name="uni0302" unicode="&#x302;" horiz-adv-x="0" 
d="M35 560h-109l-38 73l-67 -73h-111l130 140h113z" />
    <glyph glyph-name="tildecomb" unicode="&#x303;" horiz-adv-x="0" 
d="M-284 567q6 52 26 85.5t46.5 44.5t56 6t56.5 -26q28 -26 44.5 -22.5t24.5 45.5h89q-6 -52 -26.5 -85.5t-47 -44.5t-55.5 -6t-56 26q-29 26 -45.5 22.5t-23.5 -45.5h-89z" />
    <glyph glyph-name="uni0304" unicode="&#x304;" horiz-adv-x="0" 
d="M-243 570l15 89h280l-15 -89h-280z" />
    <glyph glyph-name="uni0306" unicode="&#x306;" horiz-adv-x="0" 
d="M-120 552q-73 0 -111 38t-26 102h98q-10 -59 49 -59t70 59h98q-11 -67 -56.5 -103.5t-121.5 -36.5z" />
    <glyph glyph-name="uni0307" unicode="&#x307;" horiz-adv-x="0" 
d="M-36 558q-29 0 -46 20.5t-11 49.5q5 29 29 49.5t52 20.5q29 0 46.5 -20.5t12.5 -49.5q-6 -29 -30 -49.5t-53 -20.5z" />
    <glyph glyph-name="uni0308" unicode="&#x308;" horiz-adv-x="0" 
d="M-215 558q-25 0 -39.5 17.5t-10.5 42.5t25 42.5t46 17.5t39.5 -17.5t9.5 -42.5t-25 -42.5t-45 -17.5zM-25 558q-25 0 -39.5 17.5t-10.5 42.5t25 42.5t46 17.5t39.5 -17.5t9.5 -42.5t-25 -42.5t-45 -17.5z" />
    <glyph glyph-name="uni030A" unicode="&#x30a;" horiz-adv-x="0" 
d="M-85 543q-53 0 -82 34t-21 82t46.5 78.5t90.5 30.5q53 0 81.5 -34t20.5 -82t-45.5 -78.5t-90.5 -30.5zM-76 614q21 0 35 11.5t17 29.5t-7 30t-30 12q-42 0 -50 -41q-3 -19 6 -30.5t29 -11.5z" />
    <glyph glyph-name="uni030B" unicode="&#x30b;" horiz-adv-x="0" 
d="M-327 560h109l104 135h-115zM-164 560h109l114 135h-115z" />
    <glyph glyph-name="uni030C" unicode="&#x30c;" horiz-adv-x="0" 
d="M-55 700h114l-130 -140h-113l-82 140h106l40 -73z" />
    <glyph glyph-name="uni0312" unicode="&#x312;" horiz-adv-x="0" 
d="M24 970l-63 -190h103l43 190h-83z" />
    <glyph glyph-name="uni0326" unicode="&#x326;" horiz-adv-x="0" 
d="M-139 -255l64 190h-104l-43 -190h83z" />
    <glyph glyph-name="uni0327" unicode="&#x327;" horiz-adv-x="0" 
d="M-151 -46q32 -7 51 -30t13 -56q-19 -100 -231 -84l14 79q118 -10 125 25q6 28 -68 30l15 82h89z" />
    <glyph glyph-name="uni0328" unicode="&#x328;" horiz-adv-x="0" 
d="M-180 -213q-42 0 -63 24.5t-14 63.5q11 60 91 125h97q-73 -61 -79 -103q-3 -14 3.5 -22t19.5 -8q12 -1 33 6l-13 -73q-32 -13 -75 -13z" />
    <glyph glyph-name="uni0394" unicode="&#x394;" horiz-adv-x="645" 
d="M471 700l125 -700h-635l372 700h138zM147 108h312l-75 461z" />
    <glyph glyph-name="uni03A9" unicode="&#x3a9;" horiz-adv-x="788" 
d="M775 351q-27 -152 -158 -241h102l-19 -110h-276l7 40l13 70q81 23 140 88t75 152q19 108 -39.5 179.5t-163.5 71.5q-106 0 -189 -71.5t-102 -179.5q-16 -87 20 -152t110 -88l-20 -110h-276l20 110h113q-50 47 -72 114.5t-9 144.5q26 149 144.5 246.5t275.5 97.5
q148 0 239 -107t65 -255z" />
    <glyph glyph-name="pi" unicode="&#x3c0;" horiz-adv-x="660" 
d="M679 500l-18 -102h-80l-70 -398h-108l70 398h-229l-70 -398h-108l70 398h-85l18 102h610z" />
    <glyph glyph-name="uni0401" unicode="&#x401;" 
d="M275 758q-25 0 -39.5 17.5t-10.5 42.5t25 42.5t46 17.5t39.5 -17.5t9.5 -42.5t-25 -42.5t-45 -17.5zM465 758q-25 0 -39.5 17.5t-10.5 42.5t25 42.5t46 17.5t39.5 -17.5t9.5 -42.5t-25 -42.5t-45 -17.5zM550 590h-305l-32 -182h280l-19 -108h-280l-34 -190h311l-20 -110
h-425l123 700h420z" />
    <glyph glyph-name="uni0402" unicode="&#x402;" horiz-adv-x="692" 
d="M487 468q89 0 134 -51t30 -142l-16 -91q-19 -107 -76.5 -153.5t-162.5 -39.5l19 107q48 -4 72.5 15.5t32.5 70.5l14 82q9 54 -12 76t-69 22q-57 0 -125 -28l-59 -336h-115l104 590h-183l19 110h505l-19 -110h-207l-26 -148q74 26 140 26z" />
    <glyph glyph-name="uni0403" unicode="&#x403;" horiz-adv-x="480" 
d="M525 899l-126 -135h-107l100 135h133zM544 700l-19 -110h-280l-104 -590h-115l123 700h395z" />
    <glyph glyph-name="uni0404" unicode="&#x404;" horiz-adv-x="734" 
d="M368 99q143 0 225 116l94 -61q-56 -77 -142.5 -122t-184.5 -45q-159 0 -245.5 109.5t-60.5 263.5q26 153 144 253t270 100q100 0 173 -45t109 -123l-104 -55q-52 111 -187 111q-95 0 -170 -54.5t-107 -142.5h337l-19 -108h-336q1 -88 56.5 -142.5t147.5 -54.5z" />
    <glyph glyph-name="uni0405" unicode="&#x405;" horiz-adv-x="585" 
d="M269 -13q-104 0 -169.5 46t-85.5 126l104 54q25 -115 159 -115q61 0 98.5 24t45.5 64q10 45 -24 69.5t-110 49.5q-24 8 -44 16t-42 20t-37 24.5t-30 29.5t-21 36t-10 44t3 53q16 91 87.5 138t161.5 47q86 0 144.5 -41.5t83.5 -111.5l-101 -53q-36 95 -136 95
q-48 0 -82 -22t-42 -60q-9 -45 23.5 -69.5t106.5 -50.5q104 -37 144 -75q60 -57 42 -150q-17 -91 -90 -139.5t-179 -48.5z" />
    <glyph glyph-name="uni0406" unicode="&#x406;" horiz-adv-x="255" 
d="M149 700h115l-123 -700h-115z" />
    <glyph glyph-name="uni0407" unicode="&#x407;" horiz-adv-x="255" 
d="M122 758q-25 0 -39.5 17.5t-10.5 42.5t25 42.5t46 17.5t39.5 -17.5t9.5 -42.5t-25 -42.5t-45 -17.5zM312 758q-25 0 -39.5 17.5t-10.5 42.5t25 42.5t46 17.5t39.5 -17.5t9.5 -42.5t-25 -42.5t-45 -17.5zM149 700h115l-123 -700h-115z" />
    <glyph glyph-name="uni0408" unicode="&#x408;" horiz-adv-x="562" 
d="M224 -13q-164 0 -212 133l105 57q23 -78 116 -78q62 0 99 29.5t47 83.5l86 488h115l-86 -489q-20 -114 -92.5 -169t-177.5 -55z" />
    <glyph glyph-name="uni0409" unicode="&#x409;" horiz-adv-x="973" 
d="M746 425q92 0 148.5 -64t40.5 -156q-16 -93 -89.5 -149t-174.5 -56h-237l104 590h-219l-52 -293q-17 -97 -47.5 -161t-72 -94t-83.5 -39.5t-96 -4.5l19 107q65 -9 104.5 32.5t60.5 157.5l71 405h449l-48 -275h122zM820 214q9 48 -17.5 75.5t-75.5 27.5h-122l-37 -209h122
q49 0 85.5 29t44.5 77z" />
    <glyph glyph-name="uni040A" unicode="&#x40a;" horiz-adv-x="966" 
d="M739 425q92 0 148.5 -64t40.5 -156q-16 -93 -89.5 -149t-174.5 -56h-238l56 317h-285l-56 -317h-115l123 700h115l-48 -275h285l48 275h115l-48 -275h123zM813 214q8 48 -18.5 75.5t-74.5 27.5h-123l-37 -209h123q48 0 84.5 28.5t45.5 77.5z" />
    <glyph glyph-name="uni040B" unicode="&#x40b;" horiz-adv-x="697" 
d="M483 468q90 0 136.5 -50t31.5 -143l-48 -275h-115l46 266q9 54 -13 76t-72 22q-60 0 -121 -28l-59 -336h-115l104 590h-183l19 110h505l-19 -110h-207l-26 -148q68 26 136 26z" />
    <glyph glyph-name="uni040C" unicode="&#x40c;" horiz-adv-x="602" 
d="M555 899l-126 -135h-107l100 135h133zM673 700l-356 -344l236 -356h-124l-228 341l-60 -341h-115l123 700h115l-54 -309l322 309h141z" />
    <glyph glyph-name="uni040E" unicode="&#x40e;" horiz-adv-x="590" 
d="M547 863l-16 -94h-280l16 94h280zM540 700h119l-299 -520q-58 -103 -127.5 -144t-162.5 -36l19 106q58 -5 96.5 19t70.5 80l2 4l-154 491h111l113 -369z" />
    <glyph glyph-name="uni040F" unicode="&#x40f;" horiz-adv-x="655" 
d="M549 700h115l-123 -700h-200l-24 -134h-115l24 134h-200l123 700h115l-104 -590h285z" />
    <glyph glyph-name="uni0410" unicode="&#x410;" horiz-adv-x="655" 
d="M483 0l-23 141h-298l-75 -141h-126l377 700h138l130 -700h-123zM220 249h222l-52 320z" />
    <glyph glyph-name="uni0411" unicode="&#x411;" horiz-adv-x="586" 
d="M560 590h-315l-28 -160h150q92 0 147 -66t39 -159q-17 -93 -88 -149t-174 -56h-265l123 700h430zM348 322h-150l-38 -214h150q48 0 85 29.5t45 77.5q9 50 -18 78.5t-74 28.5z" />
    <glyph glyph-name="uni0412" unicode="&#x412;" horiz-adv-x="610" 
d="M597 501q-13 -90 -95 -141q84 -54 68 -165q-12 -85 -78.5 -140t-170.5 -55h-295l123 700h266q88 0 141.5 -57t40.5 -142zM403 592h-158l-32 -184h160q40 0 70.5 26.5t38.5 65.5q7 39 -15 65.5t-64 26.5zM457 206q8 42 -15 70t-65 28h-183l-34 -196h179q44 0 77.5 28.5
t40.5 69.5z" />
    <glyph glyph-name="uni0413" unicode="&#x413;" horiz-adv-x="480" 
d="M544 700l-19 -110h-280l-104 -590h-115l123 700h395z" />
    <glyph glyph-name="uni0414" unicode="&#x414;" horiz-adv-x="700" 
d="M674 700l-104 -590h76l-43 -244h-115l23 134h-425l-23 -134h-116l43 244h65q74 78 104 241l61 349h454zM185 110h271l85 482h-224l-43 -243q-29 -161 -89 -239z" />
    <glyph glyph-name="uni0415" unicode="&#x415;" 
d="M550 590h-305l-32 -182h280l-19 -108h-280l-34 -190h311l-20 -110h-425l123 700h420z" />
    <glyph glyph-name="uni0416" unicode="&#x416;" horiz-adv-x="886" 
d="M943 700l-315 -352l199 -348h-121l-190 328l-58 -328h-115l58 328l-295 -328h-135l328 366l-198 334h121l188 -319l56 319h115l-56 -316l282 316h136z" />
    <glyph glyph-name="uni0417" unicode="&#x417;" horiz-adv-x="562" 
d="M552 505q-18 -99 -108 -147q45 -27 66 -71.5t11 -100.5q-17 -93 -89.5 -146t-191.5 -53q-95 0 -153 44.5t-79 117.5l104 54q14 -50 46 -79t99 -29q62 0 102 29.5t49 77.5q8 47 -20.5 74.5t-89.5 27.5h-85l18 104h62q59 0 97 28t46 73q8 44 -19 70t-82 26q-95 0 -151 -97
l-94 60q88 145 264 145q99 0 156.5 -59.5t41.5 -148.5z" />
    <glyph glyph-name="uni0418" unicode="&#x418;" horiz-adv-x="675" 
d="M26 0l123 700h115l-82 -466l412 466h90l-123 -700h-115l82 467l-412 -467h-90z" />
    <glyph glyph-name="uni0419" unicode="&#x419;" horiz-adv-x="675" 
d="M285 770l16 94h280l-16 -94h-280zM26 0l123 700h115l-82 -466l412 466h90l-123 -700h-115l82 467l-412 -467h-90z" />
    <glyph glyph-name="uni041A" unicode="&#x41a;" horiz-adv-x="602" 
d="M673 700l-356 -344l236 -356h-124l-228 341l-60 -341h-115l123 700h115l-54 -309l322 309h141z" />
    <glyph glyph-name="uni041B" unicode="&#x41b;" horiz-adv-x="683" 
d="M-32 -2l19 107q65 -9 104.5 32.5t60.5 157.5l71 405h469l-123 -700h-115l104 590h-239l-52 -293q-17 -97 -48 -161.5t-72.5 -94t-83.5 -39t-95 -4.5z" />
    <glyph glyph-name="uni041C" unicode="&#x41c;" horiz-adv-x="810" 
d="M819 700l-123 -700h-115l88 498l-276 -351h-14l-149 361l-89 -508h-115l123 700h121l144 -355l274 355h131z" />
    <glyph glyph-name="uni041D" unicode="&#x41d;" horiz-adv-x="670" 
d="M564 700h115l-123 -700h-115l53 303h-300l-53 -303h-115l123 700h115l-50 -287h300z" />
    <glyph glyph-name="uni041E" unicode="&#x41e;" horiz-adv-x="798" 
d="M356 -13q-151 0 -240 110t-62 263q27 154 145 253.5t277 99.5q151 0 240 -111t63 -264q-28 -154 -145.5 -252.5t-277.5 -98.5zM371 99q107 0 190.5 70.5t102.5 178.5t-40 180.5t-166 72.5q-106 0 -188 -71.5t-101 -179.5t38.5 -179.5t163.5 -71.5z" />
    <glyph glyph-name="uni041F" unicode="&#x41f;" horiz-adv-x="655" 
d="M664 700l-123 -700h-115l104 590h-285l-104 -590h-115l123 700h515z" />
    <glyph glyph-name="uni0420" unicode="&#x420;" horiz-adv-x="590" 
d="M398 700q104 0 159.5 -67t40.5 -168q-16 -99 -91.5 -162t-191.5 -63h-132l-42 -240h-115l123 700h249zM484 475q9 53 -17.5 85t-84.5 32h-137l-43 -244h125q64 0 105.5 35.5t51.5 91.5z" />
    <glyph glyph-name="uni0421" unicode="&#x421;" horiz-adv-x="734" 
d="M360 -13q-159 0 -245.5 109.5t-60.5 263.5q26 153 144 253t270 100q100 0 173 -45t109 -123l-104 -55q-52 111 -187 111q-110 0 -191 -71t-100 -180t37.5 -180t162.5 -71q143 0 225 116l94 -61q-56 -77 -142.5 -122t-184.5 -45z" />
    <glyph glyph-name="uni0422" unicode="&#x422;" horiz-adv-x="540" 
d="M604 700l-19 -110h-197l-104 -590h-115l104 590h-198l19 110h510z" />
    <glyph glyph-name="uni0423" unicode="&#x423;" horiz-adv-x="590" 
d="M540 700h119l-299 -520q-58 -103 -127.5 -144t-162.5 -36l19 106q58 -5 96.5 19t70.5 80l2 4l-154 491h111l113 -369z" />
    <glyph glyph-name="uni0424" unicode="&#x424;" horiz-adv-x="815" 
d="M531 629q142 -15 219.5 -91.5t56.5 -194.5q-22 -121 -122.5 -192t-252.5 -81l-14 -80h-113l14 81q-143 15 -219.5 91.5t-55.5 195.5q21 121 121.5 191.5t252.5 80.5l14 80h113zM159 350q-14 -78 32.5 -122t146.5 -53l61 350q-212 -19 -240 -175zM692 350q14 79 -33 122.5
t-147 52.5l-61 -350q213 19 241 175z" />
    <glyph glyph-name="uni0425" unicode="&#x425;" horiz-adv-x="600" 
d="M652 700l-269 -345l158 -355h-123l-113 254l-198 -254h-136l285 366l-149 334h123l104 -234l182 234h136z" />
    <glyph glyph-name="uni0426" unicode="&#x426;" horiz-adv-x="690" 
d="M561 110h75l-43 -244h-115l23 134h-475l123 700h115l-103 -590h285l103 590h115z" />
    <glyph glyph-name="uni0427" unicode="&#x427;" horiz-adv-x="630" 
d="M524 700h115l-123 -700h-115l45 257q-64 -21 -135 -21q-120 0 -179 58t-42 156l44 250h115l-42 -238q-10 -59 18 -87.5t101 -28.5q68 0 141 27z" />
    <glyph glyph-name="uni0428" unicode="&#x428;" horiz-adv-x="945" 
d="M839 700h115l-123 -700h-805l123 700h115l-103 -590h230l103 590h115l-103 -590h230z" />
    <glyph glyph-name="uni0429" unicode="&#x429;" horiz-adv-x="980" 
d="M851 110h74l-43 -244h-115l24 134h-765l123 700h115l-103 -590h230l103 590h115l-103 -590h230l103 590h115z" />
    <glyph glyph-name="uni042A" unicode="&#x42a;" horiz-adv-x="696" 
d="M131 0l104 590h-175l19 110h290l-42 -240h139q94 0 152.5 -72t41.5 -168q-17 -101 -91 -160.5t-181 -59.5h-257zM265 108h141q52 0 91 34.5t48 87.5q10 53 -17.5 87.5t-80.5 34.5h-139z" />
    <glyph glyph-name="uni042B" unicode="&#x42b;" horiz-adv-x="813" 
d="M26 0l123 700h115l-42 -240h139q94 0 152.5 -72t41.5 -168q-17 -101 -91 -160.5t-181 -59.5h-257zM584 0l123 700h115l-123 -700h-115zM160 108h141q52 0 91 34.5t48 87.5q10 53 -17.5 87.5t-80.5 34.5h-139z" />
    <glyph glyph-name="uni042C" unicode="&#x42c;" horiz-adv-x="591" 
d="M361 460q94 0 152.5 -72t41.5 -168q-17 -101 -91 -160.5t-181 -59.5h-257l123 700h115l-42 -240h139zM440 230q10 53 -17.5 87.5t-80.5 34.5h-139l-43 -244h141q52 0 91 34.5t48 87.5z" />
    <glyph glyph-name="uni042D" unicode="&#x42d;" horiz-adv-x="730" 
d="M411 713q158 0 241.5 -108.5t58.5 -263.5q-25 -152 -139 -253t-272 -101q-101 0 -175.5 45t-107.5 125l105 55q21 -53 70 -83t118 -30q94 0 167 54t105 143h-336l19 108h336q-1 90 -54.5 143.5t-146.5 53.5q-71 0 -129 -32t-95 -86l-94 61q54 78 142 123.5t187 45.5z" />
    <glyph glyph-name="uni042E" unicode="&#x42e;" horiz-adv-x="1051" 
d="M729 713q151 0 240 -111t63 -264q-28 -153 -147 -252t-276 -99q-136 0 -221.5 91.5t-81.5 226.5h-111l-54 -305h-115l123 700h115l-50 -285h111q42 133 152.5 215.5t251.5 82.5zM917 348q19 108 -40 180.5t-166 72.5q-106 0 -188 -71.5t-101 -179.5t38.5 -179.5
t163.5 -71.5q107 0 190.5 70.5t102.5 178.5z" />
    <glyph glyph-name="uni042F" unicode="&#x42f;" horiz-adv-x="623" 
d="M632 700l-123 -700h-115l45 255h-103l-212 -255h-141l228 267q-69 24 -102 85t-20 133q16 91 89 153t178 62h276zM302 358h155l41 234h-158q-50 0 -89.5 -33t-48.5 -82q-8 -49 20.5 -84t79.5 -35z" />
    <glyph glyph-name="uni0430" unicode="&#x430;" horiz-adv-x="631" 
d="M504 500h108l-88 -500h-108l10 59q-70 -72 -183 -72q-109 0 -167.5 82.5t-38.5 191.5q20 112 99.5 182t184.5 70q117 0 169 -94zM275 90q64 0 115 39.5t67 102.5l5 29q7 69 -32 109t-103 40q-65 0 -117 -42t-65 -115q-12 -70 25 -116.5t105 -46.5z" />
    <glyph glyph-name="uni0431" unicode="&#x431;" horiz-adv-x="567" 
d="M255 -13q-112 0 -176 75t-44 190q22 129 71 198.5t173 125.5q21 9 61.5 26t56 24.5t39 22t37 30.5t23.5 39l82 -51q-10 -27 -28 -49t-35 -36.5t-51 -31t-53 -24.5t-65 -25q-69 -26 -104 -52t-54 -65q68 63 168 63q85 0 142.5 -66.5t39.5 -166.5q-17 -102 -94.5 -164.5
t-188.5 -62.5zM265 88q63 0 109.5 37.5t56.5 95.5t-23 96.5t-94 38.5q-58 0 -109 -34.5t-61 -93.5q-11 -60 24.5 -100t96.5 -40z" />
    <glyph glyph-name="uni0432" unicode="&#x432;" horiz-adv-x="507" 
d="M479 355q-12 -70 -70 -101q67 -38 53 -119q-11 -62 -58.5 -98.5t-128.5 -36.5h-256l88 500h236q71 0 109 -42t27 -103zM319 408h-125l-20 -111h122q69 0 78 56q11 55 -55 55zM359 153q5 26 -10.5 40.5t-47.5 14.5h-142l-20 -114h142q31 0 52.5 15.5t25.5 43.5z" />
    <glyph glyph-name="uni0433" unicode="&#x433;" horiz-adv-x="400" 
d="M442 500l-18 -104h-227l-70 -396h-108l88 500h335z" />
    <glyph glyph-name="uni0434" unicode="&#x434;" horiz-adv-x="595" 
d="M547 500l-70 -398h67l-42 -236h-106l24 134h-343l-24 -134h-106l42 236h62q57 67 77 181l38 217h381zM172 102h199l53 299h-169l-21 -118q-19 -113 -62 -181z" />
    <glyph glyph-name="uni0435" unicode="&#x435;" horiz-adv-x="583" 
d="M335 513q112 0 174.5 -77t41.5 -187q-9 -36 -12 -45h-398q1 -58 38 -88t97 -30q89 0 141 63l79 -60q-82 -102 -229 -102q-121 0 -185 79t-45 194q19 110 103 181.5t195 71.5zM156 293h293q1 62 -32.5 92t-88.5 30q-59 0 -104.5 -32.5t-67.5 -89.5z" />
    <glyph glyph-name="uni0436" unicode="&#x436;" horiz-adv-x="721" 
d="M743 500l-232 -250l151 -250h-111l-141 235l-41 -235h-106l41 233l-214 -233h-119l243 266l-145 234h111l133 -218l38 218h106l-39 -222l203 222h122z" />
    <glyph glyph-name="uni0437" unicode="&#x437;" horiz-adv-x="450" 
d="M421 358q-12 -74 -76 -107q33 -20 48.5 -52.5t9.5 -70.5q-12 -63 -67 -102t-150 -39q-78 0 -126 32t-63 88l94 48q17 -71 108 -71q43 0 69.5 17.5t31.5 46.5q5 26 -11.5 41.5t-50.5 15.5h-72l17 95h54q69 0 79 58q5 27 -13.5 43t-55.5 16q-74 0 -113 -67l-82 52
q75 111 206 111q85 0 129.5 -47t33.5 -108z" />
    <glyph glyph-name="uni0438" unicode="&#x438;" horiz-adv-x="570" 
d="M469 500h83l-88 -500h-106l54 312l-310 -312h-83l88 500h106l-55 -312z" />
    <glyph glyph-name="uni0439" unicode="&#x439;" horiz-adv-x="570" 
d="M202 570l16 94h280l-16 -94h-280zM469 500h83l-88 -500h-106l54 312l-310 -312h-83l88 500h106l-55 -312z" />
    <glyph glyph-name="uni043A" unicode="&#x43a;" horiz-adv-x="510" 
d="M536 500l-261 -245l181 -255h-120l-167 240l-42 -240h-108l88 500h108l-38 -213l227 213h132z" />
    <glyph glyph-name="uni043B" unicode="&#x43b;" horiz-adv-x="548" 
d="M529 500l-88 -500h-108l70 396h-167l-33 -186q-22 -126 -81 -173t-156 -37l18 101q45 -6 72.5 20t39.5 94l50 285h383z" />
    <glyph glyph-name="uni043C" unicode="&#x43c;" horiz-adv-x="635" 
d="M617 500l-88 -500h-105l58 329l-184 -229h-13l-103 228l-58 -328h-105l88 500h108l98 -234l186 234h118z" />
    <glyph glyph-name="uni043D" unicode="&#x43d;" horiz-adv-x="570" 
d="M444 500h108l-88 -500h-108l35 199h-229l-35 -199h-108l88 500h108l-35 -199h229z" />
    <glyph glyph-name="uni043E" unicode="&#x43e;" horiz-adv-x="599" 
d="M264 -13q-118 0 -183 80.5t-43 195.5q21 111 107 180.5t198 69.5q111 0 175 -80t44 -193q-20 -112 -105.5 -182.5t-192.5 -70.5zM272 92q65 0 117.5 43t65.5 117q13 71 -25 113.5t-102 42.5q-65 0 -117 -42.5t-65 -115.5q-12 -73 25 -115.5t101 -42.5z" />
    <glyph glyph-name="uni043F" unicode="&#x43f;" horiz-adv-x="570" 
d="M552 500l-88 -500h-108l70 398h-229l-70 -398h-108l88 500h445z" />
    <glyph glyph-name="uni0440" unicode="&#x440;" horiz-adv-x="631" 
d="M387 513q105 0 165 -81.5t42 -191.5t-96.5 -181.5t-183.5 -71.5q-122 0 -172 96l-50 -283h-109l124 700h108l-11 -63q73 76 183 76zM486 248q12 70 -25 116t-105 46q-64 0 -115 -39.5t-67 -103.5l-5 -29q-7 -69 32.5 -108.5t102.5 -39.5q65 0 117 42t65 116z" />
    <glyph glyph-name="uni0441" unicode="&#x441;" horiz-adv-x="544" 
d="M262 -13q-114 0 -179 80t-46 194q19 110 103.5 181t197.5 71q76 0 130.5 -35t77.5 -95l-97 -50q-29 74 -121 74q-67 0 -119 -43t-64 -111q-11 -68 25 -114t103 -46q44 0 81.5 21t61.5 57l87 -56q-38 -62 -102 -95t-139 -33z" />
    <glyph glyph-name="uni0442" unicode="&#x442;" horiz-adv-x="455" 
d="M489 500l-18 -104h-163l-70 -396h-108l70 396h-164l18 104h435z" />
    <glyph glyph-name="uni0443" unicode="&#x443;" horiz-adv-x="520" 
d="M439 500h120l-283 -516q-105 -195 -276 -184l18 101q49 -3 82 20t63 76l9 14l-123 489h111l86 -367z" />
    <glyph glyph-name="uni0444" unicode="&#x444;" horiz-adv-x="681" 
d="M439 508q109 -16 166 -91t40 -175q-18 -103 -97 -170.5t-200 -80.5l-33 -191h-106l34 192q-109 16 -166 91t-40 175q18 102 97.5 170t199.5 81l33 191h106zM539 250q11 60 -20 101.5t-98 54.5l-54 -312q71 13 116 54.5t56 101.5zM143 250q-11 -60 20 -101.5t98 -54.5
l54 312q-71 -13 -116 -54.5t-56 -101.5z" />
    <glyph glyph-name="uni0445" unicode="&#x445;" horiz-adv-x="520" 
d="M545 500l-222 -248l143 -252h-118l-97 171l-154 -171h-131l234 261l-136 239h118l90 -158l142 158h131z" />
    <glyph glyph-name="uni0446" unicode="&#x446;" horiz-adv-x="600" 
d="M467 102h82l-42 -236h-106l24 134h-406l88 500h108l-70 -398h214l70 398h108z" />
    <glyph glyph-name="uni0447" unicode="&#x447;" horiz-adv-x="538" 
d="M411 500h108l-88 -500h-108l29 166q-65 -19 -126 -19q-92 0 -139 49.5t-33 131.5l30 172h108l-28 -162q-17 -90 86 -90q52 0 121 24z" />
    <glyph glyph-name="uni0448" unicode="&#x448;" horiz-adv-x="825" 
d="M699 500h108l-88 -500h-700l88 500h108l-70 -398h188l70 398h108l-70 -398h188z" />
    <glyph glyph-name="uni0449" unicode="&#x449;" horiz-adv-x="845" 
d="M797 500l-70 -398h67l-42 -236h-106l24 134h-651l88 500h108l-70 -398h183l70 398h108l-70 -398h183l70 398h108z" />
    <glyph glyph-name="uni044A" unicode="&#x44a;" horiz-adv-x="563" 
d="M371 330q75 0 119.5 -49.5t31.5 -123.5q-13 -73 -69 -115t-141 -42h-218l70 396h-138l18 104h246l-30 -170h111zM417 165q5 31 -13 49.5t-50 18.5h-111l-24 -136h111q32 0 56.5 19t30.5 49z" />
    <glyph glyph-name="uni044B" unicode="&#x44b;" horiz-adv-x="693" 
d="M296 330q75 0 119.5 -49.5t31.5 -123.5q-13 -73 -69 -115t-141 -42h-218l88 500h108l-30 -170h111zM567 500h108l-88 -500h-108zM342 165q5 31 -13 49.5t-50 18.5h-111l-24 -136h111q32 0 56.5 19t30.5 49z" />
    <glyph glyph-name="uni044C" unicode="&#x44c;" horiz-adv-x="488" 
d="M296 330q75 0 119.5 -49.5t31.5 -123.5q-13 -73 -69 -115t-141 -42h-218l88 500h108l-30 -170h111zM342 165q5 31 -13 49.5t-50 18.5h-111l-24 -136h111q32 0 56.5 19t30.5 49z" />
    <glyph glyph-name="uni044D" unicode="&#x44d;" horiz-adv-x="544" 
d="M286 513q113 0 177 -80.5t44 -192.5t-102.5 -182.5t-198.5 -70.5q-73 0 -129.5 35t-79.5 95l95 49q29 -75 125 -75q55 0 101 30t69 80h-197l18 99h196q-6 50 -40.5 80t-90.5 30q-94 0 -146 -79l-86 54q39 60 104 94t141 34z" />
    <glyph glyph-name="uni044E" unicode="&#x44e;" horiz-adv-x="808" 
d="M553 513q111 0 174.5 -79.5t43.5 -193.5q-20 -112 -105 -182.5t-192 -70.5q-100 0 -162 59.5t-66 152.5h-84l-35 -199h-108l88 500h108l-35 -199h81q31 96 111 154t181 58zM665 252q13 71 -25.5 113.5t-102.5 42.5q-65 0 -117.5 -42.5t-65.5 -115.5q-12 -73 25.5 -115.5
t101.5 -42.5q65 0 118 43t66 117z" />
    <glyph glyph-name="uni044F" unicode="&#x44f;" horiz-adv-x="513" 
d="M494 500l-88 -500h-106l30 168h-61l-155 -168h-128l169 180q-49 20 -74 65t-16 97q12 69 68 113.5t138 44.5h223zM235 261h111l25 141h-111q-34 0 -59 -20t-30 -51t13 -50.5t51 -19.5z" />
    <glyph glyph-name="uni0451" unicode="&#x451;" horiz-adv-x="583" 
d="M261 561q-25 0 -39.5 17.5t-10.5 42.5t25 42.5t46 17.5t39.5 -17.5t9.5 -42.5t-25 -42.5t-45 -17.5zM451 561q-25 0 -39.5 17.5t-10.5 42.5t25 42.5t46 17.5t39.5 -17.5t9.5 -42.5t-25 -42.5t-45 -17.5zM335 513q112 0 174.5 -77t41.5 -187q-9 -36 -12 -45h-398
q1 -58 38 -88t97 -30q89 0 141 63l79 -60q-82 -102 -229 -102q-121 0 -185 79t-45 194q19 110 103 181.5t195 71.5zM156 293h293q1 62 -32.5 92t-88.5 30q-59 0 -104.5 -32.5t-67.5 -89.5z" />
    <glyph glyph-name="uni0452" unicode="&#x452;" horiz-adv-x="577" 
d="M374 513q87 0 132 -55.5t29 -150.5l-57 -327q-19 -108 -77.5 -154t-161.5 -39l18 104q96 -9 113 89l55 316q10 57 -14 86.5t-77 29.5q-55 0 -96.5 -33.5t-55.5 -103.5l-48 -275h-108l99 561h-65l13 74h65l11 65h108l-11 -65h142l-13 -74h-142l-22 -122q62 74 163 74z" />
    <glyph glyph-name="uni0453" unicode="&#x453;" horiz-adv-x="400" 
d="M430 700l-126 -135h-107l100 135h133zM442 500l-18 -104h-227l-70 -396h-108l88 500h335z" />
    <glyph glyph-name="uni0454" unicode="&#x454;" horiz-adv-x="544" 
d="M268 91q98 0 150 79l85 -55q-39 -60 -104 -94t-140 -34q-111 0 -176.5 81t-45.5 193q19 111 104 181.5t198 70.5q73 0 129 -35t79 -94l-95 -50q-30 76 -124 76q-55 0 -100.5 -30t-69.5 -80h196l-18 -99h-196q7 -49 41.5 -79.5t86.5 -30.5z" />
    <glyph glyph-name="uni0455" unicode="&#x455;" horiz-adv-x="472" 
d="M206 -13q-150 0 -196 121l97 50q9 -33 37 -52.5t71 -19.5q81 0 90 53q4 25 -21.5 40.5t-63.5 27t-75.5 27t-59.5 50t-13 87.5q12 65 68 103.5t129 38.5q64 0 110.5 -27.5t69.5 -76.5l-97 -49q-18 56 -89 56q-30 0 -54 -13.5t-29 -40.5q-5 -26 20.5 -42t64 -26.5t76 -25.5
t59.5 -50t13 -89q-12 -69 -68.5 -105.5t-138.5 -36.5z" />
    <glyph glyph-name="uni0456" unicode="&#x456;" horiz-adv-x="233" 
d="M174 575q-29 0 -45.5 20.5t-11.5 48.5t28 48.5t52 20.5t46 -20t12 -49q-5 -28 -28 -48.5t-53 -20.5zM19 0l88 500h108l-88 -500h-108z" />
    <glyph glyph-name="uni0457" unicode="&#x457;" horiz-adv-x="233" 
d="M76 558q-25 0 -39.5 17.5t-10.5 42.5t25 42.5t46 17.5t39.5 -17.5t9.5 -42.5t-25 -42.5t-45 -17.5zM266 558q-25 0 -39.5 17.5t-10.5 42.5t25 42.5t46 17.5t39.5 -17.5t9.5 -42.5t-25 -42.5t-45 -17.5zM19 0l88 500h108l-88 -500h-108z" />
    <glyph glyph-name="uni0458" unicode="&#x458;" horiz-adv-x="253" 
d="M217 713q28 0 45.5 -20t12.5 -49q-5 -28 -28.5 -48.5t-52.5 -20.5t-45.5 20.5t-11.5 48.5t28 48.5t52 20.5zM35 -20l91 520h108l-91 -520q-20 -112 -78 -156.5t-162 -36.5l19 104q49 -5 76.5 16t36.5 73z" />
    <glyph glyph-name="uni0459" unicode="&#x459;" horiz-adv-x="778" 
d="M592 315q71 0 113.5 -46.5t29.5 -118.5q-13 -73 -65.5 -111.5t-132.5 -38.5h-214l70 396h-157l-33 -186q-21 -125 -80.5 -172.5t-156.5 -37.5l18 101q45 -7 72.5 19t39.5 95l50 285h373l-33 -185h106zM630 158q6 29 -10 44.5t-44 15.5h-107l-21 -121h106q28 0 49.5 15.5
t26.5 45.5z" />
    <glyph glyph-name="uni045A" unicode="&#x45a;" horiz-adv-x="796" 
d="M610 315q70 0 113 -46.5t30 -118.5q-13 -73 -66 -111.5t-133 -38.5h-213l37 213h-214l-37 -213h-108l88 500h108l-33 -185h214l33 185h108l-33 -185h106zM648 158q5 29 -11 44.5t-44 15.5h-106l-21 -121h106q27 0 48.5 15.5t27.5 45.5z" />
    <glyph glyph-name="uni045B" unicode="&#x45b;" horiz-adv-x="577" 
d="M374 513q87 0 132 -55.5t29 -150.5l-54 -307h-108l52 296q10 57 -14 86.5t-77 29.5q-55 0 -96.5 -33.5t-55.5 -103.5l-48 -275h-108l99 561h-65l13 74h65l11 65h108l-11 -65h142l-13 -74h-142l-22 -122q62 74 163 74z" />
    <glyph glyph-name="uni045C" unicode="&#x45c;" horiz-adv-x="510" 
d="M480 700l-126 -135h-107l100 135h133zM536 500l-261 -245l181 -255h-120l-167 240l-42 -240h-108l88 500h108l-38 -213l227 213h132z" />
    <glyph glyph-name="uni045E" unicode="&#x45e;" horiz-adv-x="520" 
d="M458 664l-16 -94h-280l16 94h280zM439 500h120l-283 -516q-105 -195 -276 -184l18 101q49 -3 82 20t63 76l9 14l-123 489h111l86 -367z" />
    <glyph glyph-name="uni045F" unicode="&#x45f;" horiz-adv-x="570" 
d="M444 500h108l-88 -500h-170l-24 -134h-106l24 134h-169l88 500h108l-70 -398h229z" />
    <glyph glyph-name="uni0490" unicode="&#x490;" horiz-adv-x="480" 
d="M451 820h115l-41 -230h-280l-104 -590h-115l123 700h281z" />
    <glyph glyph-name="uni0491" unicode="&#x491;" horiz-adv-x="400" 
d="M354 602h106l-36 -206h-227l-70 -396h-108l88 500h229z" />
    <glyph glyph-name="Wgrave" unicode="&#x1e80;" horiz-adv-x="999" 
d="M656 765l-60 135h-127l85 -135h102zM174 0l-75 700h115l52 -549l255 549h106l63 -549l244 549h124l-321 -700h-133l-59 511l-238 -511h-133z" />
    <glyph glyph-name="wgrave" unicode="&#x1e81;" horiz-adv-x="775" 
d="M509 565h-102l-85 135h127zM681 500h118l-245 -500h-106l-45 337l-159 -337h-111l-69 500h108l40 -345l162 345h106l-1 -2l46 -343z" />
    <glyph glyph-name="Wacute" unicode="&#x1e82;" horiz-adv-x="999" 
d="M521 765h107l126 135h-133zM174 0l-75 700h115l52 -549l255 549h106l63 -549l244 549h124l-321 -700h-133l-59 511l-238 -511h-133z" />
    <glyph glyph-name="wacute" unicode="&#x1e83;" horiz-adv-x="775" 
d="M607 700l-126 -135h-107l100 135h133zM681 500h118l-245 -500h-106l-45 337l-159 -337h-111l-69 500h108l40 -345l162 345h106l-1 -2l46 -343z" />
    <glyph glyph-name="Wdieresis" unicode="&#x1e84;" horiz-adv-x="999" 
d="M494 758q-25 0 -39.5 17.5t-10.5 42.5t25 42.5t46 17.5t39.5 -17.5t9.5 -42.5t-25 -42.5t-45 -17.5zM684 758q-25 0 -39.5 17.5t-10.5 42.5t25 42.5t46 17.5t39.5 -17.5t9.5 -42.5t-25 -42.5t-45 -17.5zM174 0l-75 700h115l52 -549l255 549h106l63 -549l244 549h124
l-321 -700h-133l-59 511l-238 -511h-133z" />
    <glyph glyph-name="wdieresis" unicode="&#x1e85;" horiz-adv-x="775" 
d="M347 558q-25 0 -39.5 17.5t-10.5 42.5t25 42.5t46 17.5t39.5 -17.5t9.5 -42.5t-25 -42.5t-45 -17.5zM537 558q-25 0 -39.5 17.5t-10.5 42.5t25 42.5t46 17.5t39.5 -17.5t9.5 -42.5t-25 -42.5t-45 -17.5zM681 500h118l-245 -500h-106l-45 337l-159 -337h-111l-69 500h108
l40 -345l162 345h106l-1 -2l46 -343z" />
    <glyph glyph-name="Ygrave" unicode="&#x1ef2;" horiz-adv-x="593" 
d="M451 765h-102l-85 135h127zM667 700l-302 -386l-55 -314h-115l55 316l-166 384h123l113 -275l210 275h137z" />
    <glyph glyph-name="ygrave" unicode="&#x1ef3;" horiz-adv-x="520" 
d="M366 565h-102l-85 135h127zM439 500h120l-283 -516q-105 -195 -276 -184l18 101q49 -3 82 20t63 76l9 14l-123 489h111l86 -367z" />
    <glyph glyph-name="endash" unicode="&#x2013;" horiz-adv-x="632" 
d="M71 252l18 104h492l-18 -104h-492z" />
    <glyph glyph-name="emdash" unicode="&#x2014;" horiz-adv-x="732" 
d="M71 252l18 104h592l-18 -104h-592z" />
    <glyph glyph-name="quoteleft" unicode="&#x2018;" horiz-adv-x="266" 
d="M86 440l116 260h91l-87 -260h-120z" />
    <glyph glyph-name="quoteright" unicode="&#x2019;" horiz-adv-x="266" 
d="M293 700l-116 -260h-91l87 260h120z" />
    <glyph glyph-name="quotesinglbase" unicode="&#x201a;" horiz-adv-x="265" 
d="M190 120l-116 -260h-91l87 260h120z" />
    <glyph glyph-name="quotedblleft" unicode="&#x201c;" horiz-adv-x="436" 
d="M86 440l116 260h91l-87 -260h-120zM256 440l116 260h91l-87 -260h-120z" />
    <glyph glyph-name="quotedblright" unicode="&#x201d;" horiz-adv-x="436" 
d="M293 700l-116 -260h-91l87 260h120zM463 700l-116 -260h-91l87 260h120z" />
    <glyph glyph-name="quotedblbase" unicode="&#x201e;" horiz-adv-x="435" 
d="M190 120l-116 -260h-91l87 260h120zM360 120l-116 -260h-91l87 260h120z" />
    <glyph glyph-name="dagger" unicode="&#x2020;" horiz-adv-x="480" 
d="M484 555l-18 -104h-137l-79 -451h-108l79 451h-135l18 104h136l25 145h108l-25 -145h136z" />
    <glyph glyph-name="daggerdbl" unicode="&#x2021;" horiz-adv-x="480" 
d="M466 451h-137l-35 -202h136l-18 -104h-137l-25 -145h-108l25 145h-135l18 104h136l35 202h-135l18 104h136l25 145h108l-25 -145h136z" />
    <glyph glyph-name="bullet" unicode="&#x2022;" horiz-adv-x="340" 
d="M166 225q-51 0 -81 39t-21 92q10 51 51.5 85t95.5 34q51 0 81 -38t20 -89q-9 -53 -50 -88t-96 -35z" />
    <glyph glyph-name="ellipsis" unicode="&#x2026;" horiz-adv-x="685" 
d="M81 -12q-31 0 -48.5 22.5t-12.5 54.5q5 31 30 52t58 21q31 0 49 -22.5t13 -53.5q-6 -32 -30.5 -53t-58.5 -21zM296 -12q-31 0 -48.5 22.5t-12.5 54.5q5 31 30 52t58 21q31 0 49 -22.5t13 -53.5q-6 -32 -30.5 -53t-58.5 -21zM511 -12q-31 0 -48.5 22.5t-12.5 54.5
q5 31 30 52t58 21q31 0 49 -22.5t13 -53.5q-6 -32 -30.5 -53t-58.5 -21z" />
    <glyph glyph-name="perthousand" unicode="&#x2030;" horiz-adv-x="1115" 
d="M242 393q-70 0 -109 48.5t-29 112.5q10 66 62.5 112.5t127.5 46.5q71 0 110 -51.5t26 -117.5q-13 -64 -64 -107.5t-124 -43.5zM254 481q31 0 55 21t29 51q5 31 -10.5 52t-47.5 21q-31 0 -54.5 -21t-28.5 -52q-6 -30 10 -51t47 -21zM82 104l550 514l54 -34l-551 -514z
M491 -12q-71 0 -110 49.5t-28 114.5q11 66 62.5 111t126.5 45q71 0 109.5 -50.5t26.5 -116.5q-12 -64 -63.5 -108.5t-123.5 -44.5zM858 -12q-71 0 -109.5 49.5t-27.5 114.5q11 66 62.5 111t126.5 45q70 0 109 -50.5t27 -116.5q-13 -64 -64 -108.5t-124 -44.5zM503 76
q31 0 55 21t29 51q5 31 -11 52t-47 21t-55 -21t-29 -52t11 -51.5t47 -20.5zM870 76q31 0 55 21t29 51q5 31 -10.5 52t-47.5 21q-31 0 -54.5 -21t-28.5 -52t10.5 -51.5t46.5 -20.5z" />
    <glyph glyph-name="guilsinglleft" unicode="&#x2039;" horiz-adv-x="350" 
d="M328 494l-145 -189l76 -181h-106l-78 185l142 185h111z" />
    <glyph glyph-name="guilsinglright" unicode="&#x203a;" horiz-adv-x="351" 
d="M218 494l78 -185l-142 -185h-111l145 189l-76 181h106z" />
    <glyph glyph-name="fraction" unicode="&#x2044;" horiz-adv-x="200" 
d="M-99 0h-85l518 700h85z" />
    <glyph glyph-name="Euro" unicode="&#x20ac;" horiz-adv-x="609" 
d="M331 99q88 0 145 89l90 -56q-87 -145 -251 -145q-108 0 -166.5 74t-56.5 199h-72l12 71h65q2 18 4 27q2 14 4 19h-65l13 71h70q40 125 121.5 195t192.5 70q73 0 125 -37.5t75 -103.5l-102 -53q-27 82 -115 82q-122 0 -178 -153h221l-13 -71h-229q-1 -5 -2.5 -14t-2.5 -13
l-3 -19h229l-12 -71h-223q-1 -78 31 -119.5t93 -41.5z" />
    <glyph glyph-name="uni20BD" unicode="&#x20bd;" horiz-adv-x="598" 
d="M432 700q90 0 146.5 -70t40.5 -163q-17 -94 -89.5 -153t-175.5 -59h-143l-12 -67h235l-13 -78h-236l-19 -110h-115l19 110h-80l14 78h80l12 67h-80l18 103h80l60 342h258zM505 475q9 49 -18 83t-74 34h-143l-41 -234h143q47 0 85.5 34t47.5 83z" />
    <glyph glyph-name="uni2116" unicode="&#x2116;" horiz-adv-x="1032" 
d="M860 393q-68 0 -107.5 49t-28.5 116q12 67 65 111t125 44q68 0 107.5 -48.5t28.5 -115.5q-12 -68 -63.5 -112t-126.5 -44zM26 0l123 700h87l249 -481l84 481h115l-123 -700h-87l-248 481l-85 -481h-115zM875 483q30 0 53 20t28 50t-10.5 50t-46.5 20q-30 0 -53 -20
t-28 -50t10.5 -50t46.5 -20zM680 231l18 102h302l-18 -102h-302z" />
    <glyph glyph-name="trademark" unicode="&#x2122;" horiz-adv-x="471" 
d="M272 651h-56l-26 -151h-54l26 151h-56l9 49h166zM515 700l-35 -200h-52l20 116l-67 -81h-5l-37 81l-20 -116h-52l35 200h52l35 -85l67 85h59z" />
    <glyph glyph-name="estimated" unicode="&#x212e;" horiz-adv-x="800" 
d="M481 710q161 0 247.5 -104.5t59.5 -255.5q-3 -15 -18 -15h-560q-15 0 -18 -15l-33 -192q-3 -11 3 -19q69 -89 218 -89q143 0 250 97q9 9 19 9h35q10 0 12 -6t-6 -13q-130 -117 -316 -117q-173 0 -262.5 108t-62.5 262q27 152 146.5 251t285.5 99zM678 574q1 11 -4 19
q-67 87 -198 87q-129 0 -229 -89q-9 -9 -10 -19l-34 -192q-3 -15 12 -15h410q15 0 18 15z" />
    <glyph glyph-name="oneeighth" unicode="&#x215b;" horiz-adv-x="806" 
d="M174 600l-88 -25l-10 82l128 43h80l-71 -400h-92zM595 700h85l-518 -700h-85zM778 291q-9 -55 -62 -83q53 -37 42 -104q-8 -55 -53 -86t-116 -31q-67 0 -103.5 35t-27.5 90q12 68 81 100q-44 34 -34 88q9 54 52.5 83.5t103.5 29.5q57 0 92 -34t25 -88zM586 289
q-4 -21 8.5 -33t38.5 -12q54 0 62 45q4 21 -8.5 33t-37.5 12q-55 0 -63 -45zM673 120q4 24 -10 38t-43 14q-30 0 -48.5 -14t-22.5 -38q-5 -24 9 -38t44 -14t48.5 14t22.5 38z" />
    <glyph glyph-name="threeeighths" unicode="&#x215c;" horiz-adv-x="895" 
d="M347 413q-11 -62 -56.5 -94t-115.5 -32q-105 0 -139 87l81 42q19 -47 70 -47q29 0 46.5 13.5t21.5 36.5t-10.5 36.5t-42.5 13.5h-15l-27 54l89 92h-154l14 85h270l-13 -72l-91 -95q40 -14 59.5 -46t12.5 -74zM684 700h85l-518 -700h-85zM867 291q-9 -55 -62 -83
q53 -37 42 -104q-8 -55 -53 -86t-116 -31q-67 0 -103.5 35t-27.5 90q12 68 81 100q-44 34 -34 88q9 54 52.5 83.5t103.5 29.5q57 0 92 -34t25 -88zM675 289q-4 -21 8.5 -33t38.5 -12q54 0 62 45q4 21 -8.5 33t-37.5 12q-55 0 -63 -45zM762 120q4 24 -10 38t-43 14
q-30 0 -48.5 -14t-22.5 -38q-5 -24 9 -38t44 -14t48.5 14t22.5 38z" />
    <glyph glyph-name="fiveeighths" unicode="&#x215d;" horiz-adv-x="882" 
d="M341 411q-10 -61 -54 -92.5t-112 -31.5q-104 0 -136 87l81 41q16 -47 67 -47q28 0 46 14t22 36q5 24 -8.5 38.5t-40.5 14.5h-129l56 229h240l-15 -84h-159l-17 -66h41q60 0 95 -37.5t23 -101.5zM671 700h85l-518 -700h-85zM854 291q-9 -55 -62 -83q53 -37 42 -104
q-8 -55 -53 -86t-116 -31q-67 0 -103.5 35t-27.5 90q12 68 81 100q-44 34 -34 88q9 54 52.5 83.5t103.5 29.5q57 0 92 -34t25 -88zM662 289q-4 -21 8.5 -33t38.5 -12q54 0 62 45q4 21 -8.5 33t-37.5 12q-55 0 -63 -45zM749 120q4 24 -10 38t-43 14q-30 0 -48.5 -14
t-22.5 -38q-5 -24 9 -38t44 -14t48.5 14t22.5 38z" />
    <glyph glyph-name="seveneighths" unicode="&#x215e;" horiz-adv-x="841" 
d="M157 300h-100l183 315h-171l15 85h273l-12 -71zM630 700h85l-518 -700h-85zM813 291q-9 -55 -62 -83q53 -37 42 -104q-8 -55 -53 -86t-116 -31q-67 0 -103.5 35t-27.5 90q12 68 81 100q-44 34 -34 88q9 54 52.5 83.5t103.5 29.5q57 0 92 -34t25 -88zM621 289
q-4 -21 8.5 -33t38.5 -12q54 0 62 45q4 21 -8.5 33t-37.5 12q-55 0 -63 -45zM708 120q4 24 -10 38t-43 14q-30 0 -48.5 -14t-22.5 -38q-5 -24 9 -38t44 -14t48.5 14t22.5 38z" />
    <glyph glyph-name="arrowleft" unicode="&#x2190;" horiz-adv-x="805" 
d="M782 402l-18 -104h-514l204 -248h-139l-247 300l353 300h151l-292 -248h502z" />
    <glyph glyph-name="arrowup" unicode="&#x2191;" horiz-adv-x="700" 
d="M676 400l-24 -138l-202 248l-90 -510h-108l87 494l-289 -245l27 151l352 300z" />
    <glyph glyph-name="arrowright" unicode="&#x2192;" horiz-adv-x="805" 
d="M526 650l247 -300l-350 -300h-153l290 248h-501l18 104h515l-204 248h138z" />
    <glyph glyph-name="arrowdown" unicode="&#x2193;" horiz-adv-x="700" 
d="M397 205l288 246l-26 -151l-353 -300l-247 300l24 137l203 -246l89 509h108z" />
    <glyph glyph-name="arrowboth" unicode="&#x2194;" horiz-adv-x="1070" 
d="M1038 350l-311 -265h-149l248 213h-579l175 -213h-136l-218 265l311 265h151l-251 -213h579l-175 213h137z" />
    <glyph glyph-name="arrowupdn" unicode="&#x2195;" horiz-adv-x="630" 
d="M612 434l-173 210l-101 -576l247 210l-26 -148l-311 -265l-218 265l24 136l173 -212l102 580l-248 -211l26 148l312 264l217 -264z" />
    <glyph glyph-name="uni2196" unicode="&#x2196;" horiz-adv-x="642" 
d="M621 503h-355l304 -370l-81 -68l-305 370l-62 -356l-84 102l75 424h425z" />
    <glyph glyph-name="uni2197" unicode="&#x2197;" horiz-adv-x="642" 
d="M231 605h424l-75 -424l-121 -102l61 342l-425 -360l-67 80l426 362h-343z" />
    <glyph glyph-name="uni2198" unicode="&#x2198;" horiz-adv-x="642" 
d="M553 604l83 -102l-74 -424h-424l-84 102h355l-304 370l80 68l305 -369z" />
    <glyph glyph-name="uni2199" unicode="&#x2199;" horiz-adv-x="642" 
d="M646 543l-427 -363h344l-119 -102h-424l75 424l119 102l-61 -345l427 363z" />
    <glyph glyph-name="partialdiff" unicode="&#x2202;" horiz-adv-x="582" 
d="M320 713q118 0 187.5 -105t41.5 -266q-31 -174 -120 -264.5t-210 -90.5q-97 0 -147 65t-34 156q18 102 89 163.5t174 61.5q86 0 146 -45q9 100 -31 161t-125 62q-64 0 -127 -33l18 99q63 36 138 36zM235 89q67 0 117 54t77 149q-50 44 -129 44q-59 0 -101.5 -35
t-53.5 -98q-8 -51 15.5 -82.5t74.5 -31.5z" />
    <glyph glyph-name="emptyset" unicode="&#x2205;" horiz-adv-x="806" 
d="M833 720l-115 -117q91 -111 64 -262q-27 -150 -148.5 -251.5t-273.5 -101.5q-107 0 -187 61l-67 -69h-98l115 117q-91 111 -64 262q26 150 148.5 251.5t274.5 101.5q106 0 185 -60l67 68h99zM139 350q-19 -114 41 -195l430 438q-60 41 -140 41q-118 0 -214 -82.5
t-117 -201.5zM702 350q19 114 -41 195l-430 -438q60 -41 139 -41q118 0 214.5 82.5t117.5 201.5z" />
    <glyph glyph-name="product" unicode="&#x220f;" horiz-adv-x="640" 
d="M-9 -200l158 900h500l-158 -900h-108l140 796h-284l-140 -796h-108z" />
    <glyph glyph-name="summation" unicode="&#x2211;" horiz-adv-x="555" 
d="M-39 -200l18 102l287 369l-147 342l15 87h450l-18 -104h-326l146 -338l-276 -354h349l-18 -104h-480z" />
    <glyph glyph-name="minus" unicode="&#x2212;" horiz-adv-x="550" 
d="M64 299l18 102h440l-18 -102h-440z" />
    <glyph glyph-name="radical" unicode="&#x221a;" horiz-adv-x="665" 
d="M230 0l-89 211h-97l18 104h152l76 -188l344 673h118l-415 -800h-107z" />
    <glyph glyph-name="infinity" unicode="&#x221e;" horiz-adv-x="805" 
d="M624 520q73 0 115.5 -51t29.5 -125q-13 -75 -68 -119.5t-132 -44.5q-90 0 -160 94q-100 -94 -191 -94q-74 0 -116.5 51t-29.5 126q13 74 68.5 118.5t132.5 44.5q89 0 160 -94q100 94 191 94zM237 278q53 0 120 72q-42 73 -95 73q-31 0 -54.5 -20.5t-28.5 -52.5
q-6 -31 10.5 -51.5t47.5 -20.5zM662 350q5 32 -10.5 52.5t-46.5 20.5q-54 0 -120 -73q40 -72 94 -72q31 0 54 20.5t29 51.5z" />
    <glyph glyph-name="integral" unicode="&#x222b;" horiz-adv-x="441" 
d="M-80 -203l19 107q36 -18 72.5 -1.5t51.5 61.5l202 588q69 201 256 150l-20 -107q-40 18 -77 2t-52 -62l-202 -588q-35 -104 -101 -139t-149 -11z" />
    <glyph glyph-name="approxequal" unicode="&#x2248;" horiz-adv-x="577" 
d="M311 387q-44 25 -75.5 29.5t-49.5 -6t-39 -36.5l-70 28q37 95 104 119.5t149 -22.5q62 -36 97.5 -29.5t58.5 57.5l82 -43q-36 -93 -105 -119t-152 22zM127 174l-83 43q37 92 106.5 118.5t151.5 -21.5q45 -26 76 -30t49 6.5t39 36.5l70 -28q-37 -95 -103.5 -120t-149.5 23
q-62 35 -97.5 28.5t-58.5 -56.5z" />
    <glyph glyph-name="notequal" unicode="&#x2260;" 
d="M507 402h-156l-64 -103h202l-19 -102h-246l-85 -137h-72l85 137h-111l18 102h156l64 103h-202l18 102h248l84 136h72l-84 -136h110z" />
    <glyph glyph-name="lessequal" unicode="&#x2264;" horiz-adv-x="525" 
d="M543 635l-21 -119l-315 -98l280 -98l-19 -109l-396 163l9 49l8 49zM19 70l18 102h425l-18 -102h-425z" />
    <glyph glyph-name="greaterequal" unicode="&#x2265;" horiz-adv-x="525" 
d="M118 635l396 -163l-8 -49l-9 -49l-454 -163l21 119l316 98l-281 98zM19 70l18 102h425l-18 -102h-425z" />
    <glyph glyph-name="lozenge" unicode="&#x25ca;" horiz-adv-x="550" 
d="M187 0l-124 350l247 350h88l125 -350l-248 -350h-88zM251 137l157 223l-72 203l-158 -223z" />
    <glyph glyph-name="i.loclTRK" horiz-adv-x="233" 
d="M171 558q-29 0 -46 20.5t-11 49.5q5 29 29 49.5t52 20.5q29 0 46.5 -20.5t12.5 -49.5q-6 -29 -30 -49.5t-53 -20.5zM19 0l88 500h108l-88 -500h-108z" />
    <glyph glyph-name="f_f_j" horiz-adv-x="818" 
d="M800 500l-92 -520q-36 -208 -239 -193l19 104q49 -5 76 16t36 73l74 416h-167l-69 -396h-108l69 396h-166l-70 -396h-108l70 396h-76l18 104h76l2 10q37 218 262 203l-18 -104q-117 11 -136 -99l-2 -10h167l3 20q18 106 83 154.5t180 48.5q53 0 108 -13l-17 -99
q-45 8 -98 8q-64 0 -101.5 -22.5t-46.5 -76.5l-3 -20h274z" />
    <glyph glyph-name="f_j" horiz-adv-x="543" 
d="M525 500l-92 -520q-36 -208 -239 -193l19 104q49 -5 76 16t36 73l74 416h-166l-70 -396h-108l70 396h-76l18 104h76l2 10q18 105 82.5 154t179.5 49q53 0 108 -13l-17 -99q-45 8 -98 8q-64 0 -101 -22.5t-46 -76.5l-2 -10h274z" />
    <glyph glyph-name="uni0414.loclBGR" horiz-adv-x="720" 
d="M601 110h75l-44 -244h-115l24 134h-450l-24 -134h-115l43 244h75l300 590h138zM194 110h290l-64 457z" />
    <glyph glyph-name="uni041B.loclBGR" horiz-adv-x="624" 
d="M-39 0l361 700h138l115 -700h-120l-82 564l-284 -564h-128z" />
    <glyph glyph-name="uni0424.loclBGR" horiz-adv-x="856" 
d="M564 708q147 -17 223.5 -118t49.5 -249q-27 -152 -134 -244.5t-266 -106.5l-16 -90h-110l16 92q-146 18 -222.5 118.5t-50.5 248.5q27 152 134 244.5t266 106.5l16 90h110zM169 350q-20 -107 26 -173.5t151 -80.5l89 508q-109 -14 -178 -80t-88 -174zM722 350
q19 108 -26.5 174t-150.5 80l-89 -508q109 14 177.5 80t88.5 174z" />
    <glyph glyph-name="uni0414.ss01" horiz-adv-x="700" 
d="M674 700l-104 -590h76l-20 -110h-655l19 110h65q74 78 104 241l61 349h454zM185 110h271l85 482h-224l-43 -243q-29 -161 -89 -239z" />
    <glyph glyph-name="uni0426.ss01" horiz-adv-x="690" 
d="M561 110h75l-20 -110h-590l123 700h115l-103 -590h285l103 590h115z" />
    <glyph glyph-name="uni0429.ss01" horiz-adv-x="980" 
d="M851 110h75l-20 -110h-880l123 700h115l-103 -590h230l103 590h115l-103 -590h230l103 590h115z" />
    <glyph glyph-name="uni0414.loclBGR.ss01" horiz-adv-x="720" 
d="M601 110h75l-20 -110h-680l19 110h75l300 590h138zM194 110h290l-64 457z" />
    <glyph glyph-name="uni0432.loclBGR" horiz-adv-x="569" 
d="M437 399q52 -26 76 -77t12 -121q-18 -104 -87.5 -159t-181.5 -55q-103 0 -159 68.5t-37 178.5l42 240q20 115 87 177t169 62q85 0 134.5 -51.5t36.5 -129.5q-11 -72 -92 -133zM346 611q-51 0 -88 -37t-48 -102l-12 -72l68 14q32 7 67 7q80 53 89 110q6 36 -14.5 58
t-61.5 22zM417 209q12 68 -32.5 96.5t-135.5 9.5l-68 -14l-13 -72q-11 -66 16 -102t86 -36q60 0 99 31.5t48 86.5z" />
    <glyph glyph-name="uni0433.loclBGR" horiz-adv-x="464" 
d="M198 -13q-87 0 -138.5 48t-38.5 122q8 42 33 70.5t56.5 40.5t67.5 21.5t66.5 15t52 19t25.5 35.5q4 26 -15 41t-50 15q-68 0 -102 -60l-86 52q61 106 197 106q79 0 128.5 -49.5t36.5 -119.5q-8 -49 -40.5 -79t-73.5 -41.5t-81.5 -19t-70 -20.5t-34.5 -37q-5 -29 16.5 -45
t57.5 -16q84 0 124 75l85 -56q-66 -118 -216 -118z" />
    <glyph glyph-name="uni0434.loclBGR" horiz-adv-x="632" 
d="M507 500h106l-84 -477q-21 -119 -99 -177.5t-189 -58.5q-82 0 -141 31t-86 90l97 50q32 -73 137 -73q73 0 118 35.5t57 102.5l9 52q-72 -78 -181 -78q-114 0 -172.5 79t-40.5 190q17 106 96.5 176.5t183.5 70.5q59 0 104.5 -25.5t69.5 -71.5zM279 99q68 0 119.5 42.5
t64.5 110.5q14 72 -26.5 115.5t-107.5 43.5q-66 0 -119 -42t-64 -111t26 -114t107 -45z" />
    <glyph glyph-name="uni0436.loclBGR" horiz-adv-x="722" 
d="M-29 0l243 266l-145 234h111l133 -217l74 417h106l-75 -420l203 220h122l-232 -250l151 -250h-111l-141 234l-41 -234h-106l41 232l-214 -232h-119z" />
    <glyph glyph-name="uni0438.loclBGR" horiz-adv-x="569" 
d="M442 500h108l-88 -500h-108l11 60q-63 -73 -163 -73q-86 0 -131.5 55.5t-29.5 150.5l54 307h108l-52 -296q-10 -57 14.5 -86.5t77.5 -29.5q54 0 95 32.5t55 98.5z" />
    <glyph glyph-name="uni0439.loclBGR" horiz-adv-x="569" 
d="M488 664l-16 -94h-280l16 94h280zM442 500h108l-88 -500h-108l11 60q-63 -73 -163 -73q-86 0 -131.5 55.5t-29.5 150.5l54 307h108l-52 -296q-10 -57 14.5 -86.5t77.5 -29.5q54 0 95 32.5t55 98.5z" />
    <glyph glyph-name="uni043A.loclBGR" horiz-adv-x="510" 
d="M536 500l-261 -245l181 -255h-120l-167 240l-42 -240h-108l123 700h108l-73 -413l227 213h132z" />
    <glyph glyph-name="uni043B.loclBGR" horiz-adv-x="490" 
d="M441 0h-111l-59 371l-190 -371h-120l271 500h115z" />
    <glyph glyph-name="uni043F.loclBGR" horiz-adv-x="569" 
d="M367 513q86 0 131.5 -55.5t29.5 -150.5l-54 -307h-108l52 296q10 57 -14.5 86.5t-77.5 29.5q-54 0 -95 -32.5t-55 -98.5l-49 -281h-108l88 500h108l-11 -60q63 73 163 73z" />
    <glyph glyph-name="uni0442.loclBGR" horiz-adv-x="849" 
d="M652 513q83 0 127.5 -56t28.5 -147l-54 -310h-108l53 303q9 52 -12 80.5t-67 28.5q-47 0 -82 -31t-47 -94l-51 -287h-108l53 303q9 52 -10.5 80.5t-64.5 28.5t-80.5 -28.5t-50.5 -85.5l-52 -298h-108l88 500h108l-10 -55q62 68 151 68q97 0 130 -80q65 80 166 80z" />
    <glyph glyph-name="uni0446.loclBGR" horiz-adv-x="607" 
d="M514 102h42l-42 -236h-106l25 141q-41 13 -54 56q-66 -76 -172 -76q-91 0 -136 56t-29 150l54 307h108l-52 -296q-10 -56 14.5 -86t76.5 -30q57 0 98.5 36t54.5 109l47 267h108l-64 -365q-3 -15 4.5 -24t22.5 -9z" />
    <glyph glyph-name="uni0448.loclBGR" horiz-adv-x="849" 
d="M722 500h108l-88 -500h-108l10 55q-62 -68 -151 -68q-97 0 -130 80q-65 -80 -166 -80q-83 0 -127.5 56t-28.5 147l54 310h108l-53 -303q-9 -52 12 -80.5t67 -28.5q47 0 82 31t47 94l51 287h108l-53 -303q-9 -52 10.5 -80.5t64.5 -28.5t80.5 28.5t50.5 85.5z" />
    <glyph glyph-name="uni0449.loclBGR" horiz-adv-x="887" 
d="M794 102h42l-42 -236h-106l25 141q-40 13 -54 53q-63 -73 -161 -73q-99 0 -134 80q-65 -80 -167 -80q-83 0 -127 56t-29 148l55 309h108l-53 -303q-9 -52 11.5 -80.5t66.5 -28.5q47 0 81 30t48 91l51 291h108l-53 -303q-9 -52 11 -80.5t64 -28.5q49 0 86 32.5t48 96.5
l50 283h108l-64 -365q-3 -15 4.5 -24t22.5 -9z" />
    <glyph glyph-name="uni044C.loclBGR" horiz-adv-x="488" 
d="M280 353q90 0 136 -53t31 -137q-14 -79 -75 -127.5t-152 -48.5q-93 0 -144 57t-36 137l56 319h106l-26 -147h104zM342 173q7 37 -14 60t-65 23h-104l-13 -75q-8 -41 15.5 -66.5t69.5 -25.5q44 0 74.5 25t36.5 59z" />
    <glyph glyph-name="uni044A.loclBGR" horiz-adv-x="574" 
d="M366 353q90 0 136 -53t31 -137q-14 -79 -75 -127.5t-152 -48.5q-93 0 -144 57t-36 137l38 217h-138l18 102h244l-26 -147h104zM428 173q7 37 -14 60t-65 23h-104l-13 -75q-8 -41 15.5 -66.5t69.5 -25.5q44 0 74.5 25t36.5 59z" />
    <glyph glyph-name="uni044E.loclBGR" horiz-adv-x="808" 
d="M553 513q111 0 174.5 -79.5t43.5 -193.5q-20 -112 -105 -182.5t-192 -70.5q-100 0 -162 59.5t-66 152.5h-84l-35 -199h-108l123 700h108l-70 -399h81q31 96 110.5 154t181.5 58zM665 252q13 71 -25.5 113.5t-102.5 42.5q-65 0 -117.5 -42.5t-65.5 -115.5
q-12 -73 25.5 -115.5t101.5 -42.5q65 0 118 43t66 117z" />
    <glyph glyph-name="zero.sinf" horiz-adv-x="410" 
d="M134 -173q-79 0 -120.5 61t-24.5 158t74 152t140 55q79 0 120 -61t24 -157q-17 -98 -73 -153t-140 -55zM147 -82q40 0 68.5 31.5t38.5 90.5t-7 90.5t-57 31.5q-41 0 -69 -31.5t-38 -90.5t6.5 -90.5t57.5 -31.5z" />
    <glyph glyph-name="one.sinf" horiz-adv-x="257" 
d="M123 240h80l-71 -400h-92l53 300l-88 -25l-10 82z" />
    <glyph glyph-name="two.sinf" horiz-adv-x="348" 
d="M-45 -160l11 64l184 155q45 38 50 65q4 20 -7.5 32t-34.5 12q-43 0 -78 -56l-72 45q55 96 163 96q62 0 96.5 -37t24.5 -97q-8 -54 -87 -118l-92 -76h150l-14 -85h-294z" />
    <glyph glyph-name="three.sinf" horiz-adv-x="346" 
d="M298 240l-13 -72l-91 -95q40 -14 59.5 -46t12.5 -74q-11 -62 -56.5 -94t-115.5 -32q-105 0 -139 87l81 42q19 -47 70 -47q29 0 46.5 13.5t21.5 36.5t-10.5 36.5t-42.5 13.5h-15l-27 54l89 92h-154l14 85h270z" />
    <glyph glyph-name="four.sinf" horiz-adv-x="356" 
d="M293 -8l-15 -84h-43l-12 -68h-89l12 68h-194l15 84l176 248h103l-172 -248h86l14 79h89l-14 -79h44z" />
    <glyph glyph-name="five.sinf" horiz-adv-x="333" 
d="M277 156h-159l-17 -66h41q60 0 95 -37.5t23 -101.5q-10 -61 -54 -92.5t-112 -31.5q-104 0 -136 87l81 41q16 -47 67 -47q28 0 46 14t22 36q5 24 -8.5 38.5t-40.5 14.5h-129l56 229h240z" />
    <glyph glyph-name="six.sinf" horiz-adv-x="342" 
d="M155 110q61 -4 94.5 -46t23.5 -102q-11 -61 -58.5 -98t-116.5 -37q-66 0 -103 43t-26 104q9 51 42 84l148 182h104zM187 -32q5 28 -10 44.5t-45 16.5t-50.5 -16.5t-25.5 -44.5q-6 -28 9 -44.5t45 -16.5q31 0 51.5 16.5t25.5 44.5z" />
    <glyph glyph-name="seven.sinf" horiz-adv-x="296" 
d="M3 240h273l-12 -71l-188 -329h-100l183 315h-171z" />
    <glyph glyph-name="eight.sinf" horiz-adv-x="345" 
d="M289 131q-9 -55 -62 -83q53 -37 42 -104q-8 -55 -53 -86t-116 -31q-67 0 -103.5 35t-27.5 90q12 68 81 100q-44 34 -34 88q9 54 52.5 83.5t103.5 29.5q57 0 92 -34t25 -88zM97 129q-4 -21 8.5 -33t38.5 -12q54 0 62 45q4 21 -8.5 33t-37.5 12q-55 0 -63 -45zM184 -40
q4 24 -10 38t-43 14q-30 0 -48.5 -14t-22.5 -38q-5 -24 9 -38t44 -14t48.5 14t22.5 38z" />
    <glyph glyph-name="nine.sinf" horiz-adv-x="342" 
d="M170 253q64 0 102 -43t27 -104q-9 -50 -42 -83l-147 -183h-103l108 130q-61 3 -96 46.5t-25 101.5q11 61 59 98t117 37zM81 112q-5 -28 10 -44.5t45 -16.5t50.5 16.5t25.5 44.5q6 28 -9 44.5t-45 16.5q-31 0 -51.5 -16.5t-25.5 -44.5z" />
    <glyph glyph-name="zero.tf" horiz-adv-x="575" 
d="M246 -13q-127 0 -185.5 103.5t-28.5 267.5q29 165 116 260t218 95q126 0 184 -103.5t29 -267.5q-29 -165 -115.5 -260t-217.5 -95zM261 99q78 0 130 65t74 186q21 121 -8.5 186t-106.5 65t-129.5 -65t-74.5 -186q-21 -121 8.5 -186t106.5 -65z" />
    <glyph glyph-name="one.tf" horiz-adv-x="575" 
d="M333 110h195l-19 -110h-521l20 110h210l82 464v-1l-147 -40l-11 102l195 65h100z" />
    <glyph glyph-name="two.tf" horiz-adv-x="575" 
d="M-7 0l16 90l294 226q66 51 102 90t44 80q9 51 -17.5 83t-85.5 32q-95 0 -159 -102l-91 59q45 75 116 115t153 40q99 0 158 -66t42 -164q-12 -67 -56.5 -121t-129.5 -118l-178 -133h310l-20 -111h-498z" />
    <glyph glyph-name="three.tf" horiz-adv-x="575" 
d="M590 700l-17 -98l-182 -184q76 -21 116.5 -78t26.5 -139q-19 -105 -98 -159.5t-193 -54.5q-93 0 -156 41.5t-82 120.5l105 54q12 -49 49 -76.5t94 -27.5q68 0 112 30.5t54 84.5q10 55 -23.5 85t-103.5 30h-24l-35 70l191 193h-318l19 108h465z" />
    <glyph glyph-name="four.tf" horiz-adv-x="575" 
d="M555 233l-19 -107h-83l-22 -126h-116l22 126h-346l19 107l319 467h130l-320 -467h217l31 172h116l-31 -172h83z" />
    <glyph glyph-name="five.tf" horiz-adv-x="575" 
d="M573 592h-313l-39 -156h105q103 0 165 -63.5t44 -168.5q-19 -106 -97 -161.5t-188 -55.5q-93 0 -155.5 41.5t-83.5 120.5l104 55q12 -50 49.5 -77.5t96.5 -27.5q66 0 108 30t52 83q9 53 -22.5 82.5t-97.5 29.5h-220l92 376h419z" />
    <glyph glyph-name="six.tf" horiz-adv-x="575" 
d="M316 470q122 0 182.5 -72.5t43.5 -176.5q-17 -102 -96 -168t-204 -66q-123 0 -184.5 73.5t-41.5 177.5q14 80 69 140l289 322h136l-205 -230h11zM428 229q11 61 -23 96.5t-103 35.5q-70 0 -115.5 -35t-56.5 -97t23 -97.5t103 -35.5t115 35.5t57 97.5z" />
    <glyph glyph-name="seven.tf" horiz-adv-x="575" 
d="M109 700h510l-17 -100l-371 -600h-127l364 590h-378z" />
    <glyph glyph-name="eight.tf" horiz-adv-x="575" 
d="M573 508q-17 -97 -111 -147q46 -29 67 -73.5t12 -98.5q-17 -96 -95 -149t-201 -53q-119 0 -183 58t-47 154q10 55 46 98t93 69q-76 55 -60 150q17 96 92.5 146.5t181.5 50.5q101 0 161.5 -54.5t43.5 -150.5zM208 507q-8 -45 21 -71t87 -26q57 0 95.5 26t45.5 71
q9 46 -20.5 71.5t-86.5 25.5q-58 0 -95.5 -25t-46.5 -72zM428 205q9 52 -24 80.5t-105 28.5t-115.5 -28.5t-51.5 -80.5q-10 -52 24 -80.5t105 -28.5q72 0 115 28.5t52 80.5z" />
    <glyph glyph-name="nine.tf" horiz-adv-x="575" 
d="M369 713q124 0 184.5 -73t41.5 -177q-14 -78 -66 -136l-291 -327h-137l204 230h-11q-121 0 -182 72t-44 176q17 102 96.5 168.5t204.5 66.5zM182 472q-10 -61 24 -97t102 -36q70 0 116 35.5t57 97.5q11 61 -23 96.5t-103 35.5q-70 0 -116 -35t-57 -97z" />
    <glyph glyph-name="zero.dnom" horiz-adv-x="410" 
d="M162 -13q-79 0 -120.5 61t-24.5 158t74 152t140 55q79 0 120 -61t24 -157q-17 -98 -73 -153t-140 -55zM175 78q40 0 68.5 31.5t38.5 90.5t-7 90.5t-57 31.5q-41 0 -69 -31.5t-38 -90.5t6.5 -90.5t57.5 -31.5z" />
    <glyph glyph-name="one.dnom" horiz-adv-x="261" 
d="M151 400h80l-71 -400h-92l53 300l-88 -25l-10 82z" />
    <glyph glyph-name="two.dnom" horiz-adv-x="351" 
d="M-17 0l11 64l184 155q45 38 50 65q4 20 -7.5 32t-34.5 12q-43 0 -78 -56l-72 45q55 96 163 96q62 0 96.5 -37t24.5 -97q-8 -54 -87 -118l-92 -76h150l-14 -85h-294z" />
    <glyph glyph-name="three.dnom" horiz-adv-x="350" 
d="M327 400l-13 -72l-91 -95q40 -14 59.5 -46t12.5 -74q-11 -62 -56.5 -94t-115.5 -32q-105 0 -139 87l81 42q19 -47 70 -47q29 0 46.5 13.5t21.5 36.5t-10.5 36.5t-42.5 13.5h-15l-27 54l89 92h-154l14 85h270z" />
    <glyph glyph-name="four.dnom" horiz-adv-x="356" 
d="M321 152l-15 -84h-43l-12 -68h-89l12 68h-194l15 84l176 248h103l-172 -248h86l14 79h89l-14 -79h44z" />
    <glyph glyph-name="five.dnom" horiz-adv-x="338" 
d="M306 316h-159l-17 -66h41q60 0 95 -37.5t23 -101.5q-10 -61 -54 -92.5t-112 -31.5q-104 0 -136 87l81 41q16 -47 67 -47q28 0 46 14t22 36q5 24 -8.5 38.5t-40.5 14.5h-129l56 229h240z" />
    <glyph glyph-name="six.dnom" horiz-adv-x="342" 
d="M184 270q61 -4 94.5 -46t23.5 -102q-11 -61 -58.5 -98t-116.5 -37q-66 0 -103 43t-26 104q9 51 42 84l148 182h104zM216 128q5 28 -10 44.5t-45 16.5t-50.5 -16.5t-25.5 -44.5q-6 -28 9 -44.5t45 -16.5q31 0 51.5 16.5t25.5 44.5z" />
    <glyph glyph-name="seven.dnom" horiz-adv-x="296" 
d="M31 400h273l-12 -71l-188 -329h-100l183 315h-171z" />
    <glyph glyph-name="eight.dnom" horiz-adv-x="345" 
d="M317 291q-9 -55 -62 -83q53 -37 42 -104q-8 -55 -53 -86t-116 -31q-67 0 -103.5 35t-27.5 90q12 68 81 100q-44 34 -34 88q9 54 52.5 83.5t103.5 29.5q57 0 92 -34t25 -88zM125 289q-4 -21 8.5 -33t38.5 -12q54 0 62 45q4 21 -8.5 33t-37.5 12q-55 0 -63 -45zM212 120
q4 24 -10 38t-43 14q-30 0 -48.5 -14t-22.5 -38q-5 -24 9 -38t44 -14t48.5 14t22.5 38z" />
    <glyph glyph-name="nine.dnom" horiz-adv-x="341" 
d="M198 413q64 0 102 -43t27 -104q-9 -50 -42 -83l-147 -183h-103l108 130q-61 3 -96 46.5t-25 101.5q11 61 59 98t117 37zM109 272q-5 -28 10 -44.5t45 -16.5t50.5 16.5t25.5 44.5q6 28 -9 44.5t-45 16.5q-31 0 -51.5 -16.5t-25.5 -44.5z" />
    <glyph glyph-name="zero.numr" horiz-adv-x="410" 
d="M215 287q-79 0 -120.5 61t-24.5 158t74 152t140 55q79 0 120 -61t24 -157q-17 -98 -73 -153t-140 -55zM228 378q40 0 68.5 31.5t38.5 90.5t-7 90.5t-57 31.5q-41 0 -69 -31.5t-38 -90.5t6.5 -90.5t57.5 -31.5z" />
    <glyph glyph-name="one.numr" horiz-adv-x="261" 
d="M204 700h80l-71 -400h-92l53 300l-88 -25l-10 82z" />
    <glyph glyph-name="two.numr" horiz-adv-x="351" 
d="M36 300l11 64l184 155q45 38 50 65q4 20 -7.5 32t-34.5 12q-43 0 -78 -56l-72 45q55 96 163 96q62 0 96.5 -37t24.5 -97q-8 -54 -87 -118l-92 -76h150l-14 -85h-294z" />
    <glyph glyph-name="three.numr" horiz-adv-x="350" 
d="M379 700l-13 -72l-91 -95q40 -14 59.5 -46t12.5 -74q-11 -62 -56.5 -94t-115.5 -32q-105 0 -139 87l81 42q19 -47 70 -47q29 0 46.5 13.5t21.5 36.5t-10.5 36.5t-42.5 13.5h-15l-27 54l89 92h-154l14 85h270z" />
    <glyph glyph-name="four.numr" horiz-adv-x="356" 
d="M374 452l-15 -84h-43l-12 -68h-89l12 68h-194l15 84l176 248h103l-172 -248h86l14 79h89l-14 -79h44z" />
    <glyph glyph-name="five.numr" horiz-adv-x="337" 
d="M358 616h-159l-17 -66h41q60 0 95 -37.5t23 -101.5q-10 -61 -54 -92.5t-112 -31.5q-104 0 -136 87l81 41q16 -47 67 -47q28 0 46 14t22 36q5 24 -8.5 38.5t-40.5 14.5h-129l56 229h240z" />
    <glyph glyph-name="six.numr" horiz-adv-x="341" 
d="M236 570q61 -4 94.5 -46t23.5 -102q-11 -61 -58.5 -98t-116.5 -37q-66 0 -103 43t-26 104q9 51 42 84l148 182h104zM268 428q5 28 -10 44.5t-45 16.5t-50.5 -16.5t-25.5 -44.5q-6 -28 9 -44.5t45 -16.5q31 0 51.5 16.5t25.5 44.5z" />
    <glyph glyph-name="seven.numr" horiz-adv-x="296" 
d="M84 700h273l-12 -71l-188 -329h-100l183 315h-171z" />
    <glyph glyph-name="eight.numr" horiz-adv-x="345" 
d="M370 591q-9 -55 -62 -83q53 -37 42 -104q-8 -55 -53 -86t-116 -31q-67 0 -103.5 35t-27.5 90q12 68 81 100q-44 34 -34 88q9 54 52.5 83.5t103.5 29.5q57 0 92 -34t25 -88zM178 589q-4 -21 8.5 -33t38.5 -12q54 0 62 45q4 21 -8.5 33t-37.5 12q-55 0 -63 -45zM265 420
q4 24 -10 38t-43 14q-30 0 -48.5 -14t-22.5 -38q-5 -24 9 -38t44 -14t48.5 14t22.5 38z" />
    <glyph glyph-name="nine.numr" horiz-adv-x="341" 
d="M251 713q64 0 102 -43t27 -104q-9 -50 -42 -83l-147 -183h-103l108 130q-61 3 -96 46.5t-25 101.5q11 61 59 98t117 37zM162 572q-5 -28 10 -44.5t45 -16.5t50.5 16.5t25.5 44.5q6 28 -9 44.5t-45 16.5q-31 0 -51.5 -16.5t-25.5 -44.5z" />
    <glyph glyph-name="zero.sups" horiz-adv-x="410" 
d="M243 447q-79 0 -120.5 61t-24.5 158t74 152t140 55q79 0 120 -61t24 -157q-17 -98 -73 -153t-140 -55zM256 538q40 0 68.5 31.5t38.5 90.5t-7 90.5t-57 31.5q-41 0 -69 -31.5t-38 -90.5t6.5 -90.5t57.5 -31.5z" />
    <glyph glyph-name="one.sups" horiz-adv-x="261" 
d="M233 860h80l-71 -400h-92l53 300l-88 -25l-10 82z" />
    <glyph glyph-name="two.sups" horiz-adv-x="351" 
d="M64 460l11 64l184 155q45 38 50 65q4 20 -7.5 32t-34.5 12q-43 0 -78 -56l-72 45q55 96 163 96q62 0 96.5 -37t24.5 -97q-8 -54 -87 -118l-92 -76h150l-14 -85h-294z" />
    <glyph glyph-name="three.sups" horiz-adv-x="350" 
d="M408 860l-13 -72l-91 -95q40 -14 59.5 -46t12.5 -74q-11 -62 -56.5 -94t-115.5 -32q-105 0 -139 87l81 42q19 -47 70 -47q29 0 46.5 13.5t21.5 36.5t-10.5 36.5t-42.5 13.5h-15l-27 54l89 92h-154l14 85h270z" />
    <glyph glyph-name="four.sups" horiz-adv-x="356" 
d="M402 612l-15 -84h-43l-12 -68h-89l12 68h-194l15 84l176 248h103l-172 -248h86l14 79h89l-14 -79h44z" />
    <glyph glyph-name="five.sups" horiz-adv-x="337" 
d="M387 776h-159l-17 -66h41q60 0 95 -37.5t23 -101.5q-10 -61 -54 -92.5t-112 -31.5q-104 0 -136 87l81 41q16 -47 67 -47q28 0 46 14t22 36q5 24 -8.5 38.5t-40.5 14.5h-129l56 229h240z" />
    <glyph glyph-name="six.sups" horiz-adv-x="341" 
d="M265 730q61 -4 94.5 -46t23.5 -102q-11 -61 -58.5 -98t-116.5 -37q-66 0 -103 43t-26 104q9 51 42 84l148 182h104zM297 588q5 28 -10 44.5t-45 16.5t-50.5 -16.5t-25.5 -44.5q-6 -28 9 -44.5t45 -16.5q31 0 51.5 16.5t25.5 44.5z" />
    <glyph glyph-name="seven.sups" horiz-adv-x="297" 
d="M113 860h273l-12 -71l-188 -329h-100l183 315h-171z" />
    <glyph glyph-name="eight.sups" horiz-adv-x="345" 
d="M398 751q-9 -55 -62 -83q53 -37 42 -104q-8 -55 -53 -86t-116 -31q-67 0 -103.5 35t-27.5 90q12 68 81 100q-44 34 -34 88q9 54 52.5 83.5t103.5 29.5q57 0 92 -34t25 -88zM206 749q-4 -21 8.5 -33t38.5 -12q54 0 62 45q4 21 -8.5 33t-37.5 12q-55 0 -63 -45zM293 580
q4 24 -10 38t-43 14q-30 0 -48.5 -14t-22.5 -38q-5 -24 9 -38t44 -14t48.5 14t22.5 38z" />
    <glyph glyph-name="nine.sups" horiz-adv-x="341" 
d="M279 873q64 0 102 -43t27 -104q-9 -50 -42 -83l-147 -183h-103l108 130q-61 3 -96 46.5t-25 101.5q11 61 59 98t117 37zM190 732q-5 -28 10 -44.5t45 -16.5t50.5 16.5t25.5 44.5q6 28 -9 44.5t-45 16.5q-31 0 -51.5 -16.5t-25.5 -44.5z" />
    <glyph glyph-name="cent.tf" horiz-adv-x="575" 
d="M304 193q44 0 81.5 21t61.5 57l87 -56q-38 -62 -102 -95t-139 -33q-33 0 -65 8l-47 -95h-58l56 114q-64 33 -94 99.5t-17 147.5q19 110 103.5 181t197.5 71q26 0 54 -5l46 92h58l-53 -108q73 -33 103 -109l-97 -50q-17 43 -55 60l-148 -298q18 -2 27 -2zM176 353
q-7 -45 7 -82t46 -57l144 292q-4 1 -14 1q-67 0 -119 -43t-64 -111z" />
    <glyph glyph-name="dollar.tf" horiz-adv-x="575" 
d="M362 396q16 -7 26 -11t26.5 -11.5t26.5 -14t24.5 -16t23 -19t18.5 -21.5t15.5 -25.5t9.5 -29.5t3.5 -35t-4.5 -40q-16 -85 -82 -132t-160 -53l-15 -88h-65l16 89q-84 8 -138 48.5t-75 107.5l104 53q28 -89 128 -99l37 209q-43 18 -71 34t-57 42t-39.5 62.5t-1.5 83.5
q16 89 85 135t156 48l15 87h65l-16 -92q121 -23 168 -134l-102 -53q-30 63 -86 77zM228 520q-6 -35 13 -57.5t60 -40.5l32 181q-40 -3 -69 -25t-36 -58zM415 186q7 35 -12.5 56.5t-60.5 40.5l-33 -183q44 7 71.5 29.5t34.5 56.5z" />
    <glyph glyph-name="Euro.tf" horiz-adv-x="575" 
d="M306 99q84 0 140 96l90 -57q-39 -72 -102 -111.5t-142 -39.5q-97 0 -149.5 74t-50.5 199h-67l12 71h61q2 18 4 27q2 14 4 19h-61l13 71h65q38 126 112.5 195.5t178.5 69.5q69 0 120 -38.5t72 -106.5l-100 -53q-25 86 -106 86q-108 0 -159 -153h197l-13 -71h-204
q-1 -5 -2.5 -14t-2.5 -13l-3 -19h204l-12 -71h-199q-5 -161 100 -161z" />
    <glyph glyph-name="florin.tf" horiz-adv-x="575" 
d="M362 554q88 200 268 150l-18 -107q-48 17 -86 1.5t-57 -61.5l-58 -133h132l-19 -104h-158l-152 -351q-88 -200 -268 -150l18 107q49 -17 86 -1.5t57 61.5l145 334h-129l19 104h155z" />
    <glyph glyph-name="uni20BD.tf" horiz-adv-x="575" 
d="M402 700q90 0 146.5 -70t40.5 -163q-17 -93 -90.5 -152.5t-174.5 -59.5h-118l-12 -67h210l-13 -78h-211l-19 -110h-115l19 110h-80l14 78h80l12 67h-80l18 103h80l60 342h233zM475 475q9 49 -18 83t-74 34h-118l-41 -234h118q47 0 85.5 34t47.5 83z" />
    <glyph glyph-name="sterling.tf" horiz-adv-x="575" 
d="M231 279l-30 -168h340l-20 -111h-535l20 111h80l30 168h-65l18 101h64l21 116q19 108 83 162.5t158 54.5q70 0 122 -37.5t73 -103.5l-101 -53q-29 82 -107 82q-42 0 -73 -26.5t-40 -78.5l-21 -116h218l-18 -101h-217z" />
    <glyph glyph-name="yen.tf" horiz-adv-x="575" 
d="M651 700l-263 -343h144l-13 -73h-168l-9 -50h168l-12 -73h-168l-29 -161h-115l29 161h-167l12 73h167l9 50h-167l13 73h144l-143 343h124l106 -274l202 274h136z" />
    <glyph glyph-name="brevecy" horiz-adv-x="340" 
d="M87 570l16 94h280l-16 -94h-280z" />
    </font>
</defs>
</svg>
