<?xml version="1.0" standalone="no"?>
<!DOCTYPE svg PUBLIC "-//W3C//DTD SVG 1.1//EN" "http://www.w3.org/Graphics/SVG/1.1/DTD/svg11.dtd" >
<svg xmlns="http://www.w3.org/2000/svg" xmlns:xlink="http://www.w3.org/1999/xlink" version="1.1">
<metadata>
Created by FontForge 20201107 at Fri Jul  8 21:54:01 2016
 By 
Copyright (c) 2016 by Radomir Tinkov. All rights reserved.
</metadata>
<defs>
<font id="Gilroy-Thin" horiz-adv-x="570" >
  <font-face 
    font-family="Gilroy-Thin"
    font-weight="400"
    font-stretch="normal"
    units-per-em="1000"
    panose-1="0 0 3 0 0 0 0 0 0 0"
    ascent="777"
    descent="-223"
    x-height="500"
    cap-height="700"
    bbox="-280 -240 1049 960"
    underline-thickness="50"
    underline-position="-100"
    unicode-range="U+0020-FB02"
  />
<missing-glyph horiz-adv-x="500" 
d="M410 800v-1000h-317v1000h317zM333 733h-165v-33h65v-37h-66v-33h166v33h-66v37h66v33zM267 604h-100v-104h166v34h-66v70zM233 570v-36h-33v36h33zM333 473h-166v-33h66v-37h-66v-33h100v70h66v33zM333 413h-33v-66h-133v-34h166v100zM333 291h-100v-56h34v23h33v-47
h-100v80h-33v-113h166v113zM333 118h-166v-113h166v113zM300 85v-47h-100v47h100zM333 -18h-166v-33h70l-70 -47v-33h166v33h-102l70 47h32v33z" />
    <glyph glyph-name="fi" unicode="fi" horiz-adv-x="499" 
d="M409 500v-500h-20v482h-249v-482h-20v482h-90v18h90v40q0 170 179 170q52 0 100 -10v-18q-48 10 -100 10q-83 0 -121 -37.5t-38 -114.5v-40h269z" />
    <glyph glyph-name="fl" unicode="fl" horiz-adv-x="499" 
d="M299 710q52 0 110 -10v-700h-20v685q-36 7 -90 7q-83 0 -121 -37.5t-38 -114.5v-40h129v-18h-129v-482h-20v482h-90v18h90v40q0 170 179 170z" />
    <glyph glyph-name="f_f" unicode="ff" horiz-adv-x="568" 
d="M568 702q-159 13 -159 -152v-50h159v-18h-159v-482h-20v482h-249v-482h-20v482h-90v18h90v40q0 86 44.5 131.5t134.5 38.5v-18q-159 13 -159 -152v-40h249v50q0 86 44.5 131.5t134.5 38.5v-18z" />
    <glyph glyph-name="f_f_i" unicode="ffi" horiz-adv-x="768" 
d="M678 500v-500h-20v482h-249v-482h-20v482h-249v-482h-20v482h-90v18h90v40q0 86 44.5 131.5t134.5 38.5v-18q-159 13 -159 -152v-40h249v50q0 170 179 170q52 0 100 -10v-18q-48 10 -100 10q-83 0 -121 -37.5t-38 -114.5v-50h269z" />
    <glyph glyph-name="f_f_l" unicode="ffl" horiz-adv-x="768" 
d="M568 720q52 0 110 -10v-710h-20v695q-36 7 -90 7q-83 0 -121 -37.5t-38 -114.5v-50h129v-18h-129v-482h-20v482h-249v-482h-20v482h-90v18h90v40q0 86 44.5 131.5t134.5 38.5v-18q-159 13 -159 -152v-40h249v50q0 170 179 170z" />
    <glyph glyph-name=".notdef" horiz-adv-x="500" 
d="M410 800v-1000h-317v1000h317zM333 733h-165v-33h65v-37h-66v-33h166v33h-66v37h66v33zM267 604h-100v-104h166v34h-66v70zM233 570v-36h-33v36h33zM333 473h-166v-33h66v-37h-66v-33h100v70h66v33zM333 413h-33v-66h-133v-34h166v100zM333 291h-100v-56h34v23h33v-47
h-100v80h-33v-113h166v113zM333 118h-166v-113h166v113zM300 85v-47h-100v47h100zM333 -18h-166v-33h70l-70 -47v-33h166v33h-102l70 47h32v33z" />
    <glyph glyph-name=".null" horiz-adv-x="0" 
 />
    <glyph glyph-name="nonmarkingreturn" horiz-adv-x="333" 
 />
    <glyph glyph-name="space" unicode=" " horiz-adv-x="300" 
 />
    <glyph glyph-name="exclam" unicode="!" horiz-adv-x="200" 
d="M90 160v540h20v-540h-20zM100 -10q-10 0 -17.5 7t-7.5 18t7.5 18t17.5 7t17.5 -7t7.5 -18t-7.5 -18t-17.5 -7z" />
    <glyph glyph-name="quotedbl" unicode="&#x22;" horiz-adv-x="260" 
d="M60 540v160h20v-160h-20zM180 540v160h20v-160h-20z" />
    <glyph glyph-name="numbersign" unicode="#" horiz-adv-x="612" 
d="M559 430h-120l-26 -160h120l-4 -20h-120l-33 -200h-20l33 200h-200l-33 -200h-20l33 200h-119l3 20h120l26 160h-120l3 20h121l33 200h20l-33 -200h200l33 200h20l-33 -200h119zM393 270l26 160h-200l-26 -160h200z" />
    <glyph glyph-name="dollar" unicode="$" horiz-adv-x="550" 
d="M500 172q0 -77 -54 -126t-147 -55v-91h-20v90h-3q-86 0 -146.5 35.5t-79.5 98.5l17 10q17 -61 73 -93.5t136 -32.5h3v339q-39 13 -62 21.5t-53 25t-46 34t-28 45t-12 61.5q0 74 57.5 125t143.5 51v90h20v-91q137 -8 181 -120l-16 -9q-39 102 -165 111v-331
q39 -14 63.5 -23.5t53.5 -26.5t45.5 -34.5t27.5 -44t11 -59.5zM98 534q0 -37 14 -65t45 -47.5t54 -29.5t68 -26v326q-82 0 -131.5 -47.5t-49.5 -110.5zM299 9q88 6 134.5 51.5t46.5 111.5t-45.5 102t-135.5 66v-331z" />
    <glyph glyph-name="percent" unicode="%" horiz-adv-x="729" 
d="M223 414q-66 0 -109.5 42.5t-43.5 105.5t43.5 105.5t109.5 42.5t109.5 -42.5t43.5 -105.5t-43 -105.5t-110 -42.5zM223 432q58 0 95.5 37t37.5 93t-38 93t-95 37t-95 -37t-38 -93t38 -93t95 -37zM114 80l485 549l16 -9l-486 -549zM506 -10q-66 0 -109.5 42.5t-43.5 105.5
t43.5 105.5t109.5 42.5t109.5 -42.5t43.5 -105.5t-43.5 -105.5t-109.5 -42.5zM506 8q57 0 95 37t38 93t-38 93t-95 37t-95 -37t-38 -93t38 -93t95 -37z" />
    <glyph glyph-name="ampersand" unicode="&#x26;" horiz-adv-x="651" 
d="M621 10l-17 -10l-96 97q-78 -107 -216 -107q-104 0 -163 53.5t-59 142.5q0 68 39.5 123t108.5 84q-65 72 -65 145q0 76 55 124t139 48q65 0 113 -31.5t68 -88.5l-16 -9q-18 51 -60.5 81t-104.5 30q-80 0 -127 -44.5t-47 -111.5q0 -47 24 -83.5t76 -89.5l232 -235
q39 61 51 151l17 -10q-14 -90 -54 -156zM291 8q130 0 203 104l-235 239q-19 19 -27 28q-69 -27 -105.5 -79t-36.5 -115q0 -82 54.5 -129.5t146.5 -47.5z" />
    <glyph glyph-name="quotesingle" unicode="'" horiz-adv-x="130" 
d="M60 540v160h20v-160h-20z" />
    <glyph glyph-name="parenleft" unicode="(" horiz-adv-x="250" 
d="M170 -100q-110 220 -110 450t110 450h20q-110 -220 -110 -450t110 -450h-20z" />
    <glyph glyph-name="parenright" unicode=")" horiz-adv-x="250" 
d="M80 -100h-20q110 220 110 450t-110 450h20q110 -220 110 -450t-110 -450z" />
    <glyph glyph-name="asterisk" unicode="*" horiz-adv-x="376" 
d="M306 614v-18l-103 1l55 -87l-16 -10l-54 89l-54 -89l-16 10l55 87l-103 -1v18l103 -1l-55 87l16 10l54 -89l54 89l16 -10l-55 -87z" />
    <glyph glyph-name="plus" unicode="+" horiz-adv-x="520" 
d="M450 359v-18h-180v-181h-20v181h-180v18h180v181h20v-181h180z" />
    <glyph glyph-name="comma" unicode="," horiz-adv-x="190" 
d="M125 35l-42 -175h-18l34 175h26z" />
    <glyph glyph-name="hyphen" unicode="-" horiz-adv-x="560" 
d="M100 300v18h360v-18h-360z" />
    <glyph glyph-name="period" unicode="." horiz-adv-x="180" 
d="M90 -10q-10 0 -17.5 7t-7.5 18t7.5 18t17.5 7t17.5 -7t7.5 -18t-7.5 -18t-17.5 -7z" />
    <glyph glyph-name="slash" unicode="/" horiz-adv-x="520" 
d="M70 -100h-20l400 900h20z" />
    <glyph glyph-name="zero" unicode="0" horiz-adv-x="630" 
d="M315 -10q-119 0 -187 98t-68 262t68 262t187 98t187 -98t68 -262t-68 -262t-187 -98zM315 8q108 0 171.5 91.5t63.5 250.5t-63.5 250.5t-171.5 91.5t-171.5 -91.5t-63.5 -250.5t63.5 -250.5t171.5 -91.5z" />
    <glyph glyph-name="one" unicode="1" horiz-adv-x="316" 
d="M201 700h15v-700h-20v679l-171 -58l-5 17z" />
    <glyph glyph-name="two" unicode="2" horiz-adv-x="530" 
d="M50 0v18l266 284q124 133 124 223q0 74 -49 120.5t-131 46.5q-137 0 -189 -120l-16 10q26 60 80 94t125 34q86 0 143 -50t57 -135q0 -96 -131 -236l-253 -271h404v-18h-430z" />
    <glyph glyph-name="three" unicode="3" horiz-adv-x="557" 
d="M279 410q95 -4 156.5 -62t61.5 -148q0 -93 -64.5 -151.5t-160.5 -58.5q-77 0 -134 33t-83 90l16 10q23 -53 75 -84t126 -31q92 0 148.5 54.5t56.5 137.5t-57.5 137.5t-152.5 54.5h-6l-8 12l182 278h-368v18h390v-18z" />
    <glyph glyph-name="four" unicode="4" horiz-adv-x="560" 
d="M535 178v-18h-90v-160h-20v160h-390v18l276 522h22l-276 -522h368v232h20v-232h90z" />
    <glyph glyph-name="five" unicode="5" horiz-adv-x="543" 
d="M268 410q100 0 165 -58.5t65 -151.5t-65 -151.5t-165 -58.5q-74 0 -130.5 33.5t-82.5 91.5l16 10q23 -54 74 -85.5t123 -31.5q95 0 152.5 54.5t57.5 137.5t-57.5 137.5t-152.5 54.5h-181l21 308h360v-18h-343l-18 -272h161z" />
    <glyph glyph-name="six" unicode="6" horiz-adv-x="550" 
d="M275 450q103 0 169 -64.5t66 -165.5t-66 -165.5t-169 -64.5t-169 64.5t-66 165.5q0 78 43 139l245 341h22l-202 -283q57 33 127 33zM275 8q99 0 157 60.5t58 151.5t-58 151.5t-157 60.5t-157 -60.5t-58 -151.5t58 -151.5t157 -60.5z" />
    <glyph glyph-name="seven" unicode="7" horiz-adv-x="490" 
d="M30 700h410v-18l-287 -682h-20l288 682h-391v18z" />
    <glyph glyph-name="eight" unicode="8" horiz-adv-x="554" 
d="M351 362q72 -17 112.5 -64.5t40.5 -117.5q0 -87 -61.5 -138.5t-165.5 -51.5t-165.5 51.5t-61.5 138.5q0 70 40.5 117.5t112.5 64.5q-61 18 -96 62.5t-35 106.5q0 79 57 129t148 50t148 -50t57 -129q0 -62 -35 -106.5t-96 -62.5zM92 531q0 -69 49 -115t136 -46t136 46
t49 115t-49 115t-136 46t-136 -46t-49 -115zM277 8q99 0 153 48t54 124t-54 124t-153 48t-153 -48t-54 -124t54 -124t153 -48z" />
    <glyph glyph-name="nine" unicode="9" horiz-adv-x="550" 
d="M510 480q0 -78 -43 -139l-245 -341h-22l202 283q-57 -33 -127 -33q-103 0 -169 64.5t-66 165.5t66 165.5t169 64.5t169 -64.5t66 -165.5zM60 480q0 -91 58 -151.5t157 -60.5t157 60.5t58 151.5t-58 151.5t-157 60.5t-157 -60.5t-58 -151.5z" />
    <glyph glyph-name="colon" unicode=":" horiz-adv-x="180" 
d="M90 430q-10 0 -17.5 7t-7.5 18t7.5 18t17.5 7t17.5 -7t7.5 -18t-7.5 -18t-17.5 -7zM90 -10q-10 0 -17.5 7t-7.5 18t7.5 18t17.5 7t17.5 -7t7.5 -18t-7.5 -18t-17.5 -7z" />
    <glyph glyph-name="semicolon" unicode=";" horiz-adv-x="200" 
d="M110 430q-10 0 -17.5 7t-7.5 18t7.5 18t17.5 7t17.5 -7t7.5 -18t-7.5 -18t-17.5 -7zM125 35l-42 -175h-18l34 175h26z" />
    <glyph glyph-name="less" unicode="&#x3c;" horiz-adv-x="540" 
d="M470 542v-20l-378 -172l378 -172v-20l-400 183v18z" />
    <glyph glyph-name="equal" unicode="=" horiz-adv-x="530" 
d="M70 441v18h390v-18h-390zM70 241v18h390v-18h-390z" />
    <glyph glyph-name="greater" unicode="&#x3e;" horiz-adv-x="540" 
d="M70 542l400 -183v-18l-400 -183v20l378 172l-378 172v20z" />
    <glyph glyph-name="question" unicode="?" horiz-adv-x="526" 
d="M240 160q0 48 20 92.5t49 78t58 65.5t49 69t20 75q0 69 -44.5 110.5t-130.5 41.5q-66 0 -116.5 -32.5t-67.5 -82.5l-17 9q20 55 76 89.5t125 34.5q90 0 142.5 -45.5t52.5 -124.5q0 -40 -20 -78.5t-49 -70.5t-58 -65.5t-49 -76.5t-20 -89h-20zM250 -10q-10 0 -17.5 7
t-7.5 18t7.5 18t17.5 7t17.5 -7t7.5 -18t-7.5 -18t-17.5 -7z" />
    <glyph glyph-name="at" unicode="@" horiz-adv-x="834" 
d="M424 612q106 0 188 -51.5t122 -128.5t40 -162q0 -106 -37.5 -154t-92.5 -48q-46 0 -67.5 29t-21.5 70v13q-18 -41 -55.5 -65.5t-86.5 -24.5q-69 0 -115.5 46t-46.5 114t46.5 114t115.5 46q49 0 86.5 -24.5t55.5 -65.5v83h20v-236q0 -38 18 -59.5t51 -21.5q52 0 81 48.5
t29 135.5q0 137 -95.5 230.5t-234.5 93.5q-145 0 -244.5 -99.5t-99.5 -244.5q0 -149 102.5 -246.5t259.5 -97.5q98 0 167 26l7 -17q-75 -27 -174 -27q-164 0 -273 102.5t-109 259.5q0 151 104.5 256.5t259.5 105.5zM413 108q61 0 101.5 40.5t40.5 101.5t-40.5 101.5
t-101.5 40.5t-101.5 -40.5t-40.5 -101.5t40.5 -101.5t101.5 -40.5z" />
    <glyph glyph-name="A" unicode="A" horiz-adv-x="628" 
d="M582 0l-75 191h-386l-75 -191h-21l277 700h24l277 -700h-21zM128 209h372l-186 470z" />
    <glyph glyph-name="B" unicode="B" horiz-adv-x="630" 
d="M434 360q63 -13 104.5 -62.5t41.5 -114.5q0 -76 -53.5 -129.5t-129.5 -53.5h-297v700h274q73 0 124.5 -52t51.5 -124q0 -56 -32 -101t-84 -63zM374 682h-254v-316h254q64 0 110 46.5t46 111.5t-46 111.5t-110 46.5zM397 18q67 0 115 48.5t48 116.5t-48 116.5t-115 48.5
h-277v-330h277z" />
    <glyph glyph-name="C" unicode="C" horiz-adv-x="764" 
d="M420 -10q-155 0 -257.5 104.5t-102.5 255.5t102.5 255.5t257.5 104.5q93 0 171.5 -43.5t122.5 -117.5l-17 -10q-41 70 -115 111.5t-162 41.5q-147 0 -243.5 -99t-96.5 -243t96.5 -243t243.5 -99q91 0 166.5 43.5t114.5 116.5l18 -10q-43 -77 -123 -122.5t-176 -45.5z" />
    <glyph glyph-name="D" unicode="D" horiz-adv-x="740" 
d="M350 700q143 0 236.5 -101.5t93.5 -248.5t-93.5 -248.5t-236.5 -101.5h-250v700h250zM350 18q135 0 222.5 96t87.5 236t-87.5 236t-222.5 96h-230v-664h230z" />
    <glyph glyph-name="E" unicode="E" horiz-adv-x="540" 
d="M120 18h370v-18h-390v700h385v-18h-365v-320h340v-18h-340v-326z" />
    <glyph glyph-name="F" unicode="F" horiz-adv-x="525" 
d="M475 682h-355v-324h350v-18h-350v-340h-20v700h375v-18z" />
    <glyph glyph-name="G" unicode="G" horiz-adv-x="820" 
d="M760 313v-10q0 -132 -92 -222.5t-238 -90.5q-162 0 -266 104t-104 256q0 151 102.5 255.5t257.5 104.5q94 0 173.5 -45t122.5 -120l-17 -10q-40 72 -115 114.5t-164 42.5q-147 0 -243.5 -99t-96.5 -243t98.5 -243t251.5 -99q136 0 222 82.5t89 204.5h-332v18h351z" />
    <glyph glyph-name="H" unicode="H" horiz-adv-x="700" 
d="M580 700h20v-700h-20v351h-460v-351h-20v700h20v-331h460v331z" />
    <glyph glyph-name="I" unicode="I" horiz-adv-x="220" 
d="M100 700h20v-700h-20v700z" />
    <glyph glyph-name="J" unicode="J" horiz-adv-x="554" 
d="M249 -10q-73 0 -124.5 30t-74.5 83l16 10q44 -105 183 -105q91 0 143 48t52 124v520h20v-520q0 -86 -60 -138t-155 -52z" />
    <glyph glyph-name="K" unicode="K" horiz-adv-x="555" 
d="M545 0h-27l-398 355v-355h-20v700h20v-335l388 335h27l-393 -340z" />
    <glyph glyph-name="L" unicode="L" horiz-adv-x="500" 
d="M120 18h350v-18h-370v700h20v-682z" />
    <glyph glyph-name="M" unicode="M" horiz-adv-x="820" 
d="M720 700v-700h-20v673l-286 -464h-8l-286 464v-673h-20v700h26l284 -462l284 462h26z" />
    <glyph glyph-name="N" unicode="N" horiz-adv-x="700" 
d="M580 700h20v-700h-20l-460 666v-666h-20v700h20l460 -666v666z" />
    <glyph glyph-name="O" unicode="O" horiz-adv-x="840" 
d="M420 -10q-149 0 -254.5 105.5t-105.5 254.5t105.5 254.5t254.5 105.5t254.5 -105.5t105.5 -254.5t-105.5 -254.5t-254.5 -105.5zM420 8q141 0 240.5 100t99.5 242t-99.5 242t-240.5 100t-240.5 -100t-99.5 -242t99.5 -242t240.5 -100z" />
    <glyph glyph-name="P" unicode="P" horiz-adv-x="580" 
d="M315 700q93 0 154 -60t61 -150t-61 -150t-154 -60h-195v-280h-20v700h215zM315 298q85 0 140 54.5t55 137.5t-55 137.5t-140 54.5h-195v-384h195z" />
    <glyph glyph-name="Q" unicode="Q" horiz-adv-x="845" 
d="M780 350q0 -79 -32 -149.5t-89 -120.5l87 -86l-13 -13l-88 88q-98 -79 -225 -79q-149 0 -254.5 105.5t-105.5 254.5t105.5 254.5t254.5 105.5t254.5 -105.5t105.5 -254.5zM420 8q118 0 211 74l-160 159l13 12l161 -159q54 47 84.5 114t30.5 142q0 142 -99.5 242
t-240.5 100t-240.5 -100t-99.5 -242t99.5 -242t240.5 -100z" />
    <glyph glyph-name="R" unicode="R" horiz-adv-x="620" 
d="M590 0h-22l-178 301q-6 -1 -20 -1h-250v-300h-20v700h270q82 0 141 -59t59 -141q0 -71 -45.5 -126.5t-114.5 -69.5zM120 318h250q74 0 127 53.5t53 128.5t-53 128.5t-127 53.5h-250v-364z" />
    <glyph glyph-name="S" unicode="S" 
d="M302 -10q-97 0 -162 43.5t-85 110.5l17 10q18 -65 78.5 -105.5t151.5 -40.5q97 0 147.5 47.5t50.5 119.5q0 64 -51.5 102.5t-149.5 67.5q-53 15 -87 29t-66 35t-47.5 51t-15.5 69q0 76 57.5 128.5t148.5 52.5q80 0 133.5 -39t77.5 -102l-16 -9q-51 132 -195 132
q-87 0 -136.5 -49t-49.5 -114q0 -29 12 -52.5t27 -38.5t47 -30.5t53.5 -23.5t64.5 -22q105 -34 159 -75t54 -112q0 -83 -58.5 -134t-159.5 -51z" />
    <glyph glyph-name="T" unicode="T" horiz-adv-x="540" 
d="M510 700v-18h-230v-682h-20v682h-230v18h480z" />
    <glyph glyph-name="U" unicode="U" horiz-adv-x="680" 
d="M340 -10q-115 0 -182.5 65.5t-67.5 169.5v475h20v-475q0 -94 59.5 -155.5t170.5 -61.5t170.5 61.5t59.5 155.5v475h20v-475q0 -104 -67.5 -169.5t-182.5 -65.5z" />
    <glyph glyph-name="V" unicode="V" horiz-adv-x="598" 
d="M287 0l-267 700h21l258 -678l258 678h21l-267 -700h-24z" />
    <glyph glyph-name="W" unicode="W" horiz-adv-x="980" 
d="M243 0l-203 700h20l195 -676l223 676h24l223 -676l195 676h20l-203 -700h-24l-223 676l-223 -676h-24z" />
    <glyph glyph-name="X" unicode="X" horiz-adv-x="560" 
d="M530 0h-24l-226 339l-226 -339h-24l238 357l-229 343h24l217 -325l217 325h24l-229 -343z" />
    <glyph glyph-name="Y" unicode="Y" horiz-adv-x="560" 
d="M550 700l-260 -410v-290h-20v290l-260 410h22l248 -393l248 393h22z" />
    <glyph glyph-name="Z" unicode="Z" horiz-adv-x="530" 
d="M72 18h418v-18h-440v18l409 664h-399v18h420v-18z" />
    <glyph glyph-name="bracketleft" unicode="[" horiz-adv-x="270" 
d="M250 781h-160v-862h160v-19h-180v900h180v-19z" />
    <glyph glyph-name="backslash" unicode="\" horiz-adv-x="520" 
d="M450 -100l-400 900h20l400 -900h-20z" />
    <glyph glyph-name="bracketright" unicode="]" horiz-adv-x="270" 
d="M200 800v-900h-180v19h160v862h-160v19h180z" />
    <glyph glyph-name="asciicircum" unicode="^" horiz-adv-x="506" 
d="M261 700l175 -300h-22l-161 276l-161 -276h-22l175 300h16z" />
    <glyph glyph-name="underscore" unicode="_" horiz-adv-x="480" 
d="M40 -118v18h400v-18h-400z" />
    <glyph glyph-name="grave" unicode="`" horiz-adv-x="141" 
d="M121 570l-80 120h-21l84 -120h17z" />
    <glyph glyph-name="a" unicode="a" horiz-adv-x="662" 
d="M552 500h20v-500h-20v153q-29 -74 -94 -118.5t-147 -44.5q-109 0 -185 75t-76 185t76 185t185 75q82 0 147 -44.5t94 -118.5v153zM311 8q101 0 171 70t70 172t-70 172t-171 70t-171 -70t-70 -172t70 -172t171 -70z" />
    <glyph glyph-name="b" unicode="b" horiz-adv-x="662" 
d="M351 510q109 0 185 -75t76 -185t-76 -185t-185 -75q-83 0 -148.5 46t-92.5 121v-157h-20v700h20v-357q27 75 92.5 121t148.5 46zM351 8q101 0 171 70t70 172t-70 172t-171 70t-171 -70t-70 -172t70 -172t171 -70z" />
    <glyph glyph-name="c" unicode="c" horiz-adv-x="579" 
d="M311 -10q-111 0 -186 75t-75 185t75 185t186 75q73 0 131.5 -33t86.5 -89l-16 -10q-26 52 -80 83t-122 31q-104 0 -172.5 -69.5t-68.5 -172.5t68.5 -172.5t172.5 -69.5q68 0 121.5 31t80.5 83l16 -10q-28 -56 -86.5 -89t-131.5 -33z" />
    <glyph glyph-name="d" unicode="d" horiz-adv-x="662" 
d="M552 700h20v-700h-20v157q-27 -75 -92.5 -121t-148.5 -46q-109 0 -185 75t-76 185t76 185t185 75q83 0 148.5 -46t92.5 -121v357zM311 8q101 0 171 70t70 172t-70 172t-171 70t-171 -70t-70 -172t70 -172t171 -70z" />
    <glyph glyph-name="e" unicode="e" horiz-adv-x="599" 
d="M303 510q109 0 177.5 -77.5t68.5 -184.5v-10h-479q4 -102 71.5 -166t165.5 -64q66 0 118.5 28t77.5 75l17 -10q-29 -51 -85.5 -81t-127.5 -30q-111 0 -184 73.5t-73 186.5q0 111 71.5 185.5t181.5 74.5zM70 256h461q-6 105 -70.5 170.5t-157.5 65.5q-98 0 -164.5 -66.5
t-68.5 -169.5z" />
    <glyph glyph-name="f" unicode="f" horiz-adv-x="299" 
d="M299 692q-159 13 -159 -152v-40h159v-18h-159v-482h-20v482h-90v18h90v40q0 86 44.5 131.5t134.5 38.5v-18z" />
    <glyph glyph-name="g" unicode="g" horiz-adv-x="672" 
d="M562 500h20v-469q0 -111 -65 -176t-181 -65q-86 0 -147.5 33.5t-85.5 84.5l16 9q22 -46 79 -77.5t138 -31.5q107 0 166.5 60t59.5 163v126q-27 -75 -92.5 -121t-148.5 -46q-109 0 -185 75t-76 185t76 185t185 75q83 0 148.5 -46t92.5 -121v157zM321 8q101 0 171 70
t70 172t-70 172t-171 70t-171 -70t-70 -172t70 -172t171 -70z" />
    <glyph glyph-name="h" unicode="h" horiz-adv-x="575" 
d="M310 510q85 0 137.5 -53t52.5 -139v-318h-20v318q0 76 -46 125t-125 49q-88 0 -143.5 -61.5t-55.5 -162.5v-268h-20v700h20v-337q20 71 74.5 109t125.5 38z" />
    <glyph glyph-name="i" unicode="i" horiz-adv-x="200" 
d="M100 651q-10 0 -16.5 7t-6.5 16t6.5 16t16.5 7t16.5 -7t6.5 -16t-6.5 -16t-16.5 -7zM90 0v500h20v-500h-20z" />
    <glyph glyph-name="j" unicode="j" horiz-adv-x="209" 
d="M109 697q10 0 16.5 -7t6.5 -16t-6.5 -16t-16.5 -7t-16.5 7t-6.5 16t6.5 16t16.5 7zM99 -90v590h20v-590q0 -62 -35.5 -94.5t-103.5 -25.5v18q119 -13 119 102z" />
    <glyph glyph-name="k" unicode="k" horiz-adv-x="461" 
d="M431 0h-28l-293 254v-254h-20v700h20v-434l283 234h28l-290 -240z" />
    <glyph glyph-name="l" unicode="l" horiz-adv-x="200" 
d="M90 0v730h20v-730h-20z" />
    <glyph glyph-name="m" unicode="m" horiz-adv-x="875" 
d="M627 510q77 0 125 -46.5t48 -136.5v-327h-20v327q0 79 -41.5 122t-111.5 43q-76 0 -124 -55.5t-48 -154.5v-282h-20v327q0 79 -40.5 122t-108.5 43q-78 0 -127 -55.5t-49 -154.5v-282h-20v500h20v-121q19 66 66.5 98.5t109.5 32.5q64 0 108.5 -34.5t56.5 -101.5
q19 68 67.5 102t108.5 34z" />
    <glyph glyph-name="n" unicode="n" horiz-adv-x="575" 
d="M310 510q85 0 137.5 -53t52.5 -139v-318h-20v318q0 76 -46 125t-125 49q-88 0 -143.5 -61.5t-55.5 -162.5v-268h-20v500h20v-137q20 71 74.5 109t125.5 38z" />
    <glyph glyph-name="o" unicode="o" horiz-adv-x="622" 
d="M311 -10q-109 0 -185 75t-76 185t76 185t185 75t185 -75t76 -185t-76 -185t-185 -75zM311 8q101 0 171 70t70 172t-70 172t-171 70t-171 -70t-70 -172t70 -172t171 -70z" />
    <glyph glyph-name="p" unicode="p" horiz-adv-x="662" 
d="M351 510q109 0 185 -75t76 -185t-76 -185t-185 -75q-83 0 -148.5 46t-92.5 121v-357h-20v700h20v-157q27 75 92.5 121t148.5 46zM351 8q101 0 171 70t70 172t-70 172t-171 70t-171 -70t-70 -172t70 -172t171 -70z" />
    <glyph glyph-name="q" unicode="q" horiz-adv-x="662" 
d="M552 500h20v-700h-20v357q-27 -75 -92.5 -121t-148.5 -46q-109 0 -185 75t-76 185t76 185t185 75q83 0 148.5 -46t92.5 -121v157zM311 8q101 0 171 70t70 172t-70 172t-171 70t-171 -70t-70 -172t70 -172t171 -70z" />
    <glyph glyph-name="r" unicode="r" horiz-adv-x="325" 
d="M110 366q18 70 70 105t115 35v-18q-78 0 -131.5 -56t-53.5 -154v-278h-20v500h20v-134z" />
    <glyph glyph-name="s" unicode="s" horiz-adv-x="465" 
d="M90 370q0 -43 33.5 -67t81.5 -34t95.5 -21t81 -40t33.5 -78q0 -59 -49 -99.5t-126 -40.5q-148 0 -185 105l16 9q31 -96 169 -96q68 0 111.5 34.5t43.5 87.5q0 44 -33.5 69t-81 35.5t-95.5 21.5t-81.5 38.5t-33.5 75.5q0 60 45.5 100t122.5 40q58 0 100 -26t60 -70l-16 -9
q-16 40 -54 63.5t-90 23.5q-67 0 -107.5 -34t-40.5 -88z" />
    <glyph glyph-name="t" unicode="t" horiz-adv-x="379" 
d="M329 482h-159v-371q0 -66 36 -86t123 -7v-18q-94 -15 -136.5 11t-42.5 100v371h-120v18h120v134l20 6v-140h159v-18z" />
    <glyph glyph-name="u" unicode="u" horiz-adv-x="575" 
d="M465 500h20v-500h-20v137q-20 -71 -74.5 -109t-125.5 -38q-85 0 -137.5 53t-52.5 139v318h20v-318q0 -76 46 -125t125 -49q88 0 143.5 61.5t55.5 162.5v268z" />
    <glyph glyph-name="v" unicode="v" horiz-adv-x="512" 
d="M471 500h21l-225 -500h-22l-225 500h21l215 -478z" />
    <glyph glyph-name="w" unicode="w" horiz-adv-x="770" 
d="M709 500h21l-164 -500h-22l-159 473l-159 -473h-22l-164 500h21l155 -471l157 471h24l157 -471z" />
    <glyph glyph-name="x" unicode="x" horiz-adv-x="500" 
d="M470 0h-25l-195 241l-195 -241h-25l208 256l-198 244h24l186 -229l186 229h24l-198 -244z" />
    <glyph glyph-name="y" unicode="y" horiz-adv-x="510" 
d="M470 500h20l-219 -546q-30 -74 -81.5 -116.5t-109.5 -37.5v18q52 -4 98 34.5t75 107.5l7 18l-240 522h20l230 -499z" />
    <glyph glyph-name="z" unicode="z" horiz-adv-x="490" 
d="M87 18h353v-18h-380v11l343 471h-333v18h360v-11z" />
    <glyph glyph-name="braceleft" unicode="{" horiz-adv-x="338" 
d="M318 -109q-68 -7 -103.5 25.5t-35.5 94.5v229q0 53 -28.5 77.5t-90.5 24.5v18q62 0 90.5 24.5t28.5 77.5v228q0 62 35.5 94.5t103.5 25.5v-18q-119 13 -119 -102v-228q0 -97 -83 -112q83 -13 83 -110v-229q0 -115 119 -102v-18z" />
    <glyph glyph-name="bar" unicode="|" horiz-adv-x="220" 
d="M100 -200v920h20v-920h-20z" />
    <glyph glyph-name="braceright" unicode="}" horiz-adv-x="338" 
d="M20 -109v18q119 -13 119 102v229q0 97 83 110q-83 15 -83 112v228q0 115 -119 102v18q68 7 103.5 -25.5t35.5 -94.5v-228q0 -53 28.5 -77.5t90.5 -24.5v-18q-62 0 -90.5 -24.5t-28.5 -77.5v-229q0 -62 -35.5 -94.5t-103.5 -25.5z" />
    <glyph glyph-name="asciitilde" unicode="~" horiz-adv-x="572" 
d="M484 404l18 -8q-4 -16 -11.5 -32.5t-25.5 -35.5t-41 -27.5t-61 0.5t-82 41q-49 35 -87 41t-59 -11.5t-31.5 -36t-15.5 -39.5l-18 8q4 16 11.5 32.5t25.5 35.5t41 27t60.5 -1t82.5 -40q49 -35 87 -41t59 11.5t31.5 36t15.5 39.5z" />
    <glyph glyph-name="exclamdown" unicode="&#xa1;" horiz-adv-x="200" 
d="M100 510q10 0 17.5 -7t7.5 -18t-7.5 -18t-17.5 -7t-17.5 7t-7.5 18t7.5 18t17.5 7zM90 340h20v-540h-20v540z" />
    <glyph glyph-name="cent" unicode="&#xa2;" horiz-adv-x="579" 
d="M311 108q68 0 121.5 31t80.5 83l16 -10q-28 -56 -86.5 -89t-131.5 -33q-45 0 -83 13l-35 -103h-20l37 109q-73 29 -116.5 94t-43.5 147q0 110 75 185t186 75q28 0 65 -7l33 97h20l-35 -102q95 -30 135 -110l-16 -10q-38 76 -124 102l-156 -460q36 -12 78 -12zM70 350
q0 -76 40 -136.5t106 -87.5l154 459q-25 7 -59 7q-104 0 -172.5 -69.5t-68.5 -172.5z" />
    <glyph glyph-name="sterling" unicode="&#xa3;" horiz-adv-x="600" 
d="M180 18h400v-18h-530v18h110v283h-90v18h90v206q0 82 55.5 133.5t139.5 51.5q133 0 178 -123l-16 -10q-39 115 -162 115q-80 0 -127.5 -47.5t-47.5 -119.5v-206h260v-18h-260v-283z" />
    <glyph glyph-name="currency" unicode="&#xa4;" horiz-adv-x="554" 
d="M488 350q0 -82 -55 -142l71 -72l-14 -12l-71 70q-59 -54 -142 -54t-143 54l-70 -70l-14 12l71 71q-55 60 -55 143t55 143l-71 71l14 12l71 -70q59 54 142 54t143 -54l70 70l14 -12l-71 -71q55 -60 55 -143zM86 350q0 -81 55.5 -136.5t135.5 -55.5t135.5 55.5t55.5 136.5
t-55.5 136.5t-135.5 55.5t-135.5 -55.5t-55.5 -136.5z" />
    <glyph glyph-name="yen" unicode="&#xa5;" horiz-adv-x="560" 
d="M550 700l-230 -363h166v-18h-178l-18 -29v-81h196v-18h-196v-191h-20v191h-194v18h194v81l-18 29h-176v18h164l-230 363h22l229 -363h38l229 363h22zM280 307l8 12h-16z" />
    <glyph glyph-name="brokenbar" unicode="&#xa6;" horiz-adv-x="220" 
d="M100 350v370h20v-370h-20zM100 -200v370h20v-370h-20z" />
    <glyph glyph-name="section" unicode="&#xa7;" horiz-adv-x="505" 
d="M386 135q49 -42 49 -104t-48 -102.5t-127 -40.5q-145 0 -186 125l16 10q37 -117 170 -117q69 0 112 34.5t43 90.5q0 30 -13 54t-40.5 43.5t-51.5 32t-65 30.5q-94 41 -125 65q-50 40 -50 94q0 73 69 113q-49 41 -49 101q0 63 46.5 104.5t121.5 41.5q61 0 106.5 -28.5
t66.5 -82.5l-16 -9q-41 102 -157 102q-66 0 -107 -36.5t-41 -91.5q0 -68 77 -112q20 -11 98 -45q44 -19 63 -28.5t50 -30t44 -45t13 -55.5q0 -73 -69 -113zM90 350q0 -27 12.5 -49t40 -39.5t49 -28t61.5 -26.5q79 -31 117 -59q31 16 48 42.5t17 57.5q0 27 -12 48.5
t-38.5 39.5t-47 28t-60.5 27q-89 37 -122 60q-65 -35 -65 -101z" />
    <glyph glyph-name="dieresis" unicode="&#xa8;" horiz-adv-x="240" 
d="M40 580q-8 0 -14 6t-6 14t6 14t14 6t14 -6t6 -14t-6 -14t-14 -6zM200 580q-8 0 -14 6t-6 14t6 14t14 6t14 -6t6 -14t-6 -14t-14 -6z" />
    <glyph glyph-name="copyright" unicode="&#xa9;" horiz-adv-x="844" 
d="M422 -10q-150 0 -256 105t-106 255t106 255t256 105t256 -105t106 -255t-106 -255t-256 -105zM422 8q142 0 242 100t100 242t-100 242t-242 100t-242 -100t-100 -242t100 -242t242 -100zM425 158q-84 0 -139 55.5t-55 136.5t55 136.5t139 55.5q54 0 96.5 -25t65.5 -68
l-17 -9q-20 39 -58 61.5t-87 22.5q-75 0 -124.5 -50.5t-49.5 -123.5t49.5 -123.5t124.5 -50.5q49 0 87 22.5t58 61.5l17 -9q-22 -43 -65 -68t-97 -25z" />
    <glyph glyph-name="guillemotleft" unicode="&#xab;" horiz-adv-x="424" 
d="M222 469l-100 -160l100 -160h-22l-100 160l100 160h22zM324 469l-100 -160l100 -160h-22l-100 160l100 160h22z" />
    <glyph glyph-name="logicalnot" unicode="&#xac;" horiz-adv-x="520" 
d="M70 382h380v-160h-20v142h-360v18z" />
    <glyph glyph-name="registered" unicode="&#xae;" horiz-adv-x="844" 
d="M422 710q150 0 256 -105t106 -255t-106 -255t-256 -105t-256 105t-106 255t106 255t256 105zM422 8q142 0 242 100t100 242t-100 242t-242 100t-242 -100t-100 -242t100 -242t242 -100zM556 426q0 -89 -90 -106l97 -155h-22l-95 153q-6 -1 -20 -1h-84v-152h-20v370h104
q65 0 97.5 -32.5t32.5 -76.5zM342 335h84q110 0 110 91q0 39 -28.5 65t-81.5 26h-84v-182z" />
    <glyph glyph-name="macron" unicode="&#xaf;" horiz-adv-x="280" 
d="M20 601v16h240v-16h-240z" />
    <glyph glyph-name="degree" unicode="&#xb0;" horiz-adv-x="386" 
d="M193 530q-61 0 -102 41t-41 99t41 99t102 41t102 -41t41 -99q0 -59 -40.5 -99.5t-102.5 -40.5zM193 548q53 0 88 35t35 87t-35.5 87t-87.5 35t-87.5 -35t-35.5 -87t35.5 -87t87.5 -35z" />
    <glyph glyph-name="plusminus" unicode="&#xb1;" horiz-adv-x="520" 
d="M270 419h180v-18h-180v-181h-20v181h-180v18h180v181h20v-181zM70 100v18h380v-18h-380z" />
    <glyph glyph-name="acute" unicode="&#xb4;" horiz-adv-x="141" 
d="M20 570h18l83 120h-21z" />
    <glyph glyph-name="uni00B5" unicode="&#xb5;" horiz-adv-x="610" 
d="M550 18h20v-18h-20q-33 0 -51.5 18.5t-18.5 51.5v67q-20 -71 -74.5 -109t-125.5 -38q-61 0 -105.5 28t-64.5 78v-296h-20v700h20v-318q0 -76 46 -125t125 -49q88 0 143.5 61.5t55.5 162.5v268h20v-430q0 -25 13.5 -38.5t36.5 -13.5z" />
    <glyph glyph-name="paragraph" unicode="&#xb6;" horiz-adv-x="550" 
d="M500 700v-18h-60v-882h-20v882h-170v-882h-20v540q-75 0 -127.5 53t-52.5 127q0 75 52.5 127.5t127.5 52.5h270z" />
    <glyph glyph-name="periodcentered" unicode="&#xb7;" horiz-adv-x="180" 
d="M90 310q-10 0 -17.5 7t-7.5 18t7.5 18t17.5 7t17.5 -7t7.5 -18t-7.5 -18t-17.5 -7z" />
    <glyph glyph-name="cedilla" unicode="&#xb8;" horiz-adv-x="195" 
d="M97 -79q33 3 60.5 -13t27.5 -48q0 -38 -44.5 -55.5t-130.5 -6.5v16q157 -19 157 46q0 52 -88 45v95h18v-79z" />
    <glyph glyph-name="guillemotright" unicode="&#xbb;" horiz-adv-x="424" 
d="M122 469l100 -160l-100 -160h-22l100 160l-100 160h22zM224 469l100 -160l-100 -160h-22l100 160l-100 160h22z" />
    <glyph glyph-name="onequarter" unicode="&#xbc;" horiz-adv-x="844" 
d="M145 300v374l-119 -44l-6 18l135 52h10v-400h-20zM565 700h20l-420 -700h-20zM814 108v-18h-62v-90h-20v90h-227v18l154 292h20l-153 -292h206v121h20v-121h62z" />
    <glyph glyph-name="onehalf" unicode="&#xbd;" horiz-adv-x="831" 
d="M145 300v374l-119 -44l-6 18l135 52h10v-400h-20zM565 700h20l-420 -700h-20zM555 18h236v-18h-266v15l188 180q50 47 50 101q0 40 -28.5 69t-78.5 29q-42 0 -71 -21t-39 -54l-17 9q12 37 45.5 60.5t82.5 23.5q58 0 92 -33.5t34 -82.5q0 -59 -55 -113z" />
    <glyph glyph-name="threequarters" unicode="&#xbe;" horiz-adv-x="942" 
d="M298 412q0 -53 -35.5 -88.5t-98.5 -35.5q-100 0 -129 74l16 9q26 -65 113 -65q55 0 84.5 30.5t29.5 75.5t-29.5 75.5t-84.5 30.5h-3l-9 13l110 151h-217v18h238v-18l-106 -146q57 -4 89 -39t32 -85zM663 700h20l-420 -700h-20zM912 108v-18h-62v-90h-20v90h-227v18
l154 292h20l-153 -292h206v121h20v-121h62z" />
    <glyph glyph-name="questiondown" unicode="&#xbf;" horiz-adv-x="526" 
d="M276 510q10 0 17.5 -7t7.5 -18t-7.5 -18t-17.5 -7t-17.5 7t-7.5 18t7.5 18t17.5 7zM286 340q0 -48 -20 -92.5t-49 -78t-58 -65.5t-49 -69t-20 -75q0 -69 44.5 -110.5t130.5 -41.5q66 0 116.5 32.5t67.5 82.5l17 -9q-20 -55 -76 -89.5t-125 -34.5q-90 0 -142.5 45.5
t-52.5 124.5q0 40 20 78.5t49 70.5t58 65.5t49 76.5t20 89h20z" />
    <glyph glyph-name="Agrave" unicode="&#xc0;" horiz-adv-x="628" 
d="M339 770h-17l-84 120h21zM582 0l-75 191h-386l-75 -191h-21l277 700h24l277 -700h-21zM128 209h372l-186 470z" />
    <glyph glyph-name="Aacute" unicode="&#xc1;" horiz-adv-x="628" 
d="M390 890l-83 -120h-18l80 120h21zM582 0l-75 191h-386l-75 -191h-21l277 700h24l277 -700h-21zM128 209h372l-186 470z" />
    <glyph glyph-name="Acircumflex" unicode="&#xc2;" horiz-adv-x="628" 
d="M312 878l-101 -108h-22l112 120h22l112 -120h-22zM582 0l-75 191h-386l-75 -191h-21l277 700h24l277 -700h-21zM128 209h372l-186 470z" />
    <glyph glyph-name="Atilde" unicode="&#xc3;" horiz-adv-x="628" 
d="M309 826q-47 47 -76.5 34.5t-29.5 -70.5h-17q0 70 40 86.5t93 -38.5q46 -47 76 -34t30 70h17q0 -68 -40.5 -85t-92.5 37zM582 0l-75 191h-386l-75 -191h-21l277 700h24l277 -700h-21zM128 209h372l-186 470z" />
    <glyph glyph-name="Adieresis" unicode="&#xc4;" horiz-adv-x="628" 
d="M234 780q-8 0 -14 6t-6 14t6 14t14 6t14 -6t6 -14t-6 -14t-14 -6zM394 780q-8 0 -14 6t-6 14t6 14t14 6t14 -6t6 -14t-6 -14t-14 -6zM582 0l-75 191h-386l-75 -191h-21l277 700h24l277 -700h-21zM128 209h372l-186 470z" />
    <glyph glyph-name="Aring" unicode="&#xc5;" horiz-adv-x="628" 
d="M582 0l-75 191h-386l-75 -191h-21l273 691q-36 4 -57.5 29t-21.5 60q0 39 26.5 64.5t68.5 25.5q43 0 69 -25.5t26 -64.5q0 -35 -21.5 -60t-57.5 -29l273 -691h-21zM237 780q0 -33 21.5 -53.5t55.5 -20.5t55.5 20.5t21.5 53.5t-21.5 53.5t-55.5 20.5t-55.5 -20.5
t-21.5 -53.5zM128 209h372l-186 470z" />
    <glyph glyph-name="AE" unicode="&#xc6;" horiz-adv-x="858" 
d="M468 18h340v-18h-360v204h-291l-124 -204h-23l428 700h365v-18h-335v-320h310v-18h-310v-326zM168 222h280v458z" />
    <glyph glyph-name="Ccedilla" unicode="&#xc7;" horiz-adv-x="764" 
d="M719 158q-42 -74 -118 -119t-168 -49v-69q33 3 60.5 -13t27.5 -48q0 -38 -44.5 -55.5t-130.5 -6.5v16q157 -19 157 46q0 52 -88 45v85q-153 2 -254 106.5t-101 253.5q0 151 102.5 255.5t257.5 104.5q93 0 171.5 -43.5t122.5 -117.5l-17 -10q-41 70 -115 111.5t-162 41.5
q-147 0 -243.5 -99t-96.5 -243t96.5 -243t243.5 -99q91 0 166.5 43.5t114.5 116.5z" />
    <glyph glyph-name="Egrave" unicode="&#xc8;" horiz-adv-x="540" 
d="M317 770h-17l-84 120h21zM120 18h370v-18h-390v700h385v-18h-365v-320h340v-18h-340v-326z" />
    <glyph glyph-name="Eacute" unicode="&#xc9;" horiz-adv-x="540" 
d="M368 890l-83 -120h-18l80 120h21zM120 18h370v-18h-390v700h385v-18h-365v-320h340v-18h-340v-326z" />
    <glyph glyph-name="Ecircumflex" unicode="&#xca;" horiz-adv-x="540" 
d="M290 878l-101 -108h-22l112 120h22l112 -120h-22zM120 18h370v-18h-390v700h385v-18h-365v-320h340v-18h-340v-326z" />
    <glyph glyph-name="Edieresis" unicode="&#xcb;" horiz-adv-x="540" 
d="M212 780q-8 0 -14 6t-6 14t6 14t14 6t14 -6t6 -14t-6 -14t-14 -6zM372 780q-8 0 -14 6t-6 14t6 14t14 6t14 -6t6 -14t-6 -14t-14 -6zM120 18h370v-18h-390v700h385v-18h-365v-320h340v-18h-340v-326z" />
    <glyph glyph-name="Igrave" unicode="&#xcc;" horiz-adv-x="220" 
d="M135 770l-80 120h-21l84 -120h17zM100 700h20v-700h-20v700z" />
    <glyph glyph-name="Iacute" unicode="&#xcd;" horiz-adv-x="220" 
d="M85 770h18l83 120h-21zM100 700h20v-700h-20v700z" />
    <glyph glyph-name="Icircumflex" unicode="&#xce;" horiz-adv-x="220" 
d="M119 890l112 -120h-22l-101 108l-101 -108h-22l112 120h22zM100 0v700h20v-700h-20z" />
    <glyph glyph-name="Idieresis" unicode="&#xcf;" horiz-adv-x="220" 
d="M30 780q-8 0 -14 6t-6 14t6 14t14 6t14 -6t6 -14t-6 -14t-14 -6zM190 780q-8 0 -14 6t-6 14t6 14t14 6t14 -6t6 -14t-6 -14t-14 -6zM100 700h20v-700h-20v700z" />
    <glyph glyph-name="Eth" unicode="&#xd0;" horiz-adv-x="760" 
d="M370 700q143 0 236.5 -101.5t93.5 -248.5t-93.5 -248.5t-236.5 -101.5h-250v341h-60v18h60v341h250zM370 18q135 0 222.5 96t87.5 236t-87.5 236t-222.5 96h-230v-323h280v-18h-280v-323h230z" />
    <glyph glyph-name="Ntilde" unicode="&#xd1;" horiz-adv-x="700" 
d="M212 790q0 70 40 86.5t93 -38.5q46 -47 76 -34t30 70h17q0 -68 -40.5 -85t-92.5 37q-47 47 -76.5 34.5t-29.5 -70.5h-17zM580 700h20v-700h-20l-460 666v-666h-20v700h20l460 -666v666z" />
    <glyph glyph-name="Ograve" unicode="&#xd2;" horiz-adv-x="840" 
d="M445 770l-80 120h-21l84 -120h17zM420 -10q-149 0 -254.5 105.5t-105.5 254.5t105.5 254.5t254.5 105.5t254.5 -105.5t105.5 -254.5t-105.5 -254.5t-254.5 -105.5zM420 8q141 0 240.5 100t99.5 242t-99.5 242t-240.5 100t-240.5 -100t-99.5 -242t99.5 -242t240.5 -100z
" />
    <glyph glyph-name="Oacute" unicode="&#xd3;" horiz-adv-x="840" 
d="M395 770h18l83 120h-21zM420 -10q-149 0 -254.5 105.5t-105.5 254.5t105.5 254.5t254.5 105.5t254.5 -105.5t105.5 -254.5t-105.5 -254.5t-254.5 -105.5zM420 8q141 0 240.5 100t99.5 242t-99.5 242t-240.5 100t-240.5 -100t-99.5 -242t99.5 -242t240.5 -100z" />
    <glyph glyph-name="Ocircumflex" unicode="&#xd4;" horiz-adv-x="840" 
d="M418 878l-101 -108h-22l112 120h22l112 -120h-22zM420 710q149 0 254.5 -105.5t105.5 -254.5t-105.5 -254.5t-254.5 -105.5t-254.5 105.5t-105.5 254.5t105.5 254.5t254.5 105.5zM420 8q141 0 240.5 100t99.5 242t-99.5 242t-240.5 100t-240.5 -100t-99.5 -242t99.5 -242
t240.5 -100z" />
    <glyph glyph-name="Otilde" unicode="&#xd5;" horiz-adv-x="840" 
d="M292 790q0 70 40 86.5t93 -38.5q46 -47 76 -34t30 70h17q0 -68 -40.5 -85t-92.5 37q-47 47 -76.5 34.5t-29.5 -70.5h-17zM420 -10q-149 0 -254.5 105.5t-105.5 254.5t105.5 254.5t254.5 105.5t254.5 -105.5t105.5 -254.5t-105.5 -254.5t-254.5 -105.5zM420 8
q141 0 240.5 100t99.5 242t-99.5 242t-240.5 100t-240.5 -100t-99.5 -242t99.5 -242t240.5 -100z" />
    <glyph glyph-name="Odieresis" unicode="&#xd6;" horiz-adv-x="840" 
d="M340 780q-8 0 -14 6t-6 14t6 14t14 6t14 -6t6 -14t-6 -14t-14 -6zM500 780q-8 0 -14 6t-6 14t6 14t14 6t14 -6t6 -14t-6 -14t-14 -6zM420 -10q-149 0 -254.5 105.5t-105.5 254.5t105.5 254.5t254.5 105.5t254.5 -105.5t105.5 -254.5t-105.5 -254.5t-254.5 -105.5zM420 8
q141 0 240.5 100t99.5 242t-99.5 242t-240.5 100t-240.5 -100t-99.5 -242t99.5 -242t240.5 -100z" />
    <glyph glyph-name="multiply" unicode="&#xd7;" horiz-adv-x="464" 
d="M394 499l-149 -149l149 -149l-14 -12l-148 148l-148 -148l-14 12l149 149l-149 149l14 12l148 -148l148 148z" />
    <glyph glyph-name="Oslash" unicode="&#xd8;" horiz-adv-x="850" 
d="M671 618q119 -108 119 -268q0 -149 -105.5 -254.5t-254.5 -105.5q-130 0 -228 81l-61 -71l-15 9l63 73q-119 108 -119 268q0 149 105.5 254.5t254.5 105.5q130 0 228 -81l61 71l15 -9zM90 350q0 -74 29.5 -140t81.5 -113l445 518q-95 77 -216 77q-141 0 -240.5 -100
t-99.5 -242zM430 8q141 0 240.5 100t99.5 242q0 74 -29.5 140t-81.5 113l-445 -518q95 -77 216 -77z" />
    <glyph glyph-name="Ugrave" unicode="&#xd9;" horiz-adv-x="680" 
d="M360 770l-80 120h-21l84 -120h17zM340 -10q-115 0 -182.5 65.5t-67.5 169.5v475h20v-475q0 -94 59.5 -155.5t170.5 -61.5t170.5 61.5t59.5 155.5v475h20v-475q0 -104 -67.5 -169.5t-182.5 -65.5z" />
    <glyph glyph-name="Uacute" unicode="&#xda;" horiz-adv-x="680" 
d="M310 770h18l83 120h-21zM340 -10q-115 0 -182.5 65.5t-67.5 169.5v475h20v-475q0 -94 59.5 -155.5t170.5 -61.5t170.5 61.5t59.5 155.5v475h20v-475q0 -104 -67.5 -169.5t-182.5 -65.5z" />
    <glyph glyph-name="Ucircumflex" unicode="&#xdb;" horiz-adv-x="680" 
d="M333 878l-101 -108h-22l112 120h22l112 -120h-22zM570 700h20v-475q0 -104 -67.5 -169.5t-182.5 -65.5t-182.5 65.5t-67.5 169.5v475h20v-475q0 -94 59.5 -155.5t170.5 -61.5t170.5 61.5t59.5 155.5v475z" />
    <glyph glyph-name="Udieresis" unicode="&#xdc;" horiz-adv-x="680" 
d="M255 780q-8 0 -14 6t-6 14t6 14t14 6t14 -6t6 -14t-6 -14t-14 -6zM415 780q-8 0 -14 6t-6 14t6 14t14 6t14 -6t6 -14t-6 -14t-14 -6zM340 -10q-115 0 -182.5 65.5t-67.5 169.5v475h20v-475q0 -94 59.5 -155.5t170.5 -61.5t170.5 61.5t59.5 155.5v475h20v-475
q0 -104 -67.5 -169.5t-182.5 -65.5z" />
    <glyph glyph-name="Yacute" unicode="&#xdd;" horiz-adv-x="560" 
d="M356 890l-83 -120h-18l80 120h21zM550 700l-260 -410v-290h-20v290l-260 410h22l248 -393l248 393h22z" />
    <glyph glyph-name="Thorn" unicode="&#xde;" horiz-adv-x="580" 
d="M315 560q93 0 154 -60t61 -150t-61 -150t-154 -60h-195v-140h-20v700h20v-140h195zM315 158q85 0 140 54.5t55 137.5t-55 137.5t-140 54.5h-195v-384h195z" />
    <glyph glyph-name="germandbls" unicode="&#xdf;" horiz-adv-x="516" 
d="M291 -5v18q82 -4 128.5 31t46.5 97q0 36 -24 73.5t-52 63.5t-52 58t-24 58q0 21 15 42.5t33 37t33 40t15 51.5q0 55 -36 91t-101 36q-78 0 -120.5 -48t-42.5 -127v-517h-20v517q0 90 49.5 141.5t133.5 51.5q75 0 116 -42t41 -103q0 -39 -24.5 -70.5t-49 -55.5t-24.5 -45
q0 -22 24 -51.5t53 -56t53 -66t24 -79.5q0 -70 -52.5 -110t-142.5 -36z" />
    <glyph glyph-name="agrave" unicode="&#xe0;" horiz-adv-x="662" 
d="M335 570h-17l-84 120h21zM552 500h20v-500h-20v153q-29 -74 -94 -118.5t-147 -44.5q-109 0 -185 75t-76 185t76 185t185 75q82 0 147 -44.5t94 -118.5v153zM311 8q101 0 171 70t70 172t-70 172t-171 70t-171 -70t-70 -172t70 -172t171 -70z" />
    <glyph glyph-name="aacute" unicode="&#xe1;" horiz-adv-x="662" 
d="M386 690l-83 -120h-18l80 120h21zM552 500h20v-500h-20v153q-29 -74 -94 -118.5t-147 -44.5q-109 0 -185 75t-76 185t76 185t185 75q82 0 147 -44.5t94 -118.5v153zM311 8q101 0 171 70t70 172t-70 172t-171 70t-171 -70t-70 -172t70 -172t171 -70z" />
    <glyph glyph-name="acircumflex" unicode="&#xe2;" horiz-adv-x="662" 
d="M308 678l-101 -108h-22l112 120h22l112 -120h-22zM552 500h20v-500h-20v153q-29 -74 -94 -118.5t-147 -44.5q-109 0 -185 75t-76 185t76 185t185 75q82 0 147 -44.5t94 -118.5v153zM311 8q101 0 171 70t70 172t-70 172t-171 70t-171 -70t-70 -172t70 -172t171 -70z" />
    <glyph glyph-name="atilde" unicode="&#xe3;" horiz-adv-x="662" 
d="M305 626q-47 47 -76.5 34.5t-29.5 -70.5h-17q0 70 40 86.5t93 -38.5q46 -47 76 -34t30 70h17q0 -68 -40.5 -85t-92.5 37zM552 500h20v-500h-20v153q-29 -74 -94 -118.5t-147 -44.5q-109 0 -185 75t-76 185t76 185t185 75q82 0 147 -44.5t94 -118.5v153zM311 8
q101 0 171 70t70 172t-70 172t-171 70t-171 -70t-70 -172t70 -172t171 -70z" />
    <glyph glyph-name="adieresis" unicode="&#xe4;" horiz-adv-x="662" 
d="M230 580q-8 0 -14 6t-6 14t6 14t14 6t14 -6t6 -14t-6 -14t-14 -6zM390 580q-8 0 -14 6t-6 14t6 14t14 6t14 -6t6 -14t-6 -14t-14 -6zM552 500h20v-500h-20v153q-29 -74 -94 -118.5t-147 -44.5q-109 0 -185 75t-76 185t76 185t185 75q82 0 147 -44.5t94 -118.5v153zM311 8
q101 0 171 70t70 172t-70 172t-171 70t-171 -70t-70 -172t70 -172t171 -70z" />
    <glyph glyph-name="aring" unicode="&#xe5;" horiz-adv-x="662" 
d="M310 560q-42 0 -68.5 25.5t-26.5 64.5t26.5 64.5t68.5 25.5q43 0 69 -25.5t26 -64.5t-26 -64.5t-69 -25.5zM310 724q-34 0 -55.5 -20.5t-21.5 -53.5t21.5 -53.5t55.5 -20.5t55.5 20.5t21.5 53.5t-21.5 53.5t-55.5 20.5zM552 500h20v-500h-20v153q-29 -74 -94 -118.5
t-147 -44.5q-109 0 -185 75t-76 185t76 185t185 75q82 0 147 -44.5t94 -118.5v153zM311 8q101 0 171 70t70 172t-70 172t-171 70t-171 -70t-70 -172t70 -172t171 -70z" />
    <glyph glyph-name="ae" unicode="&#xe6;" horiz-adv-x="1099" 
d="M806 510q112 0 177.5 -77t65.5 -185v-10h-477q4 -102 70.5 -166t167.5 -64q69 0 122 27.5t78 75.5l17 -10q-29 -52 -86 -81.5t-131 -29.5q-87 0 -150 44t-90 119v-153h-18v153q-29 -74 -94 -118.5t-147 -44.5q-109 0 -185 75t-76 185t76 185t185 75q82 0 147 -44.5
t94 -118.5v153h18v-153q26 74 88.5 118.5t147.5 44.5zM311 8q101 0 171 70t70 172t-70 172t-171 70t-171 -70t-70 -172t70 -172t171 -70zM572 256h459q-6 106 -68 171t-157 65q-101 0 -166.5 -66t-67.5 -170z" />
    <glyph glyph-name="ccedilla" unicode="&#xe7;" horiz-adv-x="579" 
d="M311 8q68 0 121.5 31t80.5 83l16 -10q-26 -53 -80 -85.5t-122 -36.5v-69q33 3 60.5 -13t27.5 -48q0 -38 -44.5 -55.5t-130.5 -6.5v16q157 -19 157 46q0 52 -88 45v85q-111 1 -185 75.5t-74 184.5t75 185t186 75q73 0 131.5 -33t86.5 -89l-16 -10q-26 52 -80 83t-122 31
q-104 0 -172.5 -69.5t-68.5 -172.5t68.5 -172.5t172.5 -69.5z" />
    <glyph glyph-name="egrave" unicode="&#xe8;" horiz-adv-x="599" 
d="M322 570h-17l-84 120h21zM303 510q109 0 177.5 -77.5t68.5 -184.5v-10h-479q4 -102 71.5 -166t165.5 -64q66 0 118.5 28t77.5 75l17 -10q-29 -51 -85.5 -81t-127.5 -30q-111 0 -184 73.5t-73 186.5q0 111 71.5 185.5t181.5 74.5zM70 256h461q-6 105 -70.5 170.5
t-157.5 65.5q-98 0 -164.5 -66.5t-68.5 -169.5z" />
    <glyph glyph-name="eacute" unicode="&#xe9;" horiz-adv-x="599" 
d="M373 690l-83 -120h-18l80 120h21zM303 510q109 0 177.5 -77.5t68.5 -184.5v-10h-479q4 -102 71.5 -166t165.5 -64q66 0 118.5 28t77.5 75l17 -10q-29 -51 -85.5 -81t-127.5 -30q-111 0 -184 73.5t-73 186.5q0 111 71.5 185.5t181.5 74.5zM70 256h461q-6 105 -70.5 170.5
t-157.5 65.5q-98 0 -164.5 -66.5t-68.5 -169.5z" />
    <glyph glyph-name="ecircumflex" unicode="&#xea;" horiz-adv-x="599" 
d="M295 678l-101 -108h-22l112 120h22l112 -120h-22zM303 510q109 0 177.5 -77.5t68.5 -184.5v-10h-479q4 -102 71.5 -166t165.5 -64q66 0 118.5 28t77.5 75l17 -10q-29 -51 -85.5 -81t-127.5 -30q-111 0 -184 73.5t-73 186.5q0 111 71.5 185.5t181.5 74.5zM70 256h461
q-6 105 -70.5 170.5t-157.5 65.5q-98 0 -164.5 -66.5t-68.5 -169.5z" />
    <glyph glyph-name="edieresis" unicode="&#xeb;" horiz-adv-x="599" 
d="M217 580q-8 0 -14 6t-6 14t6 14t14 6t14 -6t6 -14t-6 -14t-14 -6zM377 580q-8 0 -14 6t-6 14t6 14t14 6t14 -6t6 -14t-6 -14t-14 -6zM303 510q109 0 177.5 -77.5t68.5 -184.5v-10h-479q4 -102 71.5 -166t165.5 -64q66 0 118.5 28t77.5 75l17 -10q-29 -51 -85.5 -81
t-127.5 -30q-111 0 -184 73.5t-73 186.5q0 111 71.5 185.5t181.5 74.5zM70 256h461q-6 105 -70.5 170.5t-157.5 65.5q-98 0 -164.5 -66.5t-68.5 -169.5z" />
    <glyph glyph-name="igrave" unicode="&#xec;" horiz-adv-x="200" 
d="M116 570l-65 120h-21l68 -120h18zM110 0h-20v500h20v-500z" />
    <glyph glyph-name="iacute" unicode="&#xed;" horiz-adv-x="200" 
d="M80 570h18l68 120h-21zM90 0v500h20v-500h-20z" />
    <glyph glyph-name="icircumflex" unicode="&#xee;" horiz-adv-x="200" 
d="M111 690l82 -120h-22l-71 104l-71 -104h-22l82 120h22zM90 0v500h20v-500h-20z" />
    <glyph glyph-name="idieresis" unicode="&#xef;" horiz-adv-x="200" 
d="M40 580q-8 0 -14 6t-6 14t6 14t14 6t14 -6t6 -14t-6 -14t-14 -6zM160 580q-8 0 -14 6t-6 14t6 14t14 6t14 -6t6 -14t-6 -14t-14 -6zM90 0v500h20v-500h-20z" />
    <glyph glyph-name="eth" unicode="&#xf0;" horiz-adv-x="590" 
d="M494 370q46 -62 46 -140q0 -107 -72 -173.5t-171 -66.5q-100 0 -173.5 66.5t-73.5 173.5q0 101 72 166.5t169 65.5q82 0 140 -37l-132 177l-133 -82v20l123 76l-63 84h22l56 -75l109 67v-20l-99 -61zM297 8q95 0 159 63.5t64 158.5q0 76 -40 129q-37 50 -83 67.5
t-106 17.5q-93 0 -157 -62.5t-64 -151.5q0 -95 65 -158.5t162 -63.5z" />
    <glyph glyph-name="ntilde" unicode="&#xf1;" horiz-adv-x="575" 
d="M290 626q-46 47 -76 34.5t-30 -70.5h-17q0 70 40 86.5t93 -38.5q46 -47 76 -34t30 70h17q0 -68 -40.5 -85t-92.5 37zM310 510q85 0 137.5 -53t52.5 -139v-318h-20v318q0 76 -46 125t-125 49q-88 0 -143.5 -61.5t-55.5 -162.5v-268h-20v500h20v-137q20 71 74.5 109
t125.5 38z" />
    <glyph glyph-name="ograve" unicode="&#xf2;" horiz-adv-x="622" 
d="M328 570l-80 120h-21l84 -120h17zM311 -10q-109 0 -185 75t-76 185t76 185t185 75t185 -75t76 -185t-76 -185t-185 -75zM311 8q101 0 171 70t70 172t-70 172t-171 70t-171 -70t-70 -172t70 -172t171 -70z" />
    <glyph glyph-name="oacute" unicode="&#xf3;" horiz-adv-x="622" 
d="M278 570h18l83 120h-21zM311 -10q-109 0 -185 75t-76 185t76 185t185 75t185 -75t76 -185t-76 -185t-185 -75zM311 8q101 0 171 70t70 172t-70 172t-171 70t-171 -70t-70 -172t70 -172t171 -70z" />
    <glyph glyph-name="ocircumflex" unicode="&#xf4;" horiz-adv-x="622" 
d="M301 678l-101 -108h-22l112 120h22l112 -120h-22zM311 510q109 0 185 -75t76 -185t-76 -185t-185 -75t-185 75t-76 185t76 185t185 75zM311 8q101 0 171 70t70 172t-70 172t-171 70t-171 -70t-70 -172t70 -172t171 -70z" />
    <glyph glyph-name="otilde" unicode="&#xf5;" horiz-adv-x="622" 
d="M175 590q0 70 40 86.5t93 -38.5q46 -47 76 -34t30 70h17q0 -68 -40.5 -85t-92.5 37q-46 47 -76 34.5t-30 -70.5h-17zM311 -10q-109 0 -185 75t-76 185t76 185t185 75t185 -75t76 -185t-76 -185t-185 -75zM311 8q101 0 171 70t70 172t-70 172t-171 70t-171 -70t-70 -172
t70 -172t171 -70z" />
    <glyph glyph-name="odieresis" unicode="&#xf6;" horiz-adv-x="622" 
d="M223 580q-8 0 -14 6t-6 14t6 14t14 6t14 -6t6 -14t-6 -14t-14 -6zM383 580q-8 0 -14 6t-6 14t6 14t14 6t14 -6t6 -14t-6 -14t-14 -6zM311 -10q-109 0 -185 75t-76 185t76 185t185 75t185 -75t76 -185t-76 -185t-185 -75zM311 8q101 0 171 70t70 172t-70 172t-171 70
t-171 -70t-70 -172t70 -172t171 -70z" />
    <glyph glyph-name="divide" unicode="&#xf7;" horiz-adv-x="580" 
d="M290 512q-10 0 -17.5 7t-7.5 18t7.5 18t17.5 7t17.5 -7t7.5 -18t-7.5 -18t-17.5 -7zM70 341v18h440v-18h-440zM290 138q-10 0 -17.5 7t-7.5 18t7.5 18t17.5 7t17.5 -7t7.5 -18t-7.5 -18t-17.5 -7z" />
    <glyph glyph-name="oslash" unicode="&#xf8;" horiz-adv-x="622" 
d="M495 436q77 -75 77 -186q0 -110 -76 -185t-185 -75q-98 0 -171 62l-48 -52l-15 9l50 55q-77 75 -77 186q0 110 76 185t185 75q98 0 171 -62l48 52l15 -9zM70 250q0 -102 70 -172l329 356q-68 58 -158 58q-101 0 -171 -70t-70 -172zM311 8q101 0 171 70t70 172t-70 172
l-329 -356q68 -58 158 -58z" />
    <glyph glyph-name="ugrave" unicode="&#xf9;" horiz-adv-x="575" 
d="M305 570h-17l-84 120h21zM465 500h20v-500h-20v137q-20 -71 -74.5 -109t-125.5 -38q-85 0 -137.5 53t-52.5 139v318h20v-318q0 -76 46 -125t125 -49q88 0 143.5 61.5t55.5 162.5v268z" />
    <glyph glyph-name="uacute" unicode="&#xfa;" horiz-adv-x="575" 
d="M356 690l-83 -120h-18l80 120h21zM465 500h20v-500h-20v137q-20 -71 -74.5 -109t-125.5 -38q-85 0 -137.5 53t-52.5 139v318h20v-318q0 -76 46 -125t125 -49q88 0 143.5 61.5t55.5 162.5v268z" />
    <glyph glyph-name="ucircumflex" unicode="&#xfb;" horiz-adv-x="575" 
d="M278 678l-101 -108h-22l112 120h22l112 -120h-22zM465 500h20v-500h-20v137q-20 -71 -74.5 -109t-125.5 -38q-85 0 -137.5 53t-52.5 139v318h20v-318q0 -76 46 -125t125 -49q88 0 143.5 61.5t55.5 162.5v268z" />
    <glyph glyph-name="udieresis" unicode="&#xfc;" horiz-adv-x="575" 
d="M200 580q-8 0 -14 6t-6 14t6 14t14 6t14 -6t6 -14t-6 -14t-14 -6zM360 580q-8 0 -14 6t-6 14t6 14t14 6t14 -6t6 -14t-6 -14t-14 -6zM465 500h20v-500h-20v137q-20 -71 -74.5 -109t-125.5 -38q-85 0 -137.5 53t-52.5 139v318h20v-318q0 -76 46 -125t125 -49
q88 0 143.5 61.5t55.5 162.5v268z" />
    <glyph glyph-name="yacute" unicode="&#xfd;" horiz-adv-x="510" 
d="M344 690l-83 -120h-18l80 120h21zM470 500h20l-219 -546q-30 -74 -81.5 -116.5t-109.5 -37.5v18q52 -4 98 34.5t75 107.5l7 18l-240 522h20l230 -499z" />
    <glyph glyph-name="thorn" unicode="&#xfe;" horiz-adv-x="662" 
d="M351 510q109 0 185 -75t76 -185t-76 -185t-185 -75q-83 0 -148.5 46t-92.5 121v-357h-20v900h20v-357q27 75 92.5 121t148.5 46zM351 8q101 0 171 70t70 172t-70 172t-171 70t-171 -70t-70 -172t70 -172t171 -70z" />
    <glyph glyph-name="ydieresis" unicode="&#xff;" horiz-adv-x="510" 
d="M188 580q-8 0 -14 6t-6 14t6 14t14 6t14 -6t6 -14t-6 -14t-14 -6zM348 580q-8 0 -14 6t-6 14t6 14t14 6t14 -6t6 -14t-6 -14t-14 -6zM470 500h20l-219 -546q-30 -74 -81.5 -116.5t-109.5 -37.5v18q52 -4 98 34.5t75 107.5l7 18l-240 522h20l230 -499z" />
    <glyph glyph-name="Amacron" unicode="&#x100;" horiz-adv-x="628" 
d="M434 817v-16h-240v16h240zM582 0l-75 191h-386l-75 -191h-21l277 700h24l277 -700h-21zM128 209h372l-186 470z" />
    <glyph glyph-name="amacron" unicode="&#x101;" horiz-adv-x="662" 
d="M430 617v-16h-240v16h240zM552 500h20v-500h-20v153q-29 -74 -94 -118.5t-147 -44.5q-109 0 -185 75t-76 185t76 185t185 75q82 0 147 -44.5t94 -118.5v153zM311 8q101 0 171 70t70 172t-70 172t-171 70t-171 -70t-70 -172t70 -172t171 -70z" />
    <glyph glyph-name="Abreve" unicode="&#x102;" horiz-adv-x="628" 
d="M314 772q-54 0 -87 29t-33 76h18q0 -40 28 -64.5t74 -24.5t74 24.5t28 64.5h18q0 -47 -33 -76t-87 -29zM582 0l-75 191h-386l-75 -191h-21l277 700h24l277 -700h-21zM128 209h372l-186 470z" />
    <glyph glyph-name="abreve" unicode="&#x103;" horiz-adv-x="662" 
d="M310 572q-54 0 -87 29t-33 76h18q0 -40 28 -64.5t74 -24.5t74 24.5t28 64.5h18q0 -47 -33 -76t-87 -29zM552 500h20v-500h-20v153q-29 -74 -94 -118.5t-147 -44.5q-109 0 -185 75t-76 185t76 185t185 75q82 0 147 -44.5t94 -118.5v153zM311 8q101 0 171 70t70 172
t-70 172t-171 70t-171 -70t-70 -172t70 -172t171 -70z" />
    <glyph glyph-name="Aogonek" unicode="&#x104;" horiz-adv-x="628" 
d="M506 -144q0 -23 14.5 -36.5t37.5 -13.5q29 0 45 8v-16q-15 -8 -45 -8q-32 0 -51 18t-19 48q0 66 92 149l-73 186h-386l-75 -191h-21l277 700h24l277 -700q-97 -83 -97 -144zM128 209h372l-186 470z" />
    <glyph glyph-name="aogonek" unicode="&#x105;" horiz-adv-x="662" 
d="M572 0q-97 -83 -97 -144q0 -23 14.5 -36.5t37.5 -13.5q26 0 45 8v-16q-17 -8 -45 -8q-32 0 -51 18t-19 48q0 70 95 149v148q-29 -74 -94 -118.5t-147 -44.5q-109 0 -185 75t-76 185t76 185t185 75q82 0 147 -44.5t94 -118.5v153h20v-500zM311 8q101 0 171 70t70 172
t-70 172t-171 70t-171 -70t-70 -172t70 -172t171 -70z" />
    <glyph glyph-name="Cacute" unicode="&#x106;" horiz-adv-x="764" 
d="M395 770h18l83 120h-21zM420 -10q-155 0 -257.5 104.5t-102.5 255.5t102.5 255.5t257.5 104.5q93 0 171.5 -43.5t122.5 -117.5l-17 -10q-41 70 -115 111.5t-162 41.5q-147 0 -243.5 -99t-96.5 -243t96.5 -243t243.5 -99q91 0 166.5 43.5t114.5 116.5l18 -10
q-43 -77 -123 -122.5t-176 -45.5z" />
    <glyph glyph-name="cacute" unicode="&#x107;" horiz-adv-x="579" 
d="M287 570h18l83 120h-21zM311 -10q-111 0 -186 75t-75 185t75 185t186 75q73 0 131.5 -33t86.5 -89l-16 -10q-26 52 -80 83t-122 31q-104 0 -172.5 -69.5t-68.5 -172.5t68.5 -172.5t172.5 -69.5q68 0 121.5 31t80.5 83l16 -10q-28 -56 -86.5 -89t-131.5 -33z" />
    <glyph glyph-name="Cdotaccent" unicode="&#x10a;" horiz-adv-x="764" 
d="M420 780q-13 0 -21.5 8.5t-8.5 21.5t8.5 21.5t21.5 8.5t21.5 -8.5t8.5 -21.5t-8.5 -21.5t-21.5 -8.5zM420 -10q-155 0 -257.5 104.5t-102.5 255.5t102.5 255.5t257.5 104.5q93 0 171.5 -43.5t122.5 -117.5l-17 -10q-41 70 -115 111.5t-162 41.5q-147 0 -243.5 -99
t-96.5 -243t96.5 -243t243.5 -99q91 0 166.5 43.5t114.5 116.5l18 -10q-43 -77 -123 -122.5t-176 -45.5z" />
    <glyph glyph-name="cdotaccent" unicode="&#x10b;" horiz-adv-x="579" 
d="M312 580q-13 0 -21.5 8.5t-8.5 21.5t8.5 21.5t21.5 8.5t21.5 -8.5t8.5 -21.5t-8.5 -21.5t-21.5 -8.5zM311 -10q-111 0 -186 75t-75 185t75 185t186 75q73 0 131.5 -33t86.5 -89l-16 -10q-26 52 -80 83t-122 31q-104 0 -172.5 -69.5t-68.5 -172.5t68.5 -172.5t172.5 -69.5
q68 0 121.5 31t80.5 83l16 -10q-28 -56 -86.5 -89t-131.5 -33z" />
    <glyph glyph-name="Ccaron" unicode="&#x10c;" horiz-adv-x="764" 
d="M430 770h-22l-112 120h22l101 -108l101 108h22zM701 168l18 -10q-43 -77 -123 -122.5t-176 -45.5q-155 0 -257.5 104.5t-102.5 255.5t102.5 255.5t257.5 104.5q93 0 171.5 -43.5t122.5 -117.5l-17 -10q-41 70 -115 111.5t-162 41.5q-147 0 -243.5 -99t-96.5 -243
t96.5 -243t243.5 -99q91 0 166.5 43.5t114.5 116.5z" />
    <glyph glyph-name="ccaron" unicode="&#x10d;" horiz-adv-x="579" 
d="M322 570h-22l-112 120h22l101 -108l101 108h22zM311 8q68 0 121.5 31t80.5 83l16 -10q-28 -56 -86.5 -89t-131.5 -33q-111 0 -186 75t-75 185t75 185t186 75q73 0 131.5 -33t86.5 -89l-16 -10q-26 52 -80 83t-122 31q-104 0 -172.5 -69.5t-68.5 -172.5t68.5 -172.5
t172.5 -69.5z" />
    <glyph glyph-name="Dcaron" unicode="&#x10e;" horiz-adv-x="740" 
d="M360 770h-22l-112 120h22l101 -108l101 108h22zM350 700q143 0 236.5 -101.5t93.5 -248.5t-93.5 -248.5t-236.5 -101.5h-250v700h250zM350 18q135 0 222.5 96t87.5 236t-87.5 236t-222.5 96h-230v-664h230z" />
    <glyph glyph-name="dcaron" unicode="&#x10f;" horiz-adv-x="686" 
d="M552 343v357h20v-700h-20v157q-27 -75 -92.5 -121t-148.5 -46q-109 0 -185 75t-76 185t76 185t185 75q83 0 148.5 -46t92.5 -121zM666 700h20l-14 -170h-16zM311 8q101 0 171 70t70 172t-70 172t-171 70t-171 -70t-70 -172t70 -172t171 -70z" />
    <glyph glyph-name="Dcroat" unicode="&#x110;" horiz-adv-x="760" 
d="M370 700q143 0 236.5 -101.5t93.5 -248.5t-93.5 -248.5t-236.5 -101.5h-250v341h-60v18h60v341h250zM370 18q135 0 222.5 96t87.5 236t-87.5 236t-222.5 96h-230v-323h280v-18h-280v-323h230z" />
    <glyph glyph-name="dcroat" unicode="&#x111;" horiz-adv-x="666" 
d="M636 612v-17h-64v-595h-20v157q-27 -75 -92.5 -121t-148.5 -46q-109 0 -185 75t-76 185t76 185t185 75q83 0 148.5 -46t92.5 -121v252h-236v17h236v88h20v-88h64zM311 8q101 0 171 70t70 172t-70 172t-171 70t-171 -70t-70 -172t70 -172t171 -70z" />
    <glyph glyph-name="Emacron" unicode="&#x112;" horiz-adv-x="540" 
d="M412 817v-16h-240v16h240zM120 18h370v-18h-390v700h385v-18h-365v-320h340v-18h-340v-326z" />
    <glyph glyph-name="emacron" unicode="&#x113;" horiz-adv-x="599" 
d="M417 617v-16h-240v16h240zM303 510q109 0 177.5 -77.5t68.5 -184.5v-10h-479q4 -102 71.5 -166t165.5 -64q66 0 118.5 28t77.5 75l17 -10q-29 -51 -85.5 -81t-127.5 -30q-111 0 -184 73.5t-73 186.5q0 111 71.5 185.5t181.5 74.5zM70 256h461q-6 105 -70.5 170.5
t-157.5 65.5q-98 0 -164.5 -66.5t-68.5 -169.5z" />
    <glyph glyph-name="Edotaccent" unicode="&#x116;" horiz-adv-x="540" 
d="M292 780q-13 0 -21.5 8.5t-8.5 21.5t8.5 21.5t21.5 8.5t21.5 -8.5t8.5 -21.5t-8.5 -21.5t-21.5 -8.5zM120 18h370v-18h-390v700h385v-18h-365v-320h340v-18h-340v-326z" />
    <glyph glyph-name="edotaccent" unicode="&#x117;" horiz-adv-x="599" 
d="M297 580q-13 0 -21.5 8.5t-8.5 21.5t8.5 21.5t21.5 8.5t21.5 -8.5t8.5 -21.5t-8.5 -21.5t-21.5 -8.5zM303 510q109 0 177.5 -77.5t68.5 -184.5v-10h-479q4 -102 71.5 -166t165.5 -64q66 0 118.5 28t77.5 75l17 -10q-29 -51 -85.5 -81t-127.5 -30q-111 0 -184 73.5
t-73 186.5q0 111 71.5 185.5t181.5 74.5zM70 256h461q-6 105 -70.5 170.5t-157.5 65.5q-98 0 -164.5 -66.5t-68.5 -169.5z" />
    <glyph glyph-name="Eogonek" unicode="&#x118;" horiz-adv-x="542" 
d="M447 -194q26 0 45 8v-16q-17 -8 -45 -8q-33 0 -52.5 17.5t-19.5 48.5q0 68 92 144h-367v700h385v-18h-365v-320h340v-18h-340v-326h370v-18q-97 -83 -97 -144q0 -23 15 -36.5t39 -13.5z" />
    <glyph glyph-name="eogonek" unicode="&#x119;" horiz-adv-x="599" 
d="M303 510q109 0 177.5 -77.5t68.5 -184.5v-10h-479q4 -102 71.5 -166t165.5 -64q66 0 118.5 28t77.5 75l17 -10q-14 -25 -33 -44q-84 -92 -112 -130.5t-28 -70.5q0 -23 15 -36.5t39 -13.5q26 0 45 8v-16q-17 -8 -45 -8q-33 0 -52.5 17.5t-19.5 48.5q0 60 100 161
q-57 -27 -122 -27q-111 0 -184 73.5t-73 186.5q0 111 71.5 185.5t181.5 74.5zM70 256h461q-6 105 -70.5 170.5t-157.5 65.5q-98 0 -164.5 -66.5t-68.5 -169.5z" />
    <glyph glyph-name="Ecaron" unicode="&#x11a;" horiz-adv-x="540" 
d="M302 770h-22l-112 120h22l101 -108l101 108h22zM120 18h370v-18h-390v700h385v-18h-365v-320h340v-18h-340v-326z" />
    <glyph glyph-name="ecaron" unicode="&#x11b;" horiz-adv-x="599" 
d="M307 570h-22l-112 120h22l101 -108l101 108h22zM303 510q109 0 177.5 -77.5t68.5 -184.5v-10h-479q4 -102 71.5 -166t165.5 -64q66 0 118.5 28t77.5 75l17 -10q-29 -51 -85.5 -81t-127.5 -30q-111 0 -184 73.5t-73 186.5q0 111 71.5 185.5t181.5 74.5zM70 256h461
q-6 105 -70.5 170.5t-157.5 65.5q-98 0 -164.5 -66.5t-68.5 -169.5z" />
    <glyph glyph-name="Gbreve" unicode="&#x11e;" horiz-adv-x="820" 
d="M420 772q-54 0 -87 29t-33 76h18q0 -40 28 -64.5t74 -24.5t74 24.5t28 64.5h18q0 -47 -33 -76t-87 -29zM760 313v-10q0 -132 -92 -222.5t-238 -90.5q-162 0 -266 104t-104 256q0 151 102.5 255.5t257.5 104.5q94 0 173.5 -45t122.5 -120l-17 -10q-40 72 -115 114.5
t-164 42.5q-147 0 -243.5 -99t-96.5 -243t98.5 -243t251.5 -99q136 0 222 82.5t89 204.5h-332v18h351z" />
    <glyph glyph-name="gbreve" unicode="&#x11f;" horiz-adv-x="672" 
d="M328 572q-54 0 -87 29t-33 76h18q0 -40 28 -64.5t74 -24.5t74 24.5t28 64.5h18q0 -47 -33 -76t-87 -29zM562 500h20v-469q0 -111 -65 -176t-181 -65q-86 0 -147.5 33.5t-85.5 84.5l16 9q22 -46 79 -77.5t138 -31.5q107 0 166.5 60t59.5 163v126q-27 -75 -92.5 -121
t-148.5 -46q-109 0 -185 75t-76 185t76 185t185 75q83 0 148.5 -46t92.5 -121v157zM321 8q101 0 171 70t70 172t-70 172t-171 70t-171 -70t-70 -172t70 -172t171 -70z" />
    <glyph glyph-name="Gdotaccent" unicode="&#x120;" horiz-adv-x="820" 
d="M420 780q-13 0 -21.5 8.5t-8.5 21.5t8.5 21.5t21.5 8.5t21.5 -8.5t8.5 -21.5t-8.5 -21.5t-21.5 -8.5zM760 313v-10q0 -132 -92 -222.5t-238 -90.5q-162 0 -266 104t-104 256q0 151 102.5 255.5t257.5 104.5q94 0 173.5 -45t122.5 -120l-17 -10q-40 72 -115 114.5
t-164 42.5q-147 0 -243.5 -99t-96.5 -243t98.5 -243t251.5 -99q136 0 222 82.5t89 204.5h-332v18h351z" />
    <glyph glyph-name="gdotaccent" unicode="&#x121;" horiz-adv-x="672" 
d="M328 580q-13 0 -21.5 8.5t-8.5 21.5t8.5 21.5t21.5 8.5t21.5 -8.5t8.5 -21.5t-8.5 -21.5t-21.5 -8.5zM562 500h20v-469q0 -111 -65 -176t-181 -65q-86 0 -147.5 33.5t-85.5 84.5l16 9q22 -46 79 -77.5t138 -31.5q107 0 166.5 60t59.5 163v126q-27 -75 -92.5 -121
t-148.5 -46q-109 0 -185 75t-76 185t76 185t185 75q83 0 148.5 -46t92.5 -121v157zM321 8q101 0 171 70t70 172t-70 172t-171 70t-171 -70t-70 -172t70 -172t171 -70z" />
    <glyph glyph-name="Gcommaaccent" unicode="&#x122;" horiz-adv-x="820" 
d="M760 313v-10q0 -132 -92 -222.5t-238 -90.5q-162 0 -266 104t-104 256q0 151 102.5 255.5t257.5 104.5q94 0 173.5 -45t122.5 -120l-17 -10q-40 72 -115 114.5t-164 42.5q-147 0 -243.5 -99t-96.5 -243t98.5 -243t251.5 -99q136 0 222 82.5t89 204.5h-332v18h351z
M412 -240l10 170h20l-14 -170h-16z" />
    <glyph glyph-name="gcommaaccent" unicode="&#x123;" horiz-adv-x="672" 
d="M339 760l-10 -170h-20l14 170h16zM562 500h20v-469q0 -111 -65 -176t-181 -65q-86 0 -147.5 33.5t-85.5 84.5l16 9q22 -46 79 -77.5t138 -31.5q107 0 166.5 60t59.5 163v126q-27 -75 -92.5 -121t-148.5 -46q-109 0 -185 75t-76 185t76 185t185 75q83 0 148.5 -46
t92.5 -121v157zM321 8q101 0 171 70t70 172t-70 172t-171 70t-171 -70t-70 -172t70 -172t171 -70z" />
    <glyph glyph-name="Hbar" unicode="&#x126;" horiz-adv-x="760" 
d="M700 549v-18h-70v-531h-20v351h-460v-351h-20v531h-70v18h70v151h20v-151h460v151h20v-151h70zM610 369v162h-460v-162h460z" />
    <glyph glyph-name="hbar" unicode="&#x127;" horiz-adv-x="595" 
d="M330 510q85 0 137.5 -53t52.5 -139v-318h-20v318q0 76 -46 125t-125 49q-88 0 -143.5 -61.5t-55.5 -162.5v-268h-20v595h-80v17h80v88h20v-88h180v-17h-180v-232q20 71 74.5 109t125.5 38z" />
    <glyph glyph-name="Imacron" unicode="&#x12a;" horiz-adv-x="220" 
d="M-10 801v16h240v-16h-240zM100 700h20v-700h-20v700z" />
    <glyph glyph-name="imacron" unicode="&#x12b;" horiz-adv-x="200" 
d="M20 601v16h160v-16h-160zM90 0v500h20v-500h-20z" />
    <glyph glyph-name="Iogonek" unicode="&#x12e;" horiz-adv-x="220" 
d="M122 -194q26 0 45 8v-16q-17 -8 -45 -8q-33 0 -52.5 17.5t-19.5 48.5q0 54 50 144v700h20v-700l-8.5 -17t-9 -17.5t-8 -15.5t-7.5 -16.5t-6 -15.5t-5.5 -16t-4 -14.5t-3 -16t-0.5 -15.5q0 -23 15 -36.5t39 -13.5z" />
    <glyph glyph-name="iogonek" unicode="&#x12f;" horiz-adv-x="200" 
d="M100 651q-10 0 -16.5 7t-6.5 16t6.5 16t16.5 7t16.5 -7t6.5 -16t-6.5 -16t-16.5 -7zM112 -194q26 0 45 8v-16q-17 -8 -45 -8q-33 0 -52.5 19.5t-19.5 50.5q0 56 50 145v495h20v-500q-22 -40 -29 -54.5t-15 -39t-8 -46.5q0 -23 15 -38.5t39 -15.5z" />
    <glyph glyph-name="Idotaccent" unicode="&#x130;" horiz-adv-x="220" 
d="M110 780q-13 0 -21.5 8.5t-8.5 21.5t8.5 21.5t21.5 8.5t21.5 -8.5t8.5 -21.5t-8.5 -21.5t-21.5 -8.5zM100 700h20v-700h-20v700z" />
    <glyph glyph-name="dotlessi" unicode="&#x131;" horiz-adv-x="200" 
d="M90 0v500h20v-500h-20z" />
    <glyph glyph-name="Kcommaaccent" unicode="&#x136;" horiz-adv-x="555" 
d="M142 360l403 -360h-27l-398 355v-355h-20v700h20v-335l388 335h27zM299 -240l10 170h20l-14 -170h-16z" />
    <glyph glyph-name="kcommaaccent" unicode="&#x137;" horiz-adv-x="461" 
d="M131 260l300 -260h-28l-293 254v-254h-20v700h20v-434l283 234h28zM237 -240l10 170h20l-14 -170h-16z" />
    <glyph glyph-name="Lacute" unicode="&#x139;" horiz-adv-x="500" 
d="M198 890l-83 -120h-18l80 120h21zM120 18h350v-18h-370v700h20v-682z" />
    <glyph glyph-name="lacute" unicode="&#x13a;" horiz-adv-x="200" 
d="M90 770h18l83 120h-21zM90 0v730h20v-730h-20z" />
    <glyph glyph-name="Lcommaaccent" unicode="&#x13b;" horiz-adv-x="500" 
d="M120 18h350v-18h-370v700h20v-682zM267 -240l10 170h20l-14 -170h-16z" />
    <glyph glyph-name="lcommaaccent" unicode="&#x13c;" horiz-adv-x="200" 
d="M90 0v730h20v-730h-20zM97 -240l14 170h-20l-10 -170h16z" />
    <glyph glyph-name="Lcaron" unicode="&#x13d;" horiz-adv-x="500" 
d="M120 18h350v-18h-370v700h20v-682zM306 700l-14 -170h-16l10 170h20z" />
    <glyph glyph-name="lcaron" unicode="&#x13e;" horiz-adv-x="226" 
d="M90 0v730h20v-730h-20zM212 560l14 170h-20l-10 -170h16z" />
    <glyph glyph-name="Lslash" unicode="&#x141;" horiz-adv-x="510" 
d="M130 18h350v-18h-370v260l-60 -35v20l60 35v420h20v-408l210 124v-20l-210 -124v-254z" />
    <glyph glyph-name="lslash" unicode="&#x142;" horiz-adv-x="240" 
d="M220 440v-21l-90 -62v-357h-20v344l-90 -62v21l90 62v365h20v-352z" />
    <glyph glyph-name="Nacute" unicode="&#x143;" horiz-adv-x="700" 
d="M315 770h18l83 120h-21zM580 700h20v-700h-20l-460 666v-666h-20v700h20l460 -666v666z" />
    <glyph glyph-name="nacute" unicode="&#x144;" horiz-adv-x="575" 
d="M371 690l-83 -120h-18l80 120h21zM310 510q85 0 137.5 -53t52.5 -139v-318h-20v318q0 76 -46 125t-125 49q-88 0 -143.5 -61.5t-55.5 -162.5v-268h-20v500h20v-137q20 71 74.5 109t125.5 38z" />
    <glyph glyph-name="Ncommaaccent" unicode="&#x145;" horiz-adv-x="700" 
d="M580 700h20v-700h-20l-460 666v-666h-20v700h20l460 -666v666zM338 -240l14 170h-20l-10 -170h16z" />
    <glyph glyph-name="ncommaaccent" unicode="&#x146;" horiz-adv-x="575" 
d="M310 510q85 0 137.5 -53t52.5 -139v-318h-20v318q0 76 -46 125t-125 49q-88 0 -143.5 -61.5t-55.5 -162.5v-268h-20v500h20v-137q20 71 74.5 109t125.5 38zM280 -240l10 170h20l-14 -170h-16z" />
    <glyph glyph-name="Ncaron" unicode="&#x147;" horiz-adv-x="700" 
d="M350 770h-22l-112 120h22l101 -108l101 108h22zM580 700h20v-700h-20l-460 666v-666h-20v700h20l460 -666v666z" />
    <glyph glyph-name="ncaron" unicode="&#x148;" horiz-adv-x="575" 
d="M305 570h-22l-112 120h22l101 -108l101 108h22zM310 510q85 0 137.5 -53t52.5 -139v-318h-20v318q0 76 -46 125t-125 49q-88 0 -143.5 -61.5t-55.5 -162.5v-268h-20v500h20v-137q20 71 74.5 109t125.5 38z" />
    <glyph glyph-name="Eng" unicode="&#x14a;" horiz-adv-x="700" 
d="M580 700h20v-700q0 -106 -50 -153t-145 -47v18q91 0 133 43.5t42 138.5l-460 666v-666h-20v700h20l460 -666v666z" />
    <glyph glyph-name="eng" unicode="&#x14b;" horiz-adv-x="575" 
d="M310 510q85 0 137.5 -53t52.5 -139v-408q0 -62 -35.5 -94.5t-103.5 -25.5v18q119 -13 119 102v408q0 76 -46 125t-125 49q-88 0 -143.5 -61.5t-55.5 -162.5v-268h-20v500h20v-137q20 71 74.5 109t125.5 38z" />
    <glyph glyph-name="Omacron" unicode="&#x14c;" horiz-adv-x="840" 
d="M300 801v16h240v-16h-240zM420 -10q-149 0 -254.5 105.5t-105.5 254.5t105.5 254.5t254.5 105.5t254.5 -105.5t105.5 -254.5t-105.5 -254.5t-254.5 -105.5zM420 8q141 0 240.5 100t99.5 242t-99.5 242t-240.5 100t-240.5 -100t-99.5 -242t99.5 -242t240.5 -100z" />
    <glyph glyph-name="omacron" unicode="&#x14d;" horiz-adv-x="622" 
d="M183 601v16h240v-16h-240zM311 -10q-109 0 -185 75t-76 185t76 185t185 75t185 -75t76 -185t-76 -185t-185 -75zM311 8q101 0 171 70t70 172t-70 172t-171 70t-171 -70t-70 -172t70 -172t171 -70z" />
    <glyph glyph-name="Ohungarumlaut" unicode="&#x150;" horiz-adv-x="840" 
d="M310 770h17l74 130h-21zM449 770h17l84 130h-21zM420 -10q-149 0 -254.5 105.5t-105.5 254.5t105.5 254.5t254.5 105.5t254.5 -105.5t105.5 -254.5t-105.5 -254.5t-254.5 -105.5zM420 8q141 0 240.5 100t99.5 242t-99.5 242t-240.5 100t-240.5 -100t-99.5 -242t99.5 -242
t240.5 -100z" />
    <glyph glyph-name="ohungarumlaut" unicode="&#x151;" horiz-adv-x="622" 
d="M193 570h17l74 130h-21zM332 570h17l84 130h-21zM311 -10q-109 0 -185 75t-76 185t76 185t185 75t185 -75t76 -185t-76 -185t-185 -75zM311 8q101 0 171 70t70 172t-70 172t-171 70t-171 -70t-70 -172t70 -172t171 -70z" />
    <glyph glyph-name="OE" unicode="&#x152;" horiz-adv-x="906" 
d="M526 18h330v-18h-350q-45 -10 -96 -10q-154 0 -252 104t-98 256t98 256t252 104q51 0 96 -10h345v-18h-325v-320h300v-18h-300v-326zM506 19v662q-42 11 -96 11q-146 0 -238 -98.5t-92 -243.5t92 -243.5t238 -98.5q54 0 96 11z" />
    <glyph glyph-name="oe" unicode="&#x153;" horiz-adv-x="1096" 
d="M800 510q109 0 177.5 -77.5t68.5 -184.5v-10h-479q4 -102 71.5 -166t165.5 -64q66 0 118.5 28t77.5 75l17 -10q-29 -51 -85.5 -81t-127.5 -30q-92 0 -159.5 52.5t-87.5 139.5q-21 -85 -88.5 -138.5t-157.5 -53.5q-109 0 -185 75t-76 185t76 185t185 75q90 0 157.5 -53.5
t88.5 -138.5q21 85 86.5 138.5t156.5 53.5zM311 8q101 0 168.5 70t67.5 172t-67.5 172t-168.5 70t-171 -70t-70 -172t70 -172t171 -70zM567 256h461q-6 105 -70.5 170.5t-157.5 65.5q-98 0 -164.5 -66.5t-68.5 -169.5z" />
    <glyph glyph-name="Racute" unicode="&#x154;" horiz-adv-x="620" 
d="M396 890l-83 -120h-18l80 120h21zM590 0h-22l-178 301q-6 -1 -20 -1h-250v-300h-20v700h270q82 0 141 -59t59 -141q0 -71 -45.5 -126.5t-114.5 -69.5zM120 318h250q74 0 127 53.5t53 128.5t-53 128.5t-127 53.5h-250v-364z" />
    <glyph glyph-name="racute" unicode="&#x155;" horiz-adv-x="325" 
d="M268 690l-83 -120h-18l80 120h21zM110 366q18 70 70 105t115 35v-18q-78 0 -131.5 -56t-53.5 -154v-278h-20v500h20v-134z" />
    <glyph glyph-name="Rcommaaccent" unicode="&#x156;" horiz-adv-x="620" 
d="M590 0h-22l-178 301q-6 -1 -20 -1h-250v-300h-20v700h270q82 0 141 -59t59 -141q0 -71 -45.5 -126.5t-114.5 -69.5zM120 318h250q74 0 127 53.5t53 128.5t-53 128.5t-127 53.5h-250v-364zM322 -240l10 170h20l-14 -170h-16z" />
    <glyph glyph-name="rcommaaccent" unicode="&#x157;" horiz-adv-x="325" 
d="M110 366q18 70 70 105t115 35v-18q-78 0 -131.5 -56t-53.5 -154v-278h-20v500h20v-134zM80 -240l10 170h20l-14 -170h-16z" />
    <glyph glyph-name="Rcaron" unicode="&#x158;" horiz-adv-x="620" 
d="M330 770h-22l-112 120h22l101 -108l101 108h22zM590 0h-22l-178 301q-6 -1 -20 -1h-250v-300h-20v700h270q82 0 141 -59t59 -141q0 -71 -45.5 -126.5t-114.5 -69.5zM120 318h250q74 0 127 53.5t53 128.5t-53 128.5t-127 53.5h-250v-364z" />
    <glyph glyph-name="rcaron" unicode="&#x159;" horiz-adv-x="325" 
d="M202 570h-22l-112 120h22l101 -108l101 108h22zM110 366q18 70 70 105t115 35v-18q-78 0 -131.5 -56t-53.5 -154v-278h-20v500h20v-134z" />
    <glyph glyph-name="Sacute" unicode="&#x15a;" 
d="M251 770h18l83 120h-21zM302 -10q-97 0 -162 43.5t-85 110.5l17 10q18 -65 78.5 -105.5t151.5 -40.5q97 0 147.5 47.5t50.5 119.5q0 64 -51.5 102.5t-149.5 67.5q-53 15 -87 29t-66 35t-47.5 51t-15.5 69q0 76 57.5 128.5t148.5 52.5q80 0 133.5 -39t77.5 -102l-16 -9
q-51 132 -195 132q-87 0 -136.5 -49t-49.5 -114q0 -29 12 -52.5t27 -38.5t47 -30.5t53.5 -23.5t64.5 -22q105 -34 159 -75t54 -112q0 -83 -58.5 -134t-159.5 -51z" />
    <glyph glyph-name="sacute" unicode="&#x15b;" horiz-adv-x="465" 
d="M306 690l-83 -120h-18l80 120h21zM90 370q0 -43 33.5 -67t81.5 -34t95.5 -21t81 -40t33.5 -78q0 -59 -49 -99.5t-126 -40.5q-148 0 -185 105l16 9q31 -96 169 -96q68 0 111.5 34.5t43.5 87.5q0 44 -33.5 69t-81 35.5t-95.5 21.5t-81.5 38.5t-33.5 75.5q0 60 45.5 100
t122.5 40q58 0 100 -26t60 -70l-16 -9q-16 40 -54 63.5t-90 23.5q-67 0 -107.5 -34t-40.5 -88z" />
    <glyph glyph-name="Scedilla" unicode="&#x15e;" 
d="M302 -10h-5v-69q33 3 60.5 -13t27.5 -48q0 -38 -44.5 -55.5t-130.5 -6.5v16q157 -19 157 46q0 52 -88 45v86q-88 5 -146.5 47.5t-77.5 105.5l17 10q18 -65 78.5 -105.5t151.5 -40.5q97 0 147.5 47.5t50.5 119.5q0 64 -51.5 102.5t-149.5 67.5q-53 15 -87 29t-66 35
t-47.5 51t-15.5 69q0 76 57.5 128.5t148.5 52.5q80 0 133.5 -39t77.5 -102l-16 -9q-51 132 -195 132q-87 0 -136.5 -49t-49.5 -114q0 -29 12 -52.5t27 -38.5t47 -30.5t53.5 -23.5t64.5 -22q105 -34 159 -75t54 -112q0 -83 -58.5 -134t-159.5 -51z" />
    <glyph glyph-name="scedilla" unicode="&#x15f;" horiz-adv-x="465" 
d="M415 130q0 -57 -45 -96.5t-117 -43.5v-69q33 3 60.5 -13t27.5 -48q0 -38 -44.5 -55.5t-130.5 -6.5v16q157 -19 157 46q0 52 -88 45v85q-143 1 -180 105l16 9q31 -96 169 -96q68 0 111.5 34.5t43.5 87.5q0 44 -33.5 69t-81 35.5t-95.5 21.5t-81.5 38.5t-33.5 75.5
q0 60 45.5 100t122.5 40q58 0 100 -26t60 -70l-16 -9q-16 40 -54 63.5t-90 23.5q-67 0 -107.5 -34t-40.5 -88q0 -43 33.5 -67t81.5 -34t95.5 -21t81 -40t33.5 -78z" />
    <glyph glyph-name="Scaron" unicode="&#x160;" 
d="M286 770h-22l-112 120h22l101 -108l101 108h22zM307 362q105 -34 159 -75t54 -112q0 -83 -58.5 -134t-159.5 -51q-97 0 -162 43.5t-85 110.5l17 10q18 -65 78.5 -105.5t151.5 -40.5q97 0 147.5 47.5t50.5 119.5q0 64 -51.5 102.5t-149.5 67.5q-53 15 -87 29t-66 35
t-47.5 51t-15.5 69q0 76 57.5 128.5t148.5 52.5q80 0 133.5 -39t77.5 -102l-16 -9q-51 132 -195 132q-87 0 -136.5 -49t-49.5 -114q0 -29 12 -52.5t27 -38.5t47 -30.5t53.5 -23.5t64.5 -22z" />
    <glyph glyph-name="scaron" unicode="&#x161;" horiz-adv-x="465" 
d="M240 570h-22l-112 120h22l101 -108l101 108h22zM90 370q0 -43 33.5 -67t81.5 -34t95.5 -21t81 -40t33.5 -78q0 -59 -49 -99.5t-126 -40.5q-148 0 -185 105l16 9q31 -96 169 -96q68 0 111.5 34.5t43.5 87.5q0 44 -33.5 69t-81 35.5t-95.5 21.5t-81.5 38.5t-33.5 75.5
q0 60 45.5 100t122.5 40q58 0 100 -26t60 -70l-16 -9q-16 40 -54 63.5t-90 23.5q-67 0 -107.5 -34t-40.5 -88z" />
    <glyph glyph-name="uni0162" unicode="&#x162;" horiz-adv-x="540" 
d="M510 700v-18h-230v-682h-20v682h-230v18h480zM252 -240l10 170h20l-14 -170h-16z" />
    <glyph glyph-name="uni0163" unicode="&#x163;" horiz-adv-x="379" 
d="M329 482h-159v-371q0 -66 36 -86t123 -7v-18q-94 -15 -136.5 11t-42.5 100v371h-120v18h120v134l20 6v-140h159v-18zM218 -240l10 170h20l-14 -170h-16z" />
    <glyph glyph-name="Tcaron" unicode="&#x164;" horiz-adv-x="540" 
d="M280 770h-22l-112 120h22l101 -108l101 108h22zM510 700v-18h-230v-682h-20v682h-230v18h480z" />
    <glyph glyph-name="tcaron" unicode="&#x165;" horiz-adv-x="379" 
d="M266 712l-14 -150h-16l10 150h20zM329 482h-159v-371q0 -66 36 -86t123 -7v-18q-94 -15 -136.5 11t-42.5 100v371h-120v18h120v134l20 6v-140h159v-18z" />
    <glyph glyph-name="Tbar" unicode="&#x166;" horiz-adv-x="540" 
d="M510 682h-230v-323h170v-18h-170v-341h-20v341h-170v18h170v323h-230v18h480v-18z" />
    <glyph glyph-name="tbar" unicode="&#x167;" horiz-adv-x="379" 
d="M329 482h-159v-208h105v-17h-105v-146q0 -66 36 -86t123 -7v-18q-94 -15 -136.5 11t-42.5 100v146h-75v17h75v208h-120v18h120v134l20 6v-140h159v-18z" />
    <glyph glyph-name="Umacron" unicode="&#x16a;" horiz-adv-x="680" 
d="M215 801v16h240v-16h-240zM340 -10q-115 0 -182.5 65.5t-67.5 169.5v475h20v-475q0 -94 59.5 -155.5t170.5 -61.5t170.5 61.5t59.5 155.5v475h20v-475q0 -104 -67.5 -169.5t-182.5 -65.5z" />
    <glyph glyph-name="umacron" unicode="&#x16b;" horiz-adv-x="575" 
d="M400 617v-16h-240v16h240zM465 500h20v-500h-20v137q-20 -71 -74.5 -109t-125.5 -38q-85 0 -137.5 53t-52.5 139v318h20v-318q0 -76 46 -125t125 -49q88 0 143.5 61.5t55.5 162.5v268z" />
    <glyph glyph-name="Uring" unicode="&#x16e;" horiz-adv-x="680" 
d="M335 720q-42 0 -68.5 25.5t-26.5 64.5t26.5 64.5t68.5 25.5q43 0 69 -25.5t26 -64.5t-26 -64.5t-69 -25.5zM335 736q34 0 55.5 20.5t21.5 53.5t-21.5 53.5t-55.5 20.5t-55.5 -20.5t-21.5 -53.5t21.5 -53.5t55.5 -20.5zM340 -10q-115 0 -182.5 65.5t-67.5 169.5v475h20
v-475q0 -94 59.5 -155.5t170.5 -61.5t170.5 61.5t59.5 155.5v475h20v-475q0 -104 -67.5 -169.5t-182.5 -65.5z" />
    <glyph glyph-name="uring" unicode="&#x16f;" horiz-adv-x="575" 
d="M280 560q-42 0 -68.5 25.5t-26.5 64.5t26.5 64.5t68.5 25.5q43 0 69 -25.5t26 -64.5t-26 -64.5t-69 -25.5zM280 724q-34 0 -55.5 -20.5t-21.5 -53.5t21.5 -53.5t55.5 -20.5t55.5 20.5t21.5 53.5t-21.5 53.5t-55.5 20.5zM465 500h20v-500h-20v137q-20 -71 -74.5 -109
t-125.5 -38q-85 0 -137.5 53t-52.5 139v318h20v-318q0 -76 46 -125t125 -49q88 0 143.5 61.5t55.5 162.5v268z" />
    <glyph glyph-name="Uhungarumlaut" unicode="&#x170;" horiz-adv-x="680" 
d="M225 770h17l74 130h-21zM364 770h17l84 130h-21zM340 -10q-115 0 -182.5 65.5t-67.5 169.5v475h20v-475q0 -94 59.5 -155.5t170.5 -61.5t170.5 61.5t59.5 155.5v475h20v-475q0 -104 -67.5 -169.5t-182.5 -65.5z" />
    <glyph glyph-name="uhungarumlaut" unicode="&#x171;" horiz-adv-x="575" 
d="M261 700l-74 -130h-17l70 130h21zM410 700l-84 -130h-17l80 130h21zM465 500h20v-500h-20v137q-20 -71 -74.5 -109t-125.5 -38q-85 0 -137.5 53t-52.5 139v318h20v-318q0 -76 46 -125t125 -49q88 0 143.5 61.5t55.5 162.5v268z" />
    <glyph glyph-name="Uogonek" unicode="&#x172;" horiz-adv-x="680" 
d="M570 700h20v-475q0 -119 -86 -185q-86 -74 -114.5 -110t-28.5 -74q0 -23 15 -36.5t39 -13.5q26 0 45 8v-16q-17 -8 -45 -8q-33 0 -52.5 17.5t-19.5 48.5q0 68 101 151q-48 -17 -104 -17q-115 0 -182.5 65.5t-67.5 169.5v475h20v-475q0 -94 59.5 -155.5t170.5 -61.5
t170.5 61.5t59.5 155.5v475z" />
    <glyph glyph-name="uogonek" unicode="&#x173;" horiz-adv-x="575" 
d="M485 0q-97 -83 -97 -144q0 -23 14.5 -36.5t37.5 -13.5q26 0 45 8v-16q-17 -8 -45 -8q-32 0 -51 18t-19 48q0 65 95 149v132q-20 -71 -74.5 -109t-125.5 -38q-85 0 -137.5 53t-52.5 139v318h20v-318q0 -76 46 -125t125 -49q88 0 143.5 61.5t55.5 162.5v268h20v-500z" />
    <glyph glyph-name="Wcircumflex" unicode="&#x174;" horiz-adv-x="980" 
d="M420 878l-101 -108h-22l112 120h22l112 -120h-22zM920 700h20l-203 -700h-24l-223 676l-223 -676h-24l-203 700h20l195 -676l223 676h24l223 -676z" />
    <glyph glyph-name="wcircumflex" unicode="&#x175;" horiz-adv-x="770" 
d="M383 678l-101 -108h-22l112 120h22l112 -120h-22zM709 500h21l-164 -500h-22l-159 473l-159 -473h-22l-164 500h21l155 -471l157 471h24l157 -471z" />
    <glyph glyph-name="Ycircumflex" unicode="&#x176;" horiz-adv-x="560" 
d="M278 878l-101 -108h-22l112 120h22l112 -120h-22zM550 700l-260 -410v-290h-20v290l-260 410h22l248 -393l248 393h22z" />
    <glyph glyph-name="ycircumflex" unicode="&#x177;" horiz-adv-x="510" 
d="M266 678l-101 -108h-22l112 120h22l112 -120h-22zM470 500h20l-219 -546q-30 -74 -81.5 -116.5t-109.5 -37.5v18q52 -4 98 34.5t75 107.5l7 18l-240 522h20l230 -499z" />
    <glyph glyph-name="Ydieresis" unicode="&#x178;" horiz-adv-x="560" 
d="M200 780q-8 0 -14 6t-6 14t6 14t14 6t14 -6t6 -14t-6 -14t-14 -6zM360 780q-8 0 -14 6t-6 14t6 14t14 6t14 -6t6 -14t-6 -14t-14 -6zM550 700l-260 -410v-290h-20v290l-260 410h22l248 -393l248 393h22z" />
    <glyph glyph-name="Zacute" unicode="&#x179;" horiz-adv-x="530" 
d="M346 890l-83 -120h-18l80 120h21zM72 18h418v-18h-440v18l409 664h-399v18h420v-18z" />
    <glyph glyph-name="zacute" unicode="&#x17a;" horiz-adv-x="490" 
d="M326 690l-83 -120h-18l80 120h21zM87 18h353v-18h-380v11l343 471h-333v18h360v-11z" />
    <glyph glyph-name="Zdotaccent" unicode="&#x17b;" horiz-adv-x="530" 
d="M270 780q-13 0 -21.5 8.5t-8.5 21.5t8.5 21.5t21.5 8.5t21.5 -8.5t8.5 -21.5t-8.5 -21.5t-21.5 -8.5zM72 18h418v-18h-440v18l409 664h-399v18h420v-18z" />
    <glyph glyph-name="zdotaccent" unicode="&#x17c;" horiz-adv-x="490" 
d="M250 580q-13 0 -21.5 8.5t-8.5 21.5t8.5 21.5t21.5 8.5t21.5 -8.5t8.5 -21.5t-8.5 -21.5t-21.5 -8.5zM87 18h353v-18h-380v11l343 471h-333v18h360v-11z" />
    <glyph glyph-name="Zcaron" unicode="&#x17d;" horiz-adv-x="530" 
d="M280 770h-22l-112 120h22l101 -108l101 108h22zM72 18h418v-18h-440v18l409 664h-399v18h420v-18z" />
    <glyph glyph-name="zcaron" unicode="&#x17e;" horiz-adv-x="490" 
d="M260 570h-22l-112 120h22l101 -108l101 108h22zM87 18h353v-18h-380v11l343 471h-333v18h360v-11z" />
    <glyph glyph-name="florin" unicode="&#x192;" horiz-adv-x="431" 
d="M264 590q12 70 60.5 101.5t106.5 10.5v-20q-52 23 -94 -4t-53 -92l-39 -226h131v-19h-134l-75 -435q-12 -70 -60.5 -101.5t-106.5 -10.5v20q52 -23 94 4t53 92l74 431h-125v19h128z" />
    <glyph glyph-name="Scommaaccent" unicode="&#x218;" 
d="M302 -10q-97 0 -162 43.5t-85 110.5l17 10q18 -65 78.5 -105.5t151.5 -40.5q97 0 147.5 47.5t50.5 119.5q0 64 -51.5 102.5t-149.5 67.5q-53 15 -87 29t-66 35t-47.5 51t-15.5 69q0 76 57.5 128.5t148.5 52.5q80 0 133.5 -39t77.5 -102l-16 -9q-51 132 -195 132
q-87 0 -136.5 -49t-49.5 -114q0 -29 12 -52.5t27 -38.5t47 -30.5t53.5 -23.5t64.5 -22q105 -34 159 -75t54 -112q0 -83 -58.5 -134t-159.5 -51zM282 -240l14 170h-20l-10 -170h16z" />
    <glyph glyph-name="scommaaccent" unicode="&#x219;" horiz-adv-x="465" 
d="M90 370q0 -43 33.5 -67t81.5 -34t95.5 -21t81 -40t33.5 -78q0 -59 -49 -99.5t-126 -40.5q-148 0 -185 105l16 9q31 -96 169 -96q68 0 111.5 34.5t43.5 87.5q0 44 -33.5 69t-81 35.5t-95.5 21.5t-81.5 38.5t-33.5 75.5q0 60 45.5 100t122.5 40q58 0 100 -26t60 -70l-16 -9
q-16 40 -54 63.5t-90 23.5q-67 0 -107.5 -34t-40.5 -88zM222 -240l10 170h20l-14 -170h-16z" />
    <glyph glyph-name="uni021A" unicode="&#x21a;" horiz-adv-x="540" 
d="M510 700v-18h-230v-682h-20v682h-230v18h480zM252 -240l10 170h20l-14 -170h-16z" />
    <glyph glyph-name="uni021B" unicode="&#x21b;" horiz-adv-x="379" 
d="M329 482h-159v-371q0 -66 36 -86t123 -7v-18q-94 -15 -136.5 11t-42.5 100v371h-120v18h120v134l20 6v-140h159v-18zM218 -240l10 170h20l-14 -170h-16z" />
    <glyph glyph-name="circumflex" unicode="&#x2c6;" horiz-adv-x="286" 
d="M266 570h-22l-101 108l-101 -108h-22l112 120h22z" />
    <glyph glyph-name="caron" unicode="&#x2c7;" horiz-adv-x="286" 
d="M245 690h22l-112 -120h-22l-112 120h22l101 -108z" />
    <glyph glyph-name="breve" unicode="&#x2d8;" horiz-adv-x="280" 
d="M140 572q-54 0 -87 29t-33 76h18q0 -40 28 -64.5t74 -24.5t74 24.5t28 64.5h18q0 -47 -33 -76t-87 -29z" />
    <glyph glyph-name="dotaccent" unicode="&#x2d9;" horiz-adv-x="100" 
d="M50 580q-13 0 -21.5 8.5t-8.5 21.5t8.5 21.5t21.5 8.5t21.5 -8.5t8.5 -21.5t-8.5 -21.5t-21.5 -8.5z" />
    <glyph glyph-name="ring" unicode="&#x2da;" horiz-adv-x="230" 
d="M115 560q-42 0 -68.5 25.5t-26.5 64.5t26.5 64.5t68.5 25.5q43 0 69 -25.5t26 -64.5t-26 -64.5t-69 -25.5zM115 576q34 0 55.5 20.5t21.5 53.5t-21.5 53.5t-55.5 20.5t-55.5 -20.5t-21.5 -53.5t21.5 -53.5t55.5 -20.5z" />
    <glyph glyph-name="ogonek" unicode="&#x2db;" horiz-adv-x="157" 
d="M92 -210q-33 0 -52.5 17.5t-19.5 48.5q0 68 92 144h23q-97 -83 -97 -144q0 -23 15 -36.5t39 -13.5q26 0 45 8v-16q-17 -8 -45 -8z" />
    <glyph glyph-name="tilde" unicode="&#x2dc;" horiz-adv-x="296" 
d="M20 590q0 70 40 86.5t93 -38.5q46 -47 76 -34t30 70h17q0 -68 -40.5 -85t-92.5 37q-47 47 -76.5 34.5t-29.5 -70.5h-17z" />
    <glyph glyph-name="hungarumlaut" unicode="&#x2dd;" horiz-adv-x="280" 
d="M20 570h17l74 130h-21zM159 570h17l84 130h-21z" />
    <glyph glyph-name="gravecomb" unicode="&#x300;" horiz-adv-x="0" 
d="M-20 570l-80 120h-21l84 -120h17z" />
    <glyph glyph-name="acutecomb" unicode="&#x301;" horiz-adv-x="0" 
d="M-121 570h18l83 120h-21z" />
    <glyph glyph-name="uni0302" unicode="&#x302;" horiz-adv-x="0" 
d="M-20 570h-22l-101 108l-101 -108h-22l112 120h22z" />
    <glyph glyph-name="tildecomb" unicode="&#x303;" horiz-adv-x="0" 
d="M-276 590q0 70 40 86.5t93 -38.5q46 -47 76 -34t30 70h17q0 -68 -40.5 -85t-92.5 37q-47 47 -76.5 34.5t-29.5 -70.5h-17z" />
    <glyph glyph-name="uni0304" unicode="&#x304;" horiz-adv-x="0" 
d="M-260 601v16h240v-16h-240z" />
    <glyph glyph-name="uni0306" unicode="&#x306;" horiz-adv-x="0" 
d="M-160 572q-54 0 -87 29t-33 76h18q0 -40 28 -64.5t74 -24.5t74 24.5t28 64.5h18q0 -47 -33 -76t-87 -29z" />
    <glyph glyph-name="uni0307" unicode="&#x307;" horiz-adv-x="0" 
d="M-50 580q-13 0 -21.5 8.5t-8.5 21.5t8.5 21.5t21.5 8.5t21.5 -8.5t8.5 -21.5t-8.5 -21.5t-21.5 -8.5z" />
    <glyph glyph-name="uni0308" unicode="&#x308;" horiz-adv-x="0" 
d="M-200 580q-8 0 -14 6t-6 14t6 14t14 6t14 -6t6 -14t-6 -14t-14 -6zM-40 580q-8 0 -14 6t-6 14t6 14t14 6t14 -6t6 -14t-6 -14t-14 -6z" />
    <glyph glyph-name="uni030A" unicode="&#x30a;" horiz-adv-x="0" 
d="M-115 560q-42 0 -68.5 25.5t-26.5 64.5t26.5 64.5t68.5 25.5q43 0 69 -25.5t26 -64.5t-26 -64.5t-69 -25.5zM-115 576q34 0 55.5 20.5t21.5 53.5t-21.5 53.5t-55.5 20.5t-55.5 -20.5t-21.5 -53.5t21.5 -53.5t55.5 -20.5z" />
    <glyph glyph-name="uni030B" unicode="&#x30b;" horiz-adv-x="0" 
d="M-250 570h17l74 130h-21zM-111 570h17l84 130h-21z" />
    <glyph glyph-name="uni030C" unicode="&#x30c;" horiz-adv-x="0" 
d="M-41 690h22l-112 -120h-22l-112 120h22l101 -108z" />
    <glyph glyph-name="uni0312" unicode="&#x312;" horiz-adv-x="0" 
d="M-36 960l-14 -170h20l10 170h-16z" />
    <glyph glyph-name="uni0326" unicode="&#x326;" horiz-adv-x="0" 
d="M-34 -240l14 170h-20l-10 -170h16z" />
    <glyph glyph-name="uni0327" unicode="&#x327;" horiz-adv-x="0" 
d="M-108 -79q33 3 60.5 -13t27.5 -48q0 -38 -44.5 -55.5t-130.5 -6.5v16q157 -19 157 46q0 52 -88 45v95h18v-79z" />
    <glyph glyph-name="uni0328" unicode="&#x328;" horiz-adv-x="0" 
d="M-65 -210q-33 0 -52.5 17.5t-19.5 48.5q0 68 92 144h23q-97 -83 -97 -144q0 -23 15 -36.5t39 -13.5q26 0 45 8v-16q-17 -8 -45 -8z" />
    <glyph glyph-name="uni0394" unicode="&#x394;" horiz-adv-x="618" 
d="M321 700l277 -700h-578l277 700h24zM48 18h522l-261 661z" />
    <glyph glyph-name="uni03A9" unicode="&#x3a9;" horiz-adv-x="840" 
d="M780 350q0 -112 -63.5 -202.5t-164.5 -129.5h218v-18h-268v18q112 28 185 120.5t73 211.5q0 142 -99.5 242t-240.5 100t-240.5 -100t-99.5 -242q0 -119 73 -211.5t185 -120.5v-18h-268v18h218q-101 39 -164.5 129.5t-63.5 202.5q0 149 105.5 254.5t254.5 105.5
t254.5 -105.5t105.5 -254.5z" />
    <glyph glyph-name="pi" unicode="&#x3c0;" horiz-adv-x="650" 
d="M610 500v-18h-83v-482h-20v482h-360v-482h-20v482h-87v18h570z" />
    <glyph glyph-name="uni0401" unicode="&#x401;" horiz-adv-x="540" 
d="M212 780q-8 0 -14 6t-6 14t6 14t14 6t14 -6t6 -14t-6 -14t-14 -6zM372 780q-8 0 -14 6t-6 14t6 14t14 6t14 -6t6 -14t-6 -14t-14 -6zM120 18h370v-18h-390v700h385v-18h-365v-320h340v-18h-340v-326z" />
    <glyph glyph-name="uni0402" unicode="&#x402;" horiz-adv-x="700" 
d="M455 470q74 0 124.5 -45.5t50.5 -127.5v-182q0 -62 -35.5 -94.5t-103.5 -25.5v18q119 -13 119 102v182q0 71 -44 113t-111 42q-55 0 -98 -13t-97 -40v-399h-20v682h-210v18h480v-18h-250v-264q55 27 96 39.5t99 12.5z" />
    <glyph glyph-name="uni0403" unicode="&#x403;" horiz-adv-x="500" 
d="M352 889l-83 -120h-18l80 120h21zM470 700v-18h-350v-682h-20v700h370z" />
    <glyph glyph-name="uni0404" unicode="&#x404;" horiz-adv-x="764" 
d="M701 168l18 -10q-43 -77 -123 -122.5t-176 -45.5q-155 0 -257.5 104.5t-102.5 255.5t102.5 255.5t257.5 104.5q93 0 171.5 -43.5t122.5 -117.5l-17 -10q-41 70 -115 111.5t-162 41.5q-144 0 -240 -96t-100 -237h418v-18h-418q4 -141 100 -237t240 -96q91 0 166.5 43.5
t114.5 116.5z" />
    <glyph glyph-name="uni0405" unicode="&#x405;" 
d="M302 -10q-97 0 -162 43.5t-85 110.5l17 10q18 -65 78.5 -105.5t151.5 -40.5q97 0 147.5 47.5t50.5 119.5q0 64 -51.5 102.5t-149.5 67.5q-53 15 -87 29t-66 35t-47.5 51t-15.5 69q0 76 57.5 128.5t148.5 52.5q80 0 133.5 -39t77.5 -102l-16 -9q-51 132 -195 132
q-87 0 -136.5 -49t-49.5 -114q0 -29 12 -52.5t27 -38.5t47 -30.5t53.5 -23.5t64.5 -22q105 -34 159 -75t54 -112q0 -83 -58.5 -134t-159.5 -51z" />
    <glyph glyph-name="uni0406" unicode="&#x406;" horiz-adv-x="220" 
d="M100 700h20v-700h-20v700z" />
    <glyph glyph-name="uni0407" unicode="&#x407;" horiz-adv-x="220" 
d="M30 780q-8 0 -14 6t-6 14t6 14t14 6t14 -6t6 -14t-6 -14t-14 -6zM190 780q-8 0 -14 6t-6 14t6 14t14 6t14 -6t6 -14t-6 -14t-14 -6zM100 700h20v-700h-20v700z" />
    <glyph glyph-name="uni0408" unicode="&#x408;" horiz-adv-x="554" 
d="M249 -10q-73 0 -124.5 30t-74.5 83l16 10q44 -105 183 -105q91 0 143 48t52 124v520h20v-520q0 -86 -60 -138t-155 -52z" />
    <glyph glyph-name="uni0409" unicode="&#x409;" horiz-adv-x="995" 
d="M745 380q84 0 142 -54t58 -136t-58 -136t-142 -54h-200v682h-340v-412q0 -138 -44 -208.5t-136 -63.5v18q74 -6 117 53t43 201v430h380v-320h180zM745 18q75 0 127.5 49t52.5 123t-52.5 123t-127.5 49h-180v-344h180z" />
    <glyph glyph-name="uni040A" unicode="&#x40a;" horiz-adv-x="990" 
d="M740 380q84 0 142 -54t58 -136t-58 -136t-142 -54h-200v362h-420v-362h-20v700h20v-320h420v320h20v-320h180zM740 18q75 0 127.5 49t52.5 123t-52.5 123t-127.5 49h-180v-344h180z" />
    <glyph glyph-name="uni040B" unicode="&#x40b;" horiz-adv-x="710" 
d="M455 470q74 0 124.5 -45.5t50.5 -127.5v-297h-20v297q0 71 -44 113t-111 42q-55 0 -98 -13t-97 -40v-399h-20v682h-210v18h480v-18h-250v-264q55 27 96 39.5t99 12.5z" />
    <glyph glyph-name="uni040C" unicode="&#x40c;" horiz-adv-x="555" 
d="M362 889l-83 -120h-18l80 120h21zM545 0h-27l-398 355v-355h-20v700h20v-335l388 335h27l-393 -340z" />
    <glyph glyph-name="uni040E" unicode="&#x40e;" horiz-adv-x="559" 
d="M406 816v-16h-240v16h240zM519 700h20l-233 -547q-70 -163 -193 -153v18q111 -9 175 142l8 19l-256 521h20l246 -498z" />
    <glyph glyph-name="uni040F" unicode="&#x40f;" horiz-adv-x="700" 
d="M580 700h20v-700h-240v-134h-20v134h-240v700h20v-682h460v682z" />
    <glyph glyph-name="uni0410" unicode="&#x410;" horiz-adv-x="628" 
d="M582 0l-75 191h-386l-75 -191h-21l277 700h24l277 -700h-21zM128 209h372l-186 470z" />
    <glyph glyph-name="uni0411" unicode="&#x411;" horiz-adv-x="585" 
d="M340 400q82 0 141 -59t59 -141t-59 -141t-141 -59h-240v700h390v-18h-370v-282h220zM340 18q74 0 127 53.5t53 128.5t-53 128.5t-127 53.5h-220v-364h220z" />
    <glyph glyph-name="uni0412" unicode="&#x412;" horiz-adv-x="630" 
d="M434 360q63 -13 104.5 -62.5t41.5 -114.5q0 -76 -53.5 -129.5t-129.5 -53.5h-297v700h274q73 0 124.5 -52t51.5 -124q0 -56 -32 -101t-84 -63zM374 682h-254v-316h254q64 0 110 46.5t46 111.5t-46 111.5t-110 46.5zM397 18q67 0 115 48.5t48 116.5t-48 116.5t-115 48.5
h-277v-330h277z" />
    <glyph glyph-name="uni0413" unicode="&#x413;" horiz-adv-x="500" 
d="M470 700v-18h-350v-682h-20v700h370z" />
    <glyph glyph-name="uni0414" unicode="&#x414;" horiz-adv-x="690" 
d="M575 18h70v-152h-20v134h-580v-134h-20v152h53q77 79 77 254v428h420v-682zM175 272q0 -170 -71 -254h451v664h-380v-410z" />
    <glyph glyph-name="uni0415" unicode="&#x415;" horiz-adv-x="540" 
d="M120 18h370v-18h-390v700h385v-18h-365v-320h340v-18h-340v-326z" />
    <glyph glyph-name="uni0416" unicode="&#x416;" horiz-adv-x="808" 
d="M788 0h-25l-349 355v-355h-20v355l-349 -355h-25l353 360l-343 340h25l339 -335v335h20v-335l339 335h25l-343 -340z" />
    <glyph glyph-name="uni0417" unicode="&#x417;" horiz-adv-x="540" 
d="M348 359q70 -14 111 -63t41 -116q0 -83 -61.5 -136.5t-161.5 -53.5q-185 0 -237 146l17 9q46 -137 220 -137q92 0 147.5 48.5t55.5 123.5q0 72 -49.5 120t-132.5 48h-77v18h59q80 0 127.5 46t47.5 114q0 72 -51.5 119t-129.5 47q-147 0 -199 -127l-16 9q57 136 215 136
q87 0 144 -52.5t57 -131.5q0 -59 -34 -104t-93 -63z" />
    <glyph glyph-name="uni0418" unicode="&#x418;" horiz-adv-x="700" 
d="M580 0v666l-460 -666h-20v700h20v-666l460 666h20v-700h-20z" />
    <glyph glyph-name="uni0419" unicode="&#x419;" horiz-adv-x="700" 
d="M230 801v16h240v-16h-240zM580 0v666l-460 -666h-20v700h20v-666l460 666h20v-700h-20z" />
    <glyph glyph-name="uni041A" unicode="&#x41a;" horiz-adv-x="555" 
d="M545 0h-27l-398 355v-355h-20v700h20v-335l388 335h27l-393 -340z" />
    <glyph glyph-name="uni041B" unicode="&#x41b;" horiz-adv-x="705" 
d="M25 0v18q74 -7 117 51.5t43 200.5v430h420v-700h-20v682h-380v-412q0 -138 -44 -208t-136 -62z" />
    <glyph glyph-name="uni041C" unicode="&#x41c;" horiz-adv-x="820" 
d="M720 700v-700h-20v673l-286 -464h-8l-286 464v-673h-20v700h26l284 -462l284 462h26z" />
    <glyph glyph-name="uni041D" unicode="&#x41d;" horiz-adv-x="700" 
d="M580 700h20v-700h-20v351h-460v-351h-20v700h20v-331h460v331z" />
    <glyph glyph-name="uni041E" unicode="&#x41e;" horiz-adv-x="840" 
d="M420 -10q-149 0 -254.5 105.5t-105.5 254.5t105.5 254.5t254.5 105.5t254.5 -105.5t105.5 -254.5t-105.5 -254.5t-254.5 -105.5zM420 8q141 0 240.5 100t99.5 242t-99.5 242t-240.5 100t-240.5 -100t-99.5 -242t99.5 -242t240.5 -100z" />
    <glyph glyph-name="uni041F" unicode="&#x41f;" horiz-adv-x="700" 
d="M600 700v-700h-20v682h-460v-682h-20v700h500z" />
    <glyph glyph-name="uni0420" unicode="&#x420;" horiz-adv-x="580" 
d="M315 700q93 0 154 -60t61 -150t-61 -150t-154 -60h-195v-280h-20v700h215zM315 298q85 0 140 54.5t55 137.5t-55 137.5t-140 54.5h-195v-384h195z" />
    <glyph glyph-name="uni0421" unicode="&#x421;" horiz-adv-x="764" 
d="M420 -10q-155 0 -257.5 104.5t-102.5 255.5t102.5 255.5t257.5 104.5q93 0 171.5 -43.5t122.5 -117.5l-17 -10q-41 70 -115 111.5t-162 41.5q-147 0 -243.5 -99t-96.5 -243t96.5 -243t243.5 -99q91 0 166.5 43.5t114.5 116.5l18 -10q-43 -77 -123 -122.5t-176 -45.5z" />
    <glyph glyph-name="uni0422" unicode="&#x422;" horiz-adv-x="540" 
d="M510 700v-18h-230v-682h-20v682h-230v18h480z" />
    <glyph glyph-name="uni0423" unicode="&#x423;" horiz-adv-x="559" 
d="M519 700h20l-233 -547q-70 -163 -193 -153v18q111 -9 175 142l8 19l-256 521h20l246 -498z" />
    <glyph glyph-name="uni0424" unicode="&#x424;" horiz-adv-x="804" 
d="M764 350q0 -128 -98 -199t-254 -73v-78h-20v78q-156 2 -254 73t-98 199t98 199t254 73v78h20v-78q156 -2 254 -73t98 -199zM60 350q0 -116 89.5 -184t242.5 -70v508q-153 -2 -242.5 -70t-89.5 -184zM412 96q153 2 242.5 70t89.5 184t-89.5 184t-242.5 70v-508z" />
    <glyph glyph-name="uni0425" unicode="&#x425;" horiz-adv-x="560" 
d="M530 0h-24l-226 339l-226 -339h-24l238 357l-229 343h24l217 -325l217 325h24l-229 -343z" />
    <glyph glyph-name="uni0426" unicode="&#x426;" horiz-adv-x="690" 
d="M580 18h70v-152h-20v134h-530v700h20v-682h440v682h20v-682z" />
    <glyph glyph-name="uni0427" unicode="&#x427;" horiz-adv-x="630" 
d="M510 700h20v-700h-20v317q-100 -47 -210 -47q-105 0 -162.5 53.5t-57.5 136.5v240h20v-240q0 -77 53 -124.5t147 -47.5q105 0 210 49v363z" />
    <glyph glyph-name="uni0428" unicode="&#x428;" horiz-adv-x="970" 
d="M850 700h20v-700h-770v700h20v-682h355v682h20v-682h355v682z" />
    <glyph glyph-name="uni0429" unicode="&#x429;" horiz-adv-x="980" 
d="M870 18h70v-152h-20v134h-820v700h20v-682h355v682h20v-682h355v682h20v-682z" />
    <glyph glyph-name="uni042A" unicode="&#x42a;" horiz-adv-x="680" 
d="M200 0v682h-200v18h220v-280h195q93 0 154 -60t61 -150t-61 -150t-154 -60h-215zM220 18h195q85 0 140 54.5t55 137.5t-55 137.5t-140 54.5h-195v-384z" />
    <glyph glyph-name="uni042B" unicode="&#x42b;" horiz-adv-x="740" 
d="M100 0v700h20v-280h195q93 0 154 -60t61 -150t-61 -150t-154 -60h-215zM620 0v700h20v-700h-20zM120 18h195q85 0 140 54.5t55 137.5t-55 137.5t-140 54.5h-195v-384z" />
    <glyph glyph-name="uni042C" unicode="&#x42c;" horiz-adv-x="580" 
d="M315 420q93 0 154 -60t61 -150t-61 -150t-154 -60h-215v700h20v-280h195zM315 18q85 0 140 54.5t55 137.5t-55 137.5t-140 54.5h-195v-384h195z" />
    <glyph glyph-name="uni042D" unicode="&#x42d;" horiz-adv-x="764" 
d="M344 710q155 0 257.5 -104.5t102.5 -255.5t-102.5 -255.5t-257.5 -104.5q-96 0 -176 45.5t-123 122.5l18 10q39 -73 114.5 -116.5t166.5 -43.5q144 0 240 96t100 237h-418v18h418q-4 141 -100 237t-240 96q-88 0 -162 -41.5t-115 -111.5l-17 10q44 74 122.5 117.5
t171.5 43.5z" />
    <glyph glyph-name="uni042E" unicode="&#x42e;" horiz-adv-x="1060" 
d="M640 710q149 0 254.5 -105.5t105.5 -254.5t-105.5 -254.5t-254.5 -105.5t-254.5 105.5t-105.5 254.5v1h-160v-351h-20v700h20v-331h160q8 143 112 242t248 99zM640 8q141 0 240.5 100t99.5 242t-99.5 242t-240.5 100t-240.5 -100t-99.5 -242t99.5 -242t240.5 -100z" />
    <glyph glyph-name="uni042F" unicode="&#x42f;" horiz-adv-x="640" 
d="M540 700v-700h-20v300h-242l-206 -300h-22l207 300q-78 5 -132.5 63t-54.5 137q0 82 59 141t141 59h270zM270 318h250v364h-250q-74 0 -127 -53.5t-53 -128.5t53 -128.5t127 -53.5z" />
    <glyph glyph-name="uni0430" unicode="&#x430;" horiz-adv-x="662" 
d="M552 500h20v-500h-20v153q-29 -74 -94 -118.5t-147 -44.5q-109 0 -185 75t-76 185t76 185t185 75q82 0 147 -44.5t94 -118.5v153zM311 8q101 0 171 70t70 172t-70 172t-171 70t-171 -70t-70 -172t70 -172t171 -70z" />
    <glyph glyph-name="uni0431" unicode="&#x431;" horiz-adv-x="580" 
d="M300 -11q-109 0 -179.5 70t-70.5 186q0 120 34.5 188.5t142.5 122.5q28 14 66 29.5t61 25.5t47 24t37 31.5t18 41.5l16 -9q-6 -31 -30.5 -55t-50 -36t-75.5 -32.5t-79 -34.5q-83 -41 -120.5 -93t-44.5 -143q36 73 99 111t135 38q99 0 166.5 -66t67.5 -168
q0 -101 -67.5 -166t-172.5 -65zM300 7q97 0 158.5 59.5t61.5 153.5q0 93 -61 154.5t-153 61.5q-86 0 -151 -54t-85 -137q0 -105 64 -171.5t166 -66.5z" />
    <glyph glyph-name="uni0432" unicode="&#x432;" horiz-adv-x="520" 
d="M376 260q51 -11 77.5 -45t26.5 -82q0 -58 -38.5 -95.5t-110.5 -37.5h-241v500h224q68 0 104.5 -35.5t36.5 -90.5q0 -87 -79 -114zM314 482h-204v-216h204q57 0 89 29t32 79t-32 79t-89 29zM331 18q61 0 95 30.5t34 84.5t-34 84.5t-95 30.5h-221v-230h221z" />
    <glyph glyph-name="uni0433" unicode="&#x433;" horiz-adv-x="405" 
d="M390 500v-18h-280v-482h-20v500h300z" />
    <glyph glyph-name="uni0434" unicode="&#x434;" horiz-adv-x="590" 
d="M480 18h70v-152h-20v134h-480v-134h-20v152h53q60 86 60 225v257h337v-482zM106 18h354v464h-297v-239q0 -138 -57 -225z" />
    <glyph glyph-name="uni0435" unicode="&#x435;" horiz-adv-x="599" 
d="M303 510q109 0 177.5 -77.5t68.5 -184.5v-10h-479q4 -102 71.5 -166t165.5 -64q66 0 118.5 28t77.5 75l17 -10q-29 -51 -85.5 -81t-127.5 -30q-111 0 -184 73.5t-73 186.5q0 111 71.5 185.5t181.5 74.5zM70 256h461q-6 105 -70.5 170.5t-157.5 65.5q-98 0 -164.5 -66.5
t-68.5 -169.5z" />
    <glyph glyph-name="uni0436" unicode="&#x436;" horiz-adv-x="642" 
d="M612 0h-26l-255 253v-253h-20v253l-255 -253h-26l261 260l-251 240h26l245 -233v233h20v-233l245 233h26l-251 -240z" />
    <glyph glyph-name="uni0437" unicode="&#x437;" horiz-adv-x="445" 
d="M292 260q54 -12 83.5 -48t29.5 -84q0 -58 -47 -98t-130 -40q-151 0 -188 115l16 9q32 -106 172 -106q72 0 114.5 33t42.5 87t-37.5 87t-101.5 33h-60v18h43q60 0 95.5 31t35.5 82q0 50 -39.5 81.5t-100.5 31.5q-58 0 -98 -25t-56 -67l-16 9q18 46 62 73.5t108 27.5
q72 0 116 -38.5t44 -92.5q0 -41 -23 -73t-65 -46z" />
    <glyph glyph-name="uni0438" unicode="&#x438;" horiz-adv-x="580" 
d="M470 500h20v-500h-20v468l-360 -468h-20v500h20v-468z" />
    <glyph glyph-name="uni0439" unicode="&#x439;" horiz-adv-x="580" 
d="M170 601v16h240v-16h-240zM470 500h20v-500h-20v468l-360 -468h-20v500h20v-468z" />
    <glyph glyph-name="uni043A" unicode="&#x43a;" horiz-adv-x="461" 
d="M431 0h-28l-293 254v-254h-20v500h20v-234l283 234h28l-290 -240z" />
    <glyph glyph-name="uni043B" unicode="&#x43b;" horiz-adv-x="580" 
d="M490 500v-500h-20v482h-302v-279q0 -117 -40.5 -163t-107.5 -40v18q65 -5 96.5 40t31.5 145v297h342z" />
    <glyph glyph-name="uni043C" unicode="&#x43c;" horiz-adv-x="650" 
d="M560 500v-500h-20v475l-212 -319h-6l-212 319v-475h-20v500h27l208 -312l208 312h27z" />
    <glyph glyph-name="uni043D" unicode="&#x43d;" horiz-adv-x="580" 
d="M470 500h20v-500h-20v241h-360v-241h-20v500h20v-241h360v241z" />
    <glyph glyph-name="uni043E" unicode="&#x43e;" horiz-adv-x="622" 
d="M311 -10q-109 0 -185 75t-76 185t76 185t185 75t185 -75t76 -185t-76 -185t-185 -75zM311 8q101 0 171 70t70 172t-70 172t-171 70t-171 -70t-70 -172t70 -172t171 -70z" />
    <glyph glyph-name="uni043F" unicode="&#x43f;" horiz-adv-x="580" 
d="M490 500v-500h-20v482h-360v-482h-20v500h400z" />
    <glyph glyph-name="uni0440" unicode="&#x440;" horiz-adv-x="662" 
d="M351 510q109 0 185 -75t76 -185t-76 -185t-185 -75q-83 0 -148.5 46t-92.5 121v-357h-20v700h20v-157q27 75 92.5 121t148.5 46zM351 8q101 0 171 70t70 172t-70 172t-171 70t-171 -70t-70 -172t70 -172t171 -70z" />
    <glyph glyph-name="uni0441" unicode="&#x441;" horiz-adv-x="579" 
d="M311 -10q-111 0 -186 75t-75 185t75 185t186 75q73 0 131.5 -33t86.5 -89l-16 -10q-26 52 -80 83t-122 31q-104 0 -172.5 -69.5t-68.5 -172.5t68.5 -172.5t172.5 -69.5q68 0 121.5 31t80.5 83l16 -10q-28 -56 -86.5 -89t-131.5 -33z" />
    <glyph glyph-name="uni0442" unicode="&#x442;" horiz-adv-x="440" 
d="M420 500v-18h-190v-482h-20v482h-190v18h400z" />
    <glyph glyph-name="uni0443" unicode="&#x443;" horiz-adv-x="510" 
d="M470 500h20l-219 -546q-30 -74 -81.5 -116.5t-109.5 -37.5v18q52 -4 98 34.5t75 107.5l7 18l-240 522h20l230 -499z" />
    <glyph glyph-name="uni0444" unicode="&#x444;" horiz-adv-x="670" 
d="M620 250q0 -110 -77 -184t-198 -78v-188h-20v188q-121 4 -198 78t-77 184t77 184t198 78v188h20v-188q121 -4 198 -78t77 -184zM70 250q0 -103 71.5 -171.5t183.5 -72.5v488q-112 -4 -183.5 -72.5t-71.5 -171.5zM345 6q112 4 183.5 72.5t71.5 171.5t-71.5 171.5
t-183.5 72.5v-488z" />
    <glyph glyph-name="uni0445" unicode="&#x445;" horiz-adv-x="500" 
d="M470 0h-25l-195 241l-195 -241h-25l208 256l-198 244h24l186 -229l186 229h24l-198 -244z" />
    <glyph glyph-name="uni0446" unicode="&#x446;" horiz-adv-x="600" 
d="M480 18h80v-152h-20v134h-450v500h20v-482h350v482h20v-482z" />
    <glyph glyph-name="uni0447" unicode="&#x447;" horiz-adv-x="550" 
d="M440 500h20v-500h-20v208q-81 -38 -172 -38q-92 0 -145 42.5t-53 117.5v170h20v-170q0 -66 46.5 -104t131.5 -38q89 0 172 40v272z" />
    <glyph glyph-name="uni0448" unicode="&#x448;" horiz-adv-x="830" 
d="M720 500h20v-500h-650v500h20v-482h295v482h20v-482h295v482z" />
    <glyph glyph-name="uni0449" unicode="&#x449;" horiz-adv-x="850" 
d="M740 18h70v-152h-20v134h-700v500h20v-482h295v482h20v-482h295v482h20v-482z" />
    <glyph glyph-name="uni044A" unicode="&#x44a;" horiz-adv-x="540" 
d="M338 298q67 0 114.5 -40.5t47.5 -107.5t-47.5 -108.5t-114.5 -41.5h-188v482h-150v18h170v-202h168zM338 18q61 0 101.5 37.5t40.5 94.5t-40 93.5t-102 36.5h-168v-262h168z" />
    <glyph glyph-name="uni044B" unicode="&#x44b;" horiz-adv-x="640" 
d="M278 298q67 0 114.5 -40.5t47.5 -107.5t-47.5 -108.5t-114.5 -41.5h-188v500h20v-202h168zM530 500h20v-500h-20v500zM278 18q61 0 101.5 37.5t40.5 94.5t-40 93.5t-102 36.5h-168v-262h168z" />
    <glyph glyph-name="uni044C" unicode="&#x44c;" horiz-adv-x="480" 
d="M278 298q67 0 114.5 -40.5t47.5 -107.5t-47.5 -108.5t-114.5 -41.5h-188v500h20v-202h168zM278 18q61 0 101.5 37.5t40.5 94.5t-40 93.5t-102 36.5h-168v-262h168z" />
    <glyph glyph-name="uni044D" unicode="&#x44d;" horiz-adv-x="569" 
d="M263 510q114 0 185 -74t71 -186t-71 -186t-185 -74q-76 0 -135.5 33t-87.5 89l16 10q27 -53 81.5 -83.5t125.5 -30.5q104 0 168.5 66t67.5 167h-277v18h277q-3 101 -67.5 167t-168.5 66q-72 0 -126.5 -30.5t-80.5 -83.5l-16 10q28 56 87.5 89t135.5 33z" />
    <glyph glyph-name="uni044E" unicode="&#x44e;" horiz-adv-x="810" 
d="M499 510q109 0 185 -75t76 -185t-76 -185t-185 -75q-107 0 -182 72t-79 179h-128v-241h-20v500h20v-241h128q4 107 79 179t182 72zM499 8q101 0 171 70t70 172t-70 172t-171 70t-171 -70t-70 -172t70 -172t171 -70z" />
    <glyph glyph-name="uni044F" unicode="&#x44f;" horiz-adv-x="500" 
d="M410 500v-500h-20v202h-152l-162 -202h-26l165 202q-65 2 -110 42.5t-45 105.5q0 67 47.5 108.5t114.5 41.5h188zM222 220h168v262h-168q-61 0 -101.5 -37.5t-40.5 -94.5t40 -93.5t102 -36.5z" />
    <glyph glyph-name="uni0451" unicode="&#x451;" horiz-adv-x="599" 
d="M217 580q-8 0 -14 6t-6 14t6 14t14 6t14 -6t6 -14t-6 -14t-14 -6zM377 580q-8 0 -14 6t-6 14t6 14t14 6t14 -6t6 -14t-6 -14t-14 -6zM303 510q109 0 177.5 -77.5t68.5 -184.5v-10h-479q4 -102 71.5 -166t165.5 -64q66 0 118.5 28t77.5 75l17 -10q-29 -51 -85.5 -81
t-127.5 -30q-111 0 -184 73.5t-73 186.5q0 111 71.5 185.5t181.5 74.5zM70 256h461q-6 105 -70.5 170.5t-157.5 65.5q-98 0 -164.5 -66.5t-68.5 -169.5z" />
    <glyph glyph-name="uni0452" unicode="&#x452;" horiz-adv-x="595" 
d="M330 510q85 0 137.5 -53t52.5 -139v-408q0 -62 -35.5 -94.5t-103.5 -25.5v18q119 -13 119 102v408q0 76 -46 125t-125 49q-88 0 -143.5 -61.5t-55.5 -162.5v-268h-20v595h-80v17h80v88h20v-88h180v-17h-180v-232q20 71 74.5 109t125.5 38z" />
    <glyph glyph-name="uni0453" unicode="&#x453;" horiz-adv-x="405" 
d="M292 690l-83 -120h-18l80 120h21zM390 500v-18h-280v-482h-20v500h300z" />
    <glyph glyph-name="uni0454" unicode="&#x454;" horiz-adv-x="569" 
d="M306 8q71 0 125.5 30.5t81.5 83.5l16 -10q-28 -56 -87.5 -89t-135.5 -33q-114 0 -185 74t-71 186t71 186t185 74q76 0 135.5 -33t87.5 -89l-16 -10q-26 53 -80.5 83.5t-126.5 30.5q-104 0 -168.5 -66t-67.5 -167h277v-18h-277q3 -101 67.5 -167t168.5 -66z" />
    <glyph glyph-name="uni0455" unicode="&#x455;" horiz-adv-x="465" 
d="M90 370q0 -43 33.5 -67t81.5 -34t95.5 -21t81 -40t33.5 -78q0 -59 -49 -99.5t-126 -40.5q-148 0 -185 105l16 9q31 -96 169 -96q68 0 111.5 34.5t43.5 87.5q0 44 -33.5 69t-81 35.5t-95.5 21.5t-81.5 38.5t-33.5 75.5q0 60 45.5 100t122.5 40q58 0 100 -26t60 -70l-16 -9
q-16 40 -54 63.5t-90 23.5q-67 0 -107.5 -34t-40.5 -88z" />
    <glyph glyph-name="uni0456" unicode="&#x456;" horiz-adv-x="200" 
d="M100 651q-10 0 -16.5 7t-6.5 16t6.5 16t16.5 7t16.5 -7t6.5 -16t-6.5 -16t-16.5 -7zM90 0v500h20v-500h-20z" />
    <glyph glyph-name="uni0457" unicode="&#x457;" horiz-adv-x="200" 
d="M20 580q-8 0 -14 6t-6 14t6 14t14 6t14 -6t6 -14t-6 -14t-14 -6zM180 580q-8 0 -14 6t-6 14t6 14t14 6t14 -6t6 -14t-6 -14t-14 -6zM90 0v500h20v-500h-20z" />
    <glyph glyph-name="uni0458" unicode="&#x458;" horiz-adv-x="209" 
d="M109 697q10 0 16.5 -7t6.5 -16t-6.5 -16t-16.5 -7t-16.5 7t-6.5 16t6.5 16t16.5 7zM99 -90v590h20v-590q0 -62 -35.5 -94.5t-103.5 -25.5v18q119 -13 119 102z" />
    <glyph glyph-name="uni0459" unicode="&#x459;" horiz-adv-x="830" 
d="M638 278q65 0 108.5 -36t43.5 -102t-44 -103t-108 -37h-178v482h-292v-279q0 -117 -40.5 -163t-107.5 -40v18q65 -5 96.5 40t31.5 145v297h332v-222h158zM638 18q59 0 95.5 33t36.5 89t-36.5 88t-95.5 32h-158v-242h158z" />
    <glyph glyph-name="uni045A" unicode="&#x45a;" horiz-adv-x="810" 
d="M618 278q65 0 108.5 -36t43.5 -102t-44 -103t-108 -37h-178v260h-340v-260h-20v500h20v-222h340v222h20v-222h158zM618 18q59 0 95.5 33t36.5 89t-36.5 88t-95.5 32h-158v-242h158z" />
    <glyph glyph-name="uni045B" unicode="&#x45b;" horiz-adv-x="595" 
d="M330 510q85 0 137.5 -53t52.5 -139v-318h-20v318q0 76 -46 125t-125 49q-88 0 -143.5 -61.5t-55.5 -162.5v-268h-20v595h-80v17h80v88h20v-88h180v-17h-180v-232q20 71 74.5 109t125.5 38z" />
    <glyph glyph-name="uni045C" unicode="&#x45c;" horiz-adv-x="461" 
d="M312 690l-83 -120h-18l80 120h21zM431 0h-28l-293 254v-254h-20v500h20v-234l283 234h28l-290 -240z" />
    <glyph glyph-name="uni045E" unicode="&#x45e;" horiz-adv-x="510" 
d="M388 617v-16h-240v16h240zM470 500h20l-219 -546q-30 -74 -81.5 -116.5t-109.5 -37.5v18q52 -4 98 34.5t75 107.5l7 18l-240 522h20l230 -499z" />
    <glyph glyph-name="uni045F" unicode="&#x45f;" horiz-adv-x="580" 
d="M470 500h20v-500h-190v-134h-20v134h-190v500h20v-482h360v482z" />
    <glyph glyph-name="uni0490" unicode="&#x490;" horiz-adv-x="500" 
d="M450 820h20v-138h-350v-682h-20v700h350v120z" />
    <glyph glyph-name="uni0491" unicode="&#x491;" horiz-adv-x="405" 
d="M370 604h20v-122h-280v-482h-20v500h280v104z" />
    <glyph glyph-name="Wgrave" unicode="&#x1e80;" horiz-adv-x="980" 
d="M447 770l-80 120h-21l84 -120h17zM243 0l-203 700h20l195 -676l223 676h24l223 -676l195 676h20l-203 -700h-24l-223 676l-223 -676h-24z" />
    <glyph glyph-name="wgrave" unicode="&#x1e81;" horiz-adv-x="770" 
d="M410 570h-17l-84 120h21zM709 500h21l-164 -500h-22l-159 473l-159 -473h-22l-164 500h21l155 -471l157 471h24l157 -471z" />
    <glyph glyph-name="Wacute" unicode="&#x1e82;" horiz-adv-x="980" 
d="M397 770h18l83 120h-21zM243 0l-203 700h20l195 -676l223 676h24l223 -676l195 676h20l-203 -700h-24l-223 676l-223 -676h-24z" />
    <glyph glyph-name="wacute" unicode="&#x1e83;" horiz-adv-x="770" 
d="M461 690l-83 -120h-18l80 120h21zM709 500h21l-164 -500h-22l-159 473l-159 -473h-22l-164 500h21l155 -471l157 471h24l157 -471z" />
    <glyph glyph-name="Wdieresis" unicode="&#x1e84;" horiz-adv-x="980" 
d="M342 780q-8 0 -14 6t-6 14t6 14t14 6t14 -6t6 -14t-6 -14t-14 -6zM502 780q-8 0 -14 6t-6 14t6 14t14 6t14 -6t6 -14t-6 -14t-14 -6zM243 0l-203 700h20l195 -676l223 676h24l223 -676l195 676h20l-203 -700h-24l-223 676l-223 -676h-24z" />
    <glyph glyph-name="wdieresis" unicode="&#x1e85;" horiz-adv-x="770" 
d="M305 580q-8 0 -14 6t-6 14t6 14t14 6t14 -6t6 -14t-6 -14t-14 -6zM465 580q-8 0 -14 6t-6 14t6 14t14 6t14 -6t6 -14t-6 -14t-14 -6zM709 500h21l-164 -500h-22l-159 473l-159 -473h-22l-164 500h21l155 -471l157 471h24l157 -471z" />
    <glyph glyph-name="Ygrave" unicode="&#x1ef2;" horiz-adv-x="560" 
d="M305 770h-17l-84 120h21zM550 700l-260 -410v-290h-20v290l-260 410h22l248 -393l248 393h22z" />
    <glyph glyph-name="ygrave" unicode="&#x1ef3;" horiz-adv-x="510" 
d="M293 570h-17l-84 120h21zM470 500h20l-219 -546q-30 -74 -81.5 -116.5t-109.5 -37.5v18q52 -4 98 34.5t75 107.5l7 18l-240 522h20l230 -499z" />
    <glyph glyph-name="endash" unicode="&#x2013;" horiz-adv-x="700" 
d="M100 300v18h500v-18h-500z" />
    <glyph glyph-name="emdash" unicode="&#x2014;" horiz-adv-x="800" 
d="M100 300v18h600v-18h-600z" />
    <glyph glyph-name="quoteleft" unicode="&#x2018;" horiz-adv-x="190" 
d="M65 525l42 175h18l-34 -175h-26z" />
    <glyph glyph-name="quoteright" unicode="&#x2019;" horiz-adv-x="190" 
d="M125 700l-42 -175h-18l34 175h26z" />
    <glyph glyph-name="quotesinglbase" unicode="&#x201a;" horiz-adv-x="190" 
d="M125 35l-42 -175h-18l34 175h26z" />
    <glyph glyph-name="quotedblleft" unicode="&#x201c;" horiz-adv-x="290" 
d="M65 525l42 175h18l-34 -175h-26zM165 525l42 175h18l-34 -175h-26z" />
    <glyph glyph-name="quotedblright" unicode="&#x201d;" horiz-adv-x="290" 
d="M125 700l-42 -175h-18l34 175h26zM225 700l-42 -175h-18l34 175h26z" />
    <glyph glyph-name="quotedblbase" unicode="&#x201e;" horiz-adv-x="290" 
d="M125 35l-42 -175h-18l34 175h26zM225 35l-42 -175h-18l34 175h26z" />
    <glyph glyph-name="dagger" unicode="&#x2020;" horiz-adv-x="460" 
d="M390 512v-18h-150v-494h-20v494h-150v18h150v188h20v-188h150z" />
    <glyph glyph-name="daggerdbl" unicode="&#x2021;" horiz-adv-x="460" 
d="M390 494h-150v-288h150v-18h-150v-188h-20v188h-150v18h150v288h-150v18h150v188h20v-188h150v-18z" />
    <glyph glyph-name="bullet" unicode="&#x2022;" horiz-adv-x="240" 
d="M121 290q-25 0 -43 18t-18 43t17.5 42t43.5 17q25 0 42 -17t17 -42q0 -26 -17 -43.5t-42 -17.5z" />
    <glyph glyph-name="ellipsis" unicode="&#x2026;" horiz-adv-x="560" 
d="M90 -10q-10 0 -17.5 7t-7.5 18t7.5 18t17.5 7t17.5 -7t7.5 -18t-7.5 -18t-17.5 -7zM280 -10q-10 0 -17.5 7t-7.5 18t7.5 18t17.5 7t17.5 -7t7.5 -18t-7.5 -18t-17.5 -7zM470 -10q-10 0 -17.5 7t-7.5 18t7.5 18t17.5 7t17.5 -7t7.5 -18t-7.5 -18t-17.5 -7z" />
    <glyph glyph-name="perthousand" unicode="&#x2030;" horiz-adv-x="1099" 
d="M223 414q-66 0 -109.5 42.5t-43.5 105.5t43.5 105.5t109.5 42.5t109.5 -42.5t43.5 -105.5t-43 -105.5t-110 -42.5zM223 432q58 0 95.5 37t37.5 93t-38 93t-95 37t-95 -37t-38 -93t38 -93t95 -37zM114 80l485 549l16 -9l-486 -549zM506 -10q-66 0 -109.5 42.5t-43.5 105.5
t43.5 105.5t109.5 42.5t109.5 -42.5t43.5 -105.5t-43.5 -105.5t-109.5 -42.5zM876 -10q-66 0 -109.5 42.5t-43.5 105.5t43.5 105.5t109.5 42.5t109.5 -42.5t43.5 -105.5t-43.5 -105.5t-109.5 -42.5zM506 8q57 0 95 37t38 93t-38 93t-95 37t-95 -37t-38 -93t38 -93t95 -37z
M876 8q57 0 95 37t38 93t-38 93t-95 37t-95 -37t-38 -93t38 -93t95 -37z" />
    <glyph glyph-name="guilsinglleft" unicode="&#x2039;" horiz-adv-x="322" 
d="M222 469l-100 -160l100 -160h-22l-100 160l100 160h22z" />
    <glyph glyph-name="guilsinglright" unicode="&#x203a;" horiz-adv-x="322" 
d="M122 469l100 -160l-100 -160h-22l100 160l-100 160h22z" />
    <glyph glyph-name="fraction" unicode="&#x2044;" horiz-adv-x="240" 
d="M-80 0h-20l420 700h20z" />
    <glyph glyph-name="Euro" unicode="&#x20ac;" horiz-adv-x="619" 
d="M380 8q64 0 111.5 32.5t71.5 92.5l16 -8q-25 -64 -77 -99.5t-122 -35.5q-105 0 -172 75.5t-83 206.5h-95v18h93q-3 28 -3 60t3 60h-93v18h95q16 131 83 206.5t172 75.5q70 0 122 -35.5t77 -98.5l-17 -9q-23 60 -70.5 92.5t-111.5 32.5q-94 0 -156.5 -70t-78.5 -194h295
v-18h-297q-3 -28 -3 -60t3 -60h297v-18h-295q16 -124 78.5 -194t156.5 -70z" />
    <glyph glyph-name="uni20BD" unicode="&#x20bd;" horiz-adv-x="550" 
d="M310 300h-200v-122h280v-18h-280v-160h-20v160h-90v18h90v122h-90v18h90v382h220q82 0 141 -59t59 -141t-59 -141t-141 -59zM110 682v-364h200q74 0 127 53.5t53 128.5t-53 128.5t-127 53.5h-200z" />
    <glyph glyph-name="uni2116" unicode="&#x2116;" horiz-adv-x="1026" 
d="M833 430q-61 0 -102 41t-41 99t41 99t102 41t102 -41t41 -99q0 -59 -40.5 -99.5t-102.5 -40.5zM580 700h20v-700h-20l-460 666v-666h-20v700h20l460 -666v666zM833 448q53 0 88 35t35 87t-35.5 87t-87.5 35t-87.5 -35t-35.5 -87t35.5 -87t87.5 -35zM700 314v18h266v-18
h-266z" />
    <glyph glyph-name="trademark" unicode="&#x2122;" horiz-adv-x="505" 
d="M212 700v-19h-62v-181h-20v181h-60v19h142zM415 700h20v-200h-20v165l-73 -119h-4l-73 119v-165h-20v200h20l75 -122z" />
    <glyph glyph-name="estimated" unicode="&#x212e;" horiz-adv-x="860" 
d="M430 710q163 0 266.5 -104t103.5 -256q0 -15 -15 -15h-560q-15 0 -15 -15v-192q0 -11 7 -19q84 -89 233 -89q145 0 231 97q7 9 18 9h37q10 0 13 -6t-4 -13q-109 -117 -295 -117q-176 0 -283 103.5t-107 256.5q0 152 103.5 256t266.5 104zM650 572q0 11 -7 19
q-84 89 -213 89t-213 -89q-7 -8 -7 -19v-192q0 -15 15 -15h410q15 0 15 15v192z" />
    <glyph glyph-name="oneeighth" unicode="&#x215b;" horiz-adv-x="840" 
d="M145 300v374l-119 -44l-6 18l135 52h10v-400h-20zM565 700h20l-420 -700h-20zM717 210q38 -12 60.5 -41t22.5 -68q0 -51 -38 -82t-99 -31t-99.5 31t-38.5 82q0 39 23 68t61 41q-32 12 -51.5 36t-19.5 57q0 51 36 80t89 29t88.5 -29t35.5 -80q0 -33 -19.5 -57t-50.5 -36z
M558 303q0 -38 31 -61.5t74 -23.5q42 0 73 23.5t31 61.5q0 43 -30 67t-74 24q-45 0 -75 -24t-30 -67zM663 6q52 0 84.5 25.5t32.5 69.5q0 45 -33 72t-84 27t-84.5 -27t-33.5 -72q0 -44 32.5 -69.5t85.5 -25.5z" />
    <glyph glyph-name="threeeighths" unicode="&#x215c;" horiz-adv-x="938" 
d="M298 412q0 -53 -35.5 -88.5t-98.5 -35.5q-100 0 -129 74l16 9q26 -65 113 -65q55 0 84.5 30.5t29.5 75.5t-29.5 75.5t-84.5 30.5h-3l-9 13l110 151h-217v18h238v-18l-106 -146q57 -4 89 -39t32 -85zM663 700h20l-420 -700h-20zM815 210q38 -12 60.5 -41t22.5 -68
q0 -51 -38 -82t-99 -31t-99.5 31t-38.5 82q0 39 23 68t61 41q-32 12 -51.5 36t-19.5 57q0 51 36 80t89 29t88.5 -29t35.5 -80q0 -33 -19.5 -57t-50.5 -36zM656 303q0 -38 31 -61.5t74 -23.5q42 0 73 23.5t31 61.5q0 43 -30 67t-74 24q-45 0 -75 -24t-30 -67zM761 6
q52 0 84.5 25.5t32.5 69.5q0 45 -33 72t-84 27t-84.5 -27t-33.5 -72q0 -44 32.5 -69.5t85.5 -25.5z" />
    <glyph glyph-name="fiveeighths" unicode="&#x215d;" horiz-adv-x="931" 
d="M295 412q0 -54 -36.5 -89t-96.5 -35q-94 0 -127 71l16 9q27 -62 111 -62q51 0 82 28.5t31 77.5t-31 77.5t-82 28.5h-110l15 182h212v-18h-194l-13 -146h90q60 0 96.5 -35t36.5 -89zM656 700h20l-420 -700h-20zM808 210q38 -12 60.5 -41t22.5 -68q0 -51 -38 -82t-99 -31
t-99.5 31t-38.5 82q0 39 23 68t61 41q-32 12 -51.5 36t-19.5 57q0 51 36 80t89 29t88.5 -29t35.5 -80q0 -33 -19.5 -57t-50.5 -36zM649 303q0 -38 31 -61.5t74 -23.5q42 0 73 23.5t31 61.5q0 43 -30 67t-74 24q-45 0 -75 -24t-30 -67zM754 6q52 0 84.5 25.5t32.5 69.5
q0 45 -33 72t-84 27t-84.5 -27t-33.5 -72q0 -44 32.5 -69.5t85.5 -25.5z" />
    <glyph glyph-name="seveneighths" unicode="&#x215e;" horiz-adv-x="931" 
d="M296 700v-16l-168 -384h-22l167 382h-243v18h266zM656 700h20l-420 -700h-20zM808 210q38 -12 60.5 -41t22.5 -68q0 -51 -38 -82t-99 -31t-99.5 31t-38.5 82q0 39 23 68t61 41q-32 12 -51.5 36t-19.5 57q0 51 36 80t89 29t88.5 -29t35.5 -80q0 -33 -19.5 -57t-50.5 -36z
M649 303q0 -38 31 -61.5t74 -23.5q42 0 73 23.5t31 61.5q0 43 -30 67t-74 24q-45 0 -75 -24t-30 -67zM754 6q52 0 84.5 25.5t32.5 69.5q0 45 -33 72t-84 27t-84.5 -27t-33.5 -72q0 -44 32.5 -69.5t85.5 -25.5z" />
    <glyph glyph-name="arrowleft" unicode="&#x2190;" horiz-adv-x="840" 
d="M770 359v-18h-664l291 -291h-27l-300 300l300 300h27l-291 -291h664z" />
    <glyph glyph-name="arrowup" unicode="&#x2191;" horiz-adv-x="740" 
d="M670 400v-27l-290 290v-663h-20v663l-290 -290v27l300 300z" />
    <glyph glyph-name="arrowright" unicode="&#x2192;" horiz-adv-x="840" 
d="M470 650l300 -300l-300 -300h-27l291 291h-664v18h664l-291 291h27z" />
    <glyph glyph-name="arrowdown" unicode="&#x2193;" horiz-adv-x="740" 
d="M380 37l290 290v-27l-300 -300l-300 300v27l290 -290v663h20v-663z" />
    <glyph glyph-name="arrowboth" unicode="&#x2194;" horiz-adv-x="1020" 
d="M710 590l240 -240l-240 -240h-27l231 231h-808l231 -231h-27l-240 240l240 240h27l-231 -231h808l-231 231h27z" />
    <glyph glyph-name="arrowupdn" unicode="&#x2195;" horiz-adv-x="640" 
d="M560 523l-230 230v-806l230 230v-27l-240 -240l-240 240v27l230 -230v806l-230 -230v27l240 240l240 -240v-27z" />
    <glyph glyph-name="uni2196" unicode="&#x2196;" horiz-adv-x="642" 
d="M572 100l-15 -15l-468 469v-410l-19 19v424h424l19 -19h-410z" />
    <glyph glyph-name="uni2197" unicode="&#x2197;" horiz-adv-x="642" 
d="M148 587h424v-424l-19 -19v410l-468 -469l-15 15l469 468h-410z" />
    <glyph glyph-name="uni2198" unicode="&#x2198;" horiz-adv-x="642" 
d="M553 532l19 -19v-424h-424l-19 19h410l-469 468l15 15l468 -469v410z" />
    <glyph glyph-name="uni2199" unicode="&#x2199;" horiz-adv-x="642" 
d="M572 576l-469 -468h410l-19 -19h-424v424l19 19v-410l468 469z" />
    <glyph glyph-name="partialdiff" unicode="&#x2202;" horiz-adv-x="580" 
d="M236 710q117 0 195.5 -99t78.5 -261q0 -170 -69.5 -265t-179.5 -95q-91 0 -146 59.5t-55 150.5q0 103 60.5 166.5t162.5 63.5q115 0 207 -60q-5 141 -74.5 231.5t-179.5 90.5q-70 0 -120 -33v21q51 30 120 30zM261 8q104 0 166 91t63 247q-94 66 -207 66
q-92 0 -147.5 -57.5t-55.5 -154.5q0 -85 50.5 -138.5t130.5 -53.5z" />
    <glyph glyph-name="emptyset" unicode="&#x2205;" horiz-adv-x="844" 
d="M660 622q58 -51 91 -121.5t33 -150.5q0 -150 -106 -255t-256 -105q-126 0 -223 76l-72 -86h-24l81 98q-58 51 -91 121.5t-33 150.5q0 150 106 255t256 105q126 0 223 -76l72 86h24zM80 350q0 -76 31 -143t85 -114l437 526q-92 73 -211 73q-142 0 -242 -100t-100 -242z
M422 8q142 0 242 100t100 242q0 76 -31 143t-85 114l-437 -526q92 -73 211 -73z" />
    <glyph glyph-name="product" unicode="&#x220f;" horiz-adv-x="640" 
d="M100 -200v900h440v-900h-20v882h-400v-882h-20z" />
    <glyph glyph-name="summation" unicode="&#x2211;" horiz-adv-x="542" 
d="M70 -200v17l279 443l-266 423v17h404v-18h-382l266 -422l-279 -442h410v-18h-432z" />
    <glyph glyph-name="minus" unicode="&#x2212;" horiz-adv-x="540" 
d="M70 341v18h400v-18h-400z" />
    <glyph glyph-name="radical" unicode="&#x221a;" horiz-adv-x="629" 
d="M314 0l-168 282h-76v18h86l167 -280l256 780h20l-263 -800h-22z" />
    <glyph glyph-name="infinity" unicode="&#x221e;" horiz-adv-x="819" 
d="M603 500q63 0 104.5 -41.5t41.5 -108.5t-41.5 -108.5t-104.5 -41.5q-33 0 -62 11.5t-55 36t-39 40t-37 46.5q-23 -31 -36.5 -47t-39.5 -40t-55.5 -35.5t-62.5 -11.5q-63 0 -104.5 41.5t-41.5 108.5t41.5 108.5t104.5 41.5q33 0 62.5 -11.5t55.5 -35.5t39.5 -40t36.5 -47
q24 31 37 46.5t39 40t55 36t62 11.5zM216 218q30 0 57 11t51.5 35t37.5 39t36 47q-23 32 -36 47t-37.5 39t-51.5 35t-57 11q-56 0 -91 -36.5t-35 -95.5t35 -95.5t91 -36.5zM603 218q56 0 91 36.5t35 95.5t-35 95.5t-91 36.5q-30 0 -56.5 -11t-51 -35t-37.5 -39t-36 -47
q23 -32 36 -47t37.5 -39t51 -35t56.5 -11z" />
    <glyph glyph-name="integral" unicode="&#x222b;" horiz-adv-x="431" 
d="M0 -204v20q51 -23 90 3.5t51 92.5l117 680q13 72 59.5 102.5t113.5 8.5v-19q-59 22 -100 -3.5t-53 -92.5l-117 -680q-13 -70 -58 -101.5t-103 -10.5z" />
    <glyph glyph-name="approxequal" unicode="&#x2248;" horiz-adv-x="572" 
d="M281 422q-40 28 -73 36.5t-53 2t-35 -22.5t-21.5 -31t-10.5 -31l-18 8q4 16 11.5 32.5t25.5 35.5t41 27.5t61 -0.5t82 -41q49 -35 87 -41t59 11.5t31.5 36t15.5 39.5l18 -8q-4 -16 -11.5 -32.5t-25.5 -35.5t-41 -27t-60.5 1t-82.5 40zM88 216l-18 8q4 16 11.5 32.5
t25.5 35.5t41 27.5t61 -0.5t82 -41q49 -35 87 -41t59 11.5t31.5 36t15.5 39.5l18 -8q-4 -16 -11.5 -32.5t-25.5 -35.5t-41 -27t-60.5 1t-82.5 40q-40 28 -73 36.5t-53 2t-35 -22.5t-21.5 -31t-10.5 -31z" />
    <glyph glyph-name="notequal" unicode="&#x2260;" horiz-adv-x="530" 
d="M460 441h-137l-85 -182h222v-18h-230l-78 -166h-20l78 166h-140v18h148l85 182h-233v18h241l78 166h20l-78 -166h129v-18z" />
    <glyph glyph-name="lessequal" unicode="&#x2264;" horiz-adv-x="540" 
d="M470 580v-20l-378 -152l378 -152v-20l-400 163v18zM70 120v18h400v-18h-400z" />
    <glyph glyph-name="greaterequal" unicode="&#x2265;" horiz-adv-x="540" 
d="M70 580l400 -163v-18l-400 -163v20l378 152l-378 152v20zM70 120v18h400v-18h-400z" />
    <glyph glyph-name="lozenge" unicode="&#x25ca;" horiz-adv-x="534" 
d="M257 0l-187 350l187 350h20l187 -350l-187 -350h-20zM267 23l175 327l-175 327l-175 -327z" />
    <glyph glyph-name="i.loclTRK" horiz-adv-x="200" 
d="M100 580q-13 0 -21.5 8.5t-8.5 21.5t8.5 21.5t21.5 8.5t21.5 -8.5t8.5 -21.5t-8.5 -21.5t-21.5 -8.5zM90 0v500h20v-500h-20z" />
    <glyph glyph-name="f_f_j" horiz-adv-x="768" 
d="M678 500v-590q0 -62 -35.5 -94.5t-103.5 -25.5v18q119 -13 119 102v572h-249v-482h-20v482h-249v-482h-20v482h-90v18h90v40q0 86 44.5 131.5t134.5 38.5v-18q-159 13 -159 -152v-40h249v50q0 170 179 170q52 0 100 -10v-18q-48 10 -100 10q-83 0 -121 -37.5t-38 -114.5
v-50h269z" />
    <glyph glyph-name="f_j" horiz-adv-x="499" 
d="M409 500v-590q0 -62 -35.5 -94.5t-103.5 -25.5v18q119 -13 119 102v572h-249v-482h-20v482h-90v18h90v40q0 170 179 170q52 0 100 -10v-18q-48 10 -100 10q-83 0 -121 -37.5t-38 -114.5v-40h269z" />
    <glyph glyph-name="uni0414.loclBGR" horiz-adv-x="710" 
d="M617 18h63v-152h-20v134h-610v-134h-20v152h63l250 682h24zM114 18h482l-241 661z" />
    <glyph glyph-name="uni041B.loclBGR" horiz-adv-x="598" 
d="M287 700h24l267 -700h-21l-258 678l-258 -678h-21z" />
    <glyph glyph-name="uni0424.loclBGR" horiz-adv-x="864" 
d="M804 350q0 -160 -101.5 -258.5t-260.5 -101.5v-90h-20v90q-159 3 -260.5 101.5t-101.5 258.5t101.5 258.5t260.5 101.5v90h20v-90q159 -3 260.5 -101.5t101.5 -258.5zM80 350q0 -149 92 -244t250 -98v684q-158 -3 -250 -98t-92 -244zM442 8q158 3 250 98t92 244t-92 244
t-250 98v-684z" />
    <glyph glyph-name="uni0414.ss01" horiz-adv-x="690" 
d="M575 18h70v-18h-620v18h53q77 79 77 254v428h420v-682zM175 272q0 -170 -71 -254h451v664h-380v-410z" />
    <glyph glyph-name="uni0426.ss01" horiz-adv-x="690" 
d="M580 18h70v-18h-550v700h20v-682h440v682h20v-682z" />
    <glyph glyph-name="uni0429.ss01" horiz-adv-x="980" 
d="M870 18h70v-18h-840v700h20v-682h355v682h20v-682h355v682h20v-682z" />
    <glyph glyph-name="uni0414.loclBGR.ss01" horiz-adv-x="710" 
d="M617 18h63v-18h-650v18h63l250 682h24zM114 18h482l-241 661z" />
    <glyph glyph-name="uni0432.loclBGR" horiz-adv-x="580" 
d="M364 404q81 -10 123.5 -64.5t42.5 -139.5q0 -99 -58 -154.5t-162 -55.5t-162 63.5t-58 176.5v245q0 112 54 173.5t151 61.5q77 0 121 -44.5t44 -106.5q0 -43 -24.5 -84.5t-71.5 -70.5zM295 692q-88 0 -136.5 -56.5t-48.5 -160.5v-102l139 26q44 9 85 7q52 29 79 70t27 83
q0 54 -38.5 93.5t-106.5 39.5zM310 8q95 0 147.5 50.5t52.5 141.5q0 104 -66 154.5t-195 26.5l-139 -26v-125q0 -105 52.5 -163.5t147.5 -58.5z" />
    <glyph glyph-name="uni0433.loclBGR" horiz-adv-x="465" 
d="M399 109l16 -9q-18 -51 -65 -80.5t-120 -29.5q-78 0 -126.5 38.5t-48.5 96.5q0 51 33 80.5t80 41.5t94 23t80 36t33 69q0 53 -38.5 85t-99.5 32q-58 0 -98 -25t-56 -67l-16 9q18 46 62 73.5t108 27.5q70 0 114 -38.5t44 -96.5q0 -49 -33 -78t-80 -40.5l-94 -23t-80 -37.5
t-33 -71q0 -53 43.5 -85t111.5 -32q136 0 169 101z" />
    <glyph glyph-name="uni0434.loclBGR" horiz-adv-x="672" 
d="M562 500h20v-469q0 -111 -65 -176t-181 -65q-86 0 -147.5 33.5t-85.5 84.5l16 9q22 -46 79 -77.5t138 -31.5q107 0 166.5 60t59.5 163v126q-27 -75 -92.5 -121t-148.5 -46q-109 0 -185 75t-76 185t76 185t185 75q83 0 148.5 -46t92.5 -121v157zM321 8q101 0 171 70
t70 172t-70 172t-171 70t-171 -70t-70 -172t70 -172t171 -70z" />
    <glyph glyph-name="uni0436.loclBGR" horiz-adv-x="642" 
d="M612 0h-26l-255 253v-253h-20v253l-255 -253h-26l261 260l-251 240h26l245 -233v433h20v-433l245 233h26l-251 -240z" />
    <glyph glyph-name="uni0438.loclBGR" horiz-adv-x="575" 
d="M465 500h20v-500h-20v137q-20 -71 -74.5 -109t-125.5 -38q-85 0 -137.5 53t-52.5 139v318h20v-318q0 -76 46 -125t125 -49q88 0 143.5 61.5t55.5 162.5v268z" />
    <glyph glyph-name="uni0439.loclBGR" horiz-adv-x="575" 
d="M400 617v-16h-240v16h240zM465 500h20v-500h-20v137q-20 -71 -74.5 -109t-125.5 -38q-85 0 -137.5 53t-52.5 139v318h20v-318q0 -76 46 -125t125 -49q88 0 143.5 61.5t55.5 162.5v268z" />
    <glyph glyph-name="uni043A.loclBGR" horiz-adv-x="461" 
d="M431 0h-28l-293 254v-254h-20v700h20v-434l283 234h28l-290 -240z" />
    <glyph glyph-name="uni043B.loclBGR" horiz-adv-x="512" 
d="M492 0h-21l-215 478l-215 -478h-21l225 500h22z" />
    <glyph glyph-name="uni043F.loclBGR" horiz-adv-x="575" 
d="M310 510q85 0 137.5 -53t52.5 -139v-318h-20v318q0 76 -46 125t-125 49q-88 0 -143.5 -61.5t-55.5 -162.5v-268h-20v500h20v-137q20 71 74.5 109t125.5 38z" />
    <glyph glyph-name="uni0442.loclBGR" horiz-adv-x="875" 
d="M627 510q77 0 125 -46.5t48 -136.5v-327h-20v327q0 79 -41.5 122t-111.5 43q-76 0 -124 -55.5t-48 -154.5v-282h-20v327q0 79 -40.5 122t-108.5 43q-78 0 -127 -55.5t-49 -154.5v-282h-20v500h20v-121q19 66 66.5 98.5t109.5 32.5q64 0 108.5 -34.5t56.5 -101.5
q19 68 67.5 102t108.5 34z" />
    <glyph glyph-name="uni0446.loclBGR" horiz-adv-x="595" 
d="M535 18h20v-152h-20v134q-33 0 -51.5 18.5t-18.5 51.5v67q-20 -71 -74.5 -109t-125.5 -38q-85 0 -137.5 53t-52.5 139v318h20v-318q0 -76 46 -125t125 -49q88 0 143.5 61.5t55.5 162.5v268h20v-430q0 -25 13.5 -38.5t36.5 -13.5z" />
    <glyph glyph-name="uni0448.loclBGR" horiz-adv-x="875" 
d="M765 500h20v-500h-20v121q-19 -66 -66.5 -98.5t-109.5 -32.5q-64 0 -108.5 34.5t-56.5 101.5q-19 -68 -67.5 -102t-108.5 -34q-77 0 -125 46.5t-48 136.5v327h20v-327q0 -79 41.5 -122t111.5 -43q76 0 124 55.5t48 154.5v282h20v-327q0 -79 40.5 -122t108.5 -43
q78 0 127 55.5t49 154.5v282z" />
    <glyph glyph-name="uni0449.loclBGR" horiz-adv-x="895" 
d="M835 18h20v-152h-20v134q-33 0 -51.5 18.5t-18.5 51.5v51q-19 -66 -66.5 -98.5t-109.5 -32.5q-64 0 -108.5 34.5t-56.5 101.5q-19 -68 -67.5 -102t-108.5 -34q-77 0 -125 46.5t-48 136.5v327h20v-327q0 -79 41.5 -122t111.5 -43q76 0 124 55.5t48 154.5v282h20v-327
q0 -79 40.5 -122t108.5 -43q78 0 127 55.5t49 154.5v282h20v-430q0 -25 13.5 -38.5t36.5 -13.5z" />
    <glyph glyph-name="uni044C.loclBGR" horiz-adv-x="485" 
d="M260 320q83 0 134 -44t51 -116q0 -73 -51.5 -121.5t-133.5 -48.5q-91 0 -138 46.5t-47 123.5v340h20v-180h165zM260 8q73 0 119 43.5t46 108.5q0 64 -45.5 103t-119.5 39h-165v-142q0 -68 42 -110t123 -42z" />
    <glyph glyph-name="uni044A.loclBGR" 
d="M345 320q83 0 134 -44t51 -116q0 -73 -51.5 -121.5t-133.5 -48.5q-91 0 -138 46.5t-47 123.5v322h-160v18h180v-180h165zM345 8q73 0 119 43.5t46 108.5q0 64 -45.5 103t-119.5 39h-165v-142q0 -68 42 -110t123 -42z" />
    <glyph glyph-name="uni044E.loclBGR" horiz-adv-x="810" 
d="M499 510q109 0 185 -75t76 -185t-76 -185t-185 -75q-107 0 -182 72t-79 179h-128v-241h-20v700h20v-441h128q4 107 79 179t182 72zM499 8q101 0 171 70t70 172t-70 172t-171 70t-171 -70t-70 -172t70 -172t171 -70z" />
    <glyph glyph-name="zero.sinf" horiz-adv-x="410" 
d="M205 -172q-75 0 -120 58.5t-45 153.5t45 153.5t120 58.5t120 -58.5t45 -153.5t-45 -153.5t-120 -58.5zM205 -154q67 0 106 52.5t39 141.5t-39 141.5t-106 52.5t-106 -52.5t-39 -141.5t39 -141.5t106 -52.5z" />
    <glyph glyph-name="one.sinf" horiz-adv-x="235" 
d="M155 240h10v-400h-20v374l-119 -44l-6 18z" />
    <glyph glyph-name="two.sinf" horiz-adv-x="346" 
d="M40 -160v15l188 180q50 47 50 101q0 40 -28.5 69t-78.5 29q-42 0 -71 -21t-39 -54l-17 9q12 37 45.5 60.5t82.5 23.5q58 0 92 -33.5t34 -82.5q0 -59 -55 -113l-173 -165h236v-18h-266z" />
    <glyph glyph-name="three.sinf" horiz-adv-x="338" 
d="M177 76q57 -4 89 -39t32 -85q0 -53 -35.5 -88.5t-98.5 -35.5q-100 0 -129 74l16 9q26 -65 113 -65q55 0 84.5 30.5t29.5 75.5t-29.5 75.5t-84.5 30.5h-3l-9 13l110 151h-217v18h238v-18z" />
    <glyph glyph-name="four.sinf" horiz-adv-x="359" 
d="M329 -52v-18h-62v-90h-20v90h-227v18l154 292h20l-153 -292h206v121h20v-121h62z" />
    <glyph glyph-name="five.sinf" horiz-adv-x="320" 
d="M162 76q60 0 96.5 -35t36.5 -89t-36.5 -89t-96.5 -35q-94 0 -127 71l16 9q27 -62 111 -62q51 0 82 28.5t31 77.5t-31 77.5t-82 28.5h-110l15 182h212v-18h-194l-13 -146h90z" />
    <glyph glyph-name="six.sinf" horiz-adv-x="335" 
d="M167 87q59 0 98.5 -36.5t39.5 -92.5q0 -57 -39.5 -93.5t-98.5 -36.5q-58 0 -97.5 36.5t-39.5 93.5q0 36 18 67l140 215h22l-109 -168q29 15 66 15zM167 -154q51 0 84.5 31t33.5 81q0 49 -34 80t-84 31t-83.5 -31t-33.5 -80q0 -50 33.5 -81t83.5 -31z" />
    <glyph glyph-name="seven.sinf" horiz-adv-x="336" 
d="M30 240h266v-16l-168 -384h-22l167 382h-243v18z" />
    <glyph glyph-name="eight.sinf" horiz-adv-x="355" 
d="M232 50q38 -12 60.5 -41t22.5 -68q0 -51 -38 -82t-99 -31t-99.5 31t-38.5 82q0 39 23 68t61 41q-32 12 -51.5 36t-19.5 57q0 51 36 80t89 29t88.5 -29t35.5 -80q0 -33 -19.5 -57t-50.5 -36zM73 143q0 -38 31 -61.5t74 -23.5q42 0 73 23.5t31 61.5q0 43 -30 67t-74 24
q-45 0 -75 -24t-30 -67zM178 -154q52 0 84.5 25.5t32.5 69.5q0 45 -33 72t-84 27t-84.5 -27t-33.5 -72q0 -44 32.5 -69.5t85.5 -25.5z" />
    <glyph glyph-name="nine.sinf" horiz-adv-x="335" 
d="M305 122q0 -36 -18 -67l-140 -215h-22l109 168q-28 -15 -66 -15q-59 0 -98.5 36.5t-39.5 92.5q0 57 39.5 93.5t98.5 36.5q58 0 97.5 -36.5t39.5 -93.5zM50 122q0 -49 34 -80t84 -31t83.5 31t33.5 80q0 50 -33.5 81t-83.5 31q-51 0 -84.5 -31t-33.5 -81z" />
    <glyph glyph-name="zero.tf" 
d="M285 -10q-119 0 -187 98t-68 262t68 262t187 98t187 -98t68 -262t-68 -262t-187 -98zM285 8q108 0 171.5 91.5t63.5 250.5t-63.5 250.5t-171.5 91.5t-171.5 -91.5t-63.5 -250.5t63.5 -250.5t171.5 -91.5z" />
    <glyph glyph-name="one.tf" 
d="M320 20h225v-20h-500v20h255v659l-171 -58l-5 17l181 62h15v-680z" />
    <glyph glyph-name="two.tf" 
d="M60 0v18l296 264q134 121 134 218q0 86 -54.5 139t-150.5 53q-70 0 -121.5 -34.5t-73.5 -90.5l-17 10q24 60 82 96.5t130 36.5q100 0 162.5 -56.5t62.5 -153.5q0 -105 -141 -231l-283 -251h444v-18h-470z" />
    <glyph glyph-name="three.tf" 
d="M290 410q104 -4 168 -61.5t64 -148.5q0 -94 -67.5 -152t-177.5 -58q-81 0 -141 33t-86 90l17 10q23 -53 77 -84t133 -31q106 0 165.5 54t59.5 138t-59.5 138t-165.5 54h-6l-8 12l197 278h-398v18h420v-18z" />
    <glyph glyph-name="four.tf" 
d="M530 178v-18h-90v-160h-20v160h-390v18l276 522h22l-276 -522h368v232h20v-232h90z" />
    <glyph glyph-name="five.tf" 
d="M285 410q106 0 173 -58t67 -152t-67 -152t-173 -58q-80 0 -138.5 33.5t-84.5 92.5l16 9q23 -54 77 -85.5t130 -31.5q102 0 161 54t59 138t-59 138t-161 54h-196l21 308h385v-18h-368l-18 -272h176z" />
    <glyph glyph-name="six.tf" 
d="M285 450q109 0 177 -64t68 -166t-68 -166t-177 -64t-177 64t-68 166q0 83 47 143l251 337h22l-210 -283q60 33 135 33zM285 8q105 0 165 60t60 152t-60 152t-165 60t-165 -60t-60 -152t60 -152t165 -60z" />
    <glyph glyph-name="seven.tf" 
d="M40 700h470v-18l-317 -682h-20l317 682h-450v18z" />
    <glyph glyph-name="eight.tf" 
d="M364 362q76 -17 118.5 -64.5t42.5 -117.5q0 -87 -64.5 -138.5t-175.5 -51.5t-175.5 51.5t-64.5 138.5q0 70 42.5 117.5t118.5 64.5q-65 17 -102 62t-37 107q0 80 60 129.5t158 49.5t158 -49.5t60 -129.5q0 -62 -37 -107t-102 -62zM87 531q0 -69 52 -115t146 -46t146 46
t52 115t-52 115t-146 46t-146 -46t-52 -115zM285 8q106 0 163 47.5t57 124.5t-57 124.5t-163 47.5t-163 -47.5t-57 -124.5t57 -124.5t163 -47.5z" />
    <glyph glyph-name="nine.tf" 
d="M530 480q0 -83 -47 -143l-251 -337h-22l210 283q-60 -33 -135 -33q-109 0 -177 64t-68 166t68 166t177 64t177 -64t68 -166zM60 480q0 -92 60 -152t165 -60t165 60t60 152t-60 152t-165 60t-165 -60t-60 -152z" />
    <glyph glyph-name="zero.dnom" horiz-adv-x="410" 
d="M205 -12q-75 0 -120 58.5t-45 153.5t45 153.5t120 58.5t120 -58.5t45 -153.5t-45 -153.5t-120 -58.5zM205 6q67 0 106 52.5t39 141.5t-39 141.5t-106 52.5t-106 -52.5t-39 -141.5t39 -141.5t106 -52.5z" />
    <glyph glyph-name="one.dnom" horiz-adv-x="245" 
d="M155 400h10v-400h-20v374l-119 -44l-6 18z" />
    <glyph glyph-name="two.dnom" horiz-adv-x="346" 
d="M40 0v15l188 180q50 47 50 101q0 40 -28.5 69t-78.5 29q-42 0 -71 -21t-39 -54l-17 9q12 37 45.5 60.5t82.5 23.5q58 0 92 -33.5t34 -82.5q0 -59 -55 -113l-173 -165h236v-18h-266z" />
    <glyph glyph-name="three.dnom" horiz-adv-x="343" 
d="M177 236q57 -4 89 -39t32 -85q0 -53 -35.5 -88.5t-98.5 -35.5q-100 0 -129 74l16 9q26 -65 113 -65q55 0 84.5 30.5t29.5 75.5t-29.5 75.5t-84.5 30.5h-3l-9 13l110 151h-217v18h238v-18z" />
    <glyph glyph-name="four.dnom" horiz-adv-x="359" 
d="M329 108v-18h-62v-90h-20v90h-227v18l154 292h20l-153 -292h206v121h20v-121h62z" />
    <glyph glyph-name="five.dnom" horiz-adv-x="336" 
d="M162 236q60 0 96.5 -35t36.5 -89t-36.5 -89t-96.5 -35q-94 0 -127 71l16 9q27 -62 111 -62q51 0 82 28.5t31 77.5t-31 77.5t-82 28.5h-110l15 182h212v-18h-194l-13 -146h90z" />
    <glyph glyph-name="six.dnom" horiz-adv-x="335" 
d="M167 247q59 0 98.5 -36.5t39.5 -92.5q0 -57 -39.5 -93.5t-98.5 -36.5q-58 0 -97.5 36.5t-39.5 93.5q0 36 18 67l140 215h22l-109 -168q29 15 66 15zM167 6q51 0 84.5 31t33.5 81q0 49 -34 80t-84 31t-83.5 -31t-33.5 -80q0 -50 33.5 -81t83.5 -31z" />
    <glyph glyph-name="seven.dnom" horiz-adv-x="336" 
d="M30 400h266v-16l-168 -384h-22l167 382h-243v18z" />
    <glyph glyph-name="eight.dnom" horiz-adv-x="355" 
d="M232 210q38 -12 60.5 -41t22.5 -68q0 -51 -38 -82t-99 -31t-99.5 31t-38.5 82q0 39 23 68t61 41q-32 12 -51.5 36t-19.5 57q0 51 36 80t89 29t88.5 -29t35.5 -80q0 -33 -19.5 -57t-50.5 -36zM73 303q0 -38 31 -61.5t74 -23.5q42 0 73 23.5t31 61.5q0 43 -30 67t-74 24
q-45 0 -75 -24t-30 -67zM178 6q52 0 84.5 25.5t32.5 69.5q0 45 -33 72t-84 27t-84.5 -27t-33.5 -72q0 -44 32.5 -69.5t85.5 -25.5z" />
    <glyph glyph-name="nine.dnom" horiz-adv-x="335" 
d="M305 282q0 -36 -18 -67l-140 -215h-22l109 168q-28 -15 -66 -15q-59 0 -98.5 36.5t-39.5 92.5q0 57 39.5 93.5t98.5 36.5q58 0 97.5 -36.5t39.5 -93.5zM50 282q0 -49 34 -80t84 -31t83.5 31t33.5 80q0 50 -33.5 81t-83.5 31q-51 0 -84.5 -31t-33.5 -81z" />
    <glyph glyph-name="zero.numr" horiz-adv-x="410" 
d="M205 288q-75 0 -120 58.5t-45 153.5t45 153.5t120 58.5t120 -58.5t45 -153.5t-45 -153.5t-120 -58.5zM205 306q67 0 106 52.5t39 141.5t-39 141.5t-106 52.5t-106 -52.5t-39 -141.5t39 -141.5t106 -52.5z" />
    <glyph glyph-name="one.numr" horiz-adv-x="245" 
d="M155 700h10v-400h-20v374l-119 -44l-6 18z" />
    <glyph glyph-name="two.numr" horiz-adv-x="346" 
d="M40 300v15l188 180q50 47 50 101q0 40 -28.5 69t-78.5 29q-42 0 -71 -21t-39 -54l-17 9q12 37 45.5 60.5t82.5 23.5q58 0 92 -33.5t34 -82.5q0 -59 -55 -113l-173 -165h236v-18h-266z" />
    <glyph glyph-name="three.numr" horiz-adv-x="343" 
d="M177 536q57 -4 89 -39t32 -85q0 -53 -35.5 -88.5t-98.5 -35.5q-100 0 -129 74l16 9q26 -65 113 -65q55 0 84.5 30.5t29.5 75.5t-29.5 75.5t-84.5 30.5h-3l-9 13l110 151h-217v18h238v-18z" />
    <glyph glyph-name="four.numr" horiz-adv-x="359" 
d="M329 408v-18h-62v-90h-20v90h-227v18l154 292h20l-153 -292h206v121h20v-121h62z" />
    <glyph glyph-name="five.numr" horiz-adv-x="336" 
d="M162 536q60 0 96.5 -35t36.5 -89t-36.5 -89t-96.5 -35q-94 0 -127 71l16 9q27 -62 111 -62q51 0 82 28.5t31 77.5t-31 77.5t-82 28.5h-110l15 182h212v-18h-194l-13 -146h90z" />
    <glyph glyph-name="six.numr" horiz-adv-x="335" 
d="M167 547q59 0 98.5 -36.5t39.5 -92.5q0 -57 -39.5 -93.5t-98.5 -36.5q-58 0 -97.5 36.5t-39.5 93.5q0 36 18 67l140 215h22l-109 -168q28 15 66 15zM167 306q51 0 84.5 31t33.5 81q0 49 -34 80t-84 31t-83.5 -31t-33.5 -80q0 -50 33.5 -81t83.5 -31z" />
    <glyph glyph-name="seven.numr" horiz-adv-x="336" 
d="M30 700h266v-16l-168 -384h-22l167 382h-243v18z" />
    <glyph glyph-name="eight.numr" horiz-adv-x="355" 
d="M232 510q38 -12 60.5 -41t22.5 -68q0 -51 -38 -82t-99 -31t-99.5 31t-38.5 82q0 39 23 68t61 41q-32 12 -51.5 36t-19.5 57q0 51 36 80t89 29t88.5 -29t35.5 -80q0 -33 -19.5 -57t-50.5 -36zM73 603q0 -38 31 -61.5t74 -23.5q42 0 73 23.5t31 61.5q0 43 -30 67t-74 24
q-45 0 -75 -24t-30 -67zM178 306q52 0 84.5 25.5t32.5 69.5q0 45 -33 72t-84 27t-84.5 -27t-33.5 -72q0 -44 32.5 -69.5t85.5 -25.5z" />
    <glyph glyph-name="nine.numr" horiz-adv-x="335" 
d="M305 582q0 -36 -18 -67l-140 -215h-22l109 168q-29 -15 -66 -15q-59 0 -98.5 36.5t-39.5 92.5q0 57 39.5 93.5t98.5 36.5q58 0 97.5 -36.5t39.5 -93.5zM50 582q0 -49 34 -80t84 -31t83.5 31t33.5 80q0 50 -33.5 81t-83.5 31q-51 0 -84.5 -31t-33.5 -81z" />
    <glyph glyph-name="zero.sups" horiz-adv-x="410" 
d="M205 448q-75 0 -120 58.5t-45 153.5t45 153.5t120 58.5t120 -58.5t45 -153.5t-45 -153.5t-120 -58.5zM205 466q67 0 106 52.5t39 141.5t-39 141.5t-106 52.5t-106 -52.5t-39 -141.5t39 -141.5t106 -52.5z" />
    <glyph glyph-name="one.sups" horiz-adv-x="245" 
d="M155 860h10v-400h-20v374l-119 -44l-6 18z" />
    <glyph glyph-name="two.sups" horiz-adv-x="346" 
d="M40 460v15l188 180q50 47 50 101q0 40 -28.5 69t-78.5 29q-42 0 -71 -21t-39 -54l-17 9q12 37 45.5 60.5t82.5 23.5q58 0 92 -33.5t34 -82.5q0 -59 -55 -113l-173 -165h236v-18h-266z" />
    <glyph glyph-name="three.sups" horiz-adv-x="343" 
d="M177 696q57 -4 89 -39t32 -85q0 -53 -35.5 -88.5t-98.5 -35.5q-100 0 -129 74l16 9q26 -65 113 -65q55 0 84.5 30.5t29.5 75.5t-29.5 75.5t-84.5 30.5h-3l-9 13l110 151h-217v18h238v-18z" />
    <glyph glyph-name="four.sups" horiz-adv-x="359" 
d="M329 568v-18h-62v-90h-20v90h-227v18l154 292h20l-153 -292h206v121h20v-121h62z" />
    <glyph glyph-name="five.sups" horiz-adv-x="336" 
d="M162 696q60 0 96.5 -35t36.5 -89t-36.5 -89t-96.5 -35q-94 0 -127 71l16 9q27 -62 111 -62q51 0 82 28.5t31 77.5t-31 77.5t-82 28.5h-110l15 182h212v-18h-194l-13 -146h90z" />
    <glyph glyph-name="six.sups" horiz-adv-x="335" 
d="M167 707q59 0 98.5 -36.5t39.5 -92.5q0 -57 -39.5 -93.5t-98.5 -36.5q-58 0 -97.5 36.5t-39.5 93.5q0 36 18 67l140 215h22l-109 -168q28 15 66 15zM167 466q51 0 84.5 31t33.5 81q0 49 -34 80t-84 31t-83.5 -31t-33.5 -80q0 -50 33.5 -81t83.5 -31z" />
    <glyph glyph-name="seven.sups" horiz-adv-x="336" 
d="M30 860h266v-16l-168 -384h-22l167 382h-243v18z" />
    <glyph glyph-name="eight.sups" horiz-adv-x="355" 
d="M232 670q38 -12 60.5 -41t22.5 -68q0 -51 -38 -82t-99 -31t-99.5 31t-38.5 82q0 39 23 68t61 41q-32 12 -51.5 36t-19.5 57q0 51 36 80t89 29t88.5 -29t35.5 -80q0 -33 -19.5 -57t-50.5 -36zM73 763q0 -38 31 -61.5t74 -23.5q42 0 73 23.5t31 61.5q0 43 -30 67t-74 24
q-45 0 -75 -24t-30 -67zM178 466q52 0 84.5 25.5t32.5 69.5q0 45 -33 72t-84 27t-84.5 -27t-33.5 -72q0 -44 32.5 -69.5t85.5 -25.5z" />
    <glyph glyph-name="nine.sups" horiz-adv-x="335" 
d="M305 742q0 -36 -18 -67l-140 -215h-22l109 168q-29 -15 -66 -15q-59 0 -98.5 36.5t-39.5 92.5q0 57 39.5 93.5t98.5 36.5q58 0 97.5 -36.5t39.5 -93.5zM50 742q0 -49 34 -80t84 -31t83.5 31t33.5 80q0 50 -33.5 81t-83.5 31q-51 0 -84.5 -31t-33.5 -81z" />
    <glyph glyph-name="cent.tf" 
d="M312 108q68 0 121.5 31t80.5 83l16 -10q-28 -56 -86.5 -89t-131.5 -33q-45 0 -83 13l-35 -103h-20l37 109q-73 29 -116.5 94t-43.5 147q0 110 74.5 185t186.5 75q28 0 65 -7l33 97h20l-35 -102q95 -30 135 -110l-16 -10q-38 76 -124 102l-156 -460q36 -12 78 -12zM71 350
q0 -76 40 -136.5t106 -87.5l154 459q-25 7 -59 7q-104 0 -172.5 -69.5t-68.5 -172.5z" />
    <glyph glyph-name="dollar.tf" 
d="M518 166q0 -78 -59.5 -126t-155.5 -50v-90h-20v90q-91 4 -152 43.5t-78 104.5l17 9q15 -60 70 -97.5t143 -41.5v343q-39 13 -60 21t-51.5 24t-46 33t-27.5 44t-12 61q0 75 56 125t141 51v90h20v-90q155 -8 197 -147l-17 -10q-37 130 -180 139v-328q1 0 3 -1t3 -1
q44 -15 66.5 -24t55 -26.5t48 -35t27.5 -46t12 -64.5zM106 534q0 -30 10.5 -54t24 -39t41 -29.5t46 -21.5t55.5 -19v321q-81 -1 -129 -47t-48 -111zM303 8q92 1 143.5 45.5t51.5 112.5q0 33 -11 58.5t-25 41.5t-44.5 32t-51 23.5t-63.5 22.5v-336z" />
    <glyph glyph-name="Euro.tf" 
d="M338 8q61 0 107.5 36t68.5 101l16 -9q-23 -68 -74 -107t-118 -39q-104 0 -165.5 75t-75.5 207h-82v18h80q-2 38 -2 60t2 60h-80v18h82q14 132 75.5 207t165.5 75q67 0 118 -38.5t74 -106.5l-16 -9q-22 65 -69 100.5t-107 35.5q-93 0 -150 -69t-71 -195h276v-18h-278
q-2 -38 -2 -60t2 -60h278v-18h-276q14 -126 71 -195t150 -69z" />
    <glyph glyph-name="florin.tf" 
d="M354 590q16 69 64 101t112 11v-20q-58 22 -99.5 -4.5t-56.5 -91.5l-52 -226h159v-19h-164l-100 -435q-16 -69 -64.5 -101t-112.5 -11v20q58 -22 100 4.5t57 91.5l100 431h-156v19h160z" />
    <glyph glyph-name="uni20BD.tf" 
d="M340 300h-220v-122h300v-18h-300v-160h-20v160h-90v18h90v122h-90v18h90v382h240q82 0 141 -59t59 -141t-59 -141t-141 -59zM120 682v-364h220q74 0 127 53.5t53 128.5t-53 128.5t-127 53.5h-220z" />
    <glyph glyph-name="sterling.tf" 
d="M170 18h400v-18h-530v18h110v283h-90v18h90v206q0 85 54 135t136 50q72 0 120 -35t68 -101l-17 -9q-36 127 -171 127q-78 0 -124 -46.5t-46 -120.5v-206h260v-18h-260v-283z" />
    <glyph glyph-name="yen.tf" 
d="M545 700l-245 -363h191v-18h-196v-110h196v-18h-196v-191h-20v191h-194v18h194v110h-194v18h189l-245 363h22l238 -354l238 354h22z" />
    <glyph glyph-name="brevecy" horiz-adv-x="280" 
d="M20 601v16h240v-16h-240z" />
    </font>
</defs>
</svg>
