<?xml version="1.0" standalone="no"?>
<!DOCTYPE svg PUBLIC "-//W3C//DTD SVG 1.1//EN" "http://www.w3.org/Graphics/SVG/1.1/DTD/svg11.dtd" >
<svg xmlns="http://www.w3.org/2000/svg" xmlns:xlink="http://www.w3.org/1999/xlink" version="1.1">
<metadata>
Created by FontForge 20201107 at Fri Jul  8 21:54:24 2016
 By 
Copyright (c) 2015 by Radomir Tinkov. All rights reserved.
</metadata>
<defs>
<font id="Gilroy-ExtraBoldItalic" horiz-adv-x="580" >
  <font-face 
    font-family="Gilroy-ExtraBoldItalic"
    font-weight="400"
    font-style="italic"
    font-stretch="normal"
    units-per-em="1000"
    panose-1="0 0 9 0 0 0 0 0 0 0"
    ascent="773"
    descent="-227"
    x-height="500"
    cap-height="700"
    bbox="-394 -270 1109.53 980"
    underline-thickness="50"
    underline-position="-100"
    slope="-10"
    unicode-range="U+0020-FB02"
  />
<missing-glyph horiz-adv-x="500" 
d="M410 800v-1000h-317v1000h317zM333 733h-165v-33h65v-37h-66v-33h166v33h-66v37h66v33zM267 604h-100v-104h166v34h-66v70zM233 570v-36h-33v36h33zM333 473h-166v-33h66v-37h-66v-33h100v70h66v33zM333 413h-33v-66h-133v-34h166v100zM333 291h-100v-56h34v23h33v-47
h-100v80h-33v-113h166v113zM333 118h-166v-113h166v113zM300 85v-47h-100v47h100zM333 -18h-166v-33h70l-70 -47v-33h166v33h-102l70 47h32v33z" />
    <glyph glyph-name="fi" unicode="fi" horiz-adv-x="570" 
d="M559 500l-88 -500h-150l63 356h-128l-63 -356h-150l63 356h-67l25 144h67q19 112 87.5 163t193.5 51q58 0 122 -14l-24 -138q-44 8 -100 8q-117 0 -129 -70h278z" />
    <glyph glyph-name="fl" unicode="fl" horiz-adv-x="570" 
d="M412 714q78 0 181 -24l-122 -690h-150l102 583q-11 1 -34 1q-94 0 -108 -84h73l-25 -144h-73l-63 -356h-150l63 356h-67l25 144h67q19 112 87.5 163t193.5 51z" />
    <glyph glyph-name="f_f" unicode="ff" horiz-adv-x="610" 
d="M668 580q-91 8 -105 -70l-2 -10h93l-25 -144h-93l-63 -356h-150l63 356h-130l-63 -356h-150l63 356h-67l25 144h67q40 229 281 214l-25 -144q-93 8 -106 -70h130l2 10q40 229 281 214z" />
    <glyph glyph-name="f_f_i" unicode="ffi" horiz-adv-x="850" 
d="M839 500l-88 -500h-150l63 356h-128l-63 -356h-150l63 356h-130l-63 -356h-150l63 356h-67l25 144h67q40 229 281 214l-25 -144q-93 8 -106 -70h130l2 10q19 111 85.5 162.5t185.5 51.5q68 0 132 -14l-24 -138q-44 8 -100 8q-117 0 -129 -70l-2 -10h278z" />
    <glyph glyph-name="f_f_l" unicode="ffl" horiz-adv-x="850" 
d="M694 724q78 0 180 -24l-123 -700h-150l104 593q-11 1 -34 1q-94 0 -108 -84l-2 -10h73l-25 -144h-73l-63 -356h-150l63 356h-130l-63 -356h-150l63 356h-67l25 144h67q40 229 281 214l-25 -144q-93 8 -106 -70h130l2 10q19 112 87.5 163t193.5 51z" />
    <glyph glyph-name=".notdef" horiz-adv-x="500" 
d="M410 800v-1000h-317v1000h317zM333 733h-165v-33h65v-37h-66v-33h166v33h-66v37h66v33zM267 604h-100v-104h166v34h-66v70zM233 570v-36h-33v36h33zM333 473h-166v-33h66v-37h-66v-33h100v70h66v33zM333 413h-33v-66h-133v-34h166v100zM333 291h-100v-56h34v23h33v-47
h-100v80h-33v-113h166v113zM333 118h-166v-113h166v113zM300 85v-47h-100v47h100zM333 -18h-166v-33h70l-70 -47v-33h166v33h-102l70 47h32v33z" />
    <glyph glyph-name=".null" horiz-adv-x="0" 
 />
    <glyph glyph-name="nonmarkingreturn" horiz-adv-x="333" 
 />
    <glyph glyph-name="space" unicode=" " horiz-adv-x="250" 
 />
    <glyph glyph-name="exclam" unicode="!" horiz-adv-x="280" 
d="M80 250l14 250l35 200h180l-35 -200l-74 -250h-120zM93 -14q-39 0 -62 29t-16 68t38.5 66t73.5 27q39 0 62 -29t16 -68q-7 -40 -38 -66.5t-74 -26.5z" />
    <glyph glyph-name="quotedbl" unicode="&#x22;" horiz-adv-x="400" 
d="M97 460l22 240h140l-62 -240h-100zM277 460l22 240h140l-62 -240h-100z" />
    <glyph glyph-name="numbersign" unicode="#" horiz-adv-x="621" 
d="M608 390h-105l-28 -80h106l-37 -110h-106l-52 -150h-114l52 150h-92l-52 -150h-114l52 150h-107l38 110h106l28 80h-107l37 110h108l51 150h114l-51 -150h92l51 150h114l-51 -150h104zM361 310l28 80h-92l-28 -80h92z" />
    <glyph glyph-name="dollar" unicode="$" horiz-adv-x="559" 
d="M353 416q89 -40 119 -66q74 -61 55 -169q-16 -90 -83 -139.5t-167 -54.5l-15 -87h-70l16 89q-80 10 -133.5 52t-72.5 108l146 75q23 -67 87 -81l25 143h-1l-1 1q-44 19 -73.5 36.5t-57.5 44.5t-37.5 65.5t-1.5 86.5q16 93 87 143t161 51l15 86h70l-17 -94q55 -13 97 -49
t64 -91l-141 -74q-20 38 -48 55zM251 507q-5 -33 38 -59l19 111q-24 -4 -39 -17.5t-18 -34.5zM362 199q6 35 -37 58l-20 -113q48 13 57 55z" />
    <glyph glyph-name="percent" unicode="%" horiz-adv-x="784" 
d="M241 374q-76 0 -117 50.5t-32 117.5q9 70 62 121t137 51q79 0 120 -57t26 -127q-15 -66 -66.5 -111t-129.5 -45zM97 111l539 501l64 -41l-539 -502zM255 489q23 0 41 16.5t22 38.5q4 24 -7.5 39.5t-35.5 15.5q-23 0 -40.5 -16t-21.5 -39q-5 -23 7 -39t35 -16zM530 -12
q-77 0 -117.5 52.5t-30.5 120.5q11 69 63.5 118t134.5 49q77 0 118.5 -56t27.5 -124q-14 -67 -65.5 -113.5t-130.5 -46.5zM544 103q23 0 41 16.5t22 38.5q4 24 -7.5 39.5t-35.5 15.5q-23 0 -40 -15.5t-22 -39.5q-5 -23 7 -39t35 -16z" />
    <glyph glyph-name="ampersand" unicode="&#x26;" horiz-adv-x="691" 
d="M652 287q-41 -88 -94 -151l75 -104l-135 -71l-55 76q-87 -51 -193 -51q-116 0 -175.5 64t-41.5 159q25 124 152 192q-27 59 -16 123q15 88 83.5 139t165.5 51q168 0 219 -153l-146 -77q-24 74 -87 74q-30 0 -52 -16t-26 -46q-3 -24 6.5 -44.5t32.5 -51.5l104 -143
q28 47 52 110zM286 132q39 0 75 17l-100 137l-8 11q-48 -31 -57 -81q-6 -36 17 -60t73 -24z" />
    <glyph glyph-name="quotesingle" unicode="'" horiz-adv-x="220" 
d="M97 460l22 240h140l-62 -240h-100z" />
    <glyph glyph-name="parenleft" unicode="(" horiz-adv-x="320" 
d="M98 -100q-72 215 -29 460q40 230 188 440h150q-149 -219 -189 -450t30 -450h-150z" />
    <glyph glyph-name="parenright" unicode=")" horiz-adv-x="319" 
d="M257 800q72 -215 29 -460q-40 -230 -188 -440h-150q149 219 189 450t-30 450h150z" />
    <glyph glyph-name="asterisk" unicode="*" horiz-adv-x="400" 
d="M413 608l-15 -88l-89 9l43 -69l-77 -46l-27 85l-57 -85l-69 46l67 69l-91 -9l15 88l89 -9l-43 69l77 46l27 -85l57 85l69 -46l-67 -69z" />
    <glyph glyph-name="plus" unicode="+" horiz-adv-x="560" 
d="M540 420l-25 -140h-160l-28 -160h-140l28 160h-160l25 140h160l28 160h140l-28 -160h160z" />
    <glyph glyph-name="comma" unicode="," horiz-adv-x="290" 
d="M228 155l-132 -295h-120l92 295h160z" />
    <glyph glyph-name="hyphen" unicode="-" horiz-adv-x="500" 
d="M56 227l25 144h380l-25 -144h-380z" />
    <glyph glyph-name="period" unicode="." horiz-adv-x="280" 
d="M93 -14q-39 0 -61.5 29t-15.5 68q7 40 38.5 66.5t72.5 26.5q39 0 62 -29t16 -68q-7 -40 -38 -66.5t-74 -26.5z" />
    <glyph glyph-name="slash" unicode="/" horiz-adv-x="520" 
d="M33 -100h-65l554 900h65z" />
    <glyph glyph-name="zero" unicode="0" horiz-adv-x="630" 
d="M279 -14q-136 0 -197.5 104.5t-32.5 269.5q29 164 118 259t220 95q136 0 197 -104.5t32 -269.5q-29 -164 -117.5 -259t-219.5 -95zM296 142q123 0 160 208t-87 208q-123 0 -160 -208t87 -208z" />
    <glyph glyph-name="one" unicode="1" horiz-adv-x="404" 
d="M273 700h140l-123 -700h-160l92 525l-129 -34l-15 143z" />
    <glyph glyph-name="two" unicode="2" horiz-adv-x="534" 
d="M-21 0l20 116l278 244q84 74 93 124q6 33 -10 53.5t-48 20.5q-65 0 -114 -79l-128 82q47 76 115.5 114.5t147.5 38.5q94 0 155 -65.5t43 -167.5q-11 -60 -44 -108.5t-94 -101.5l-136 -117h225l-27 -154h-476z" />
    <glyph glyph-name="three" unicode="3" horiz-adv-x="550" 
d="M571 700l-22 -130l-147 -158q60 -28 91.5 -81t19.5 -121q-19 -110 -97.5 -167t-186.5 -57q-83 0 -143.5 37.5t-85.5 112.5l147 78q11 -36 33.5 -54t65.5 -18q47 0 74 21.5t33 56.5t-13 56.5t-66 21.5h-34l-45 91l149 161h-249l26 150h450z" />
    <glyph glyph-name="four" unicode="4" 
d="M572 260l-26 -148h-70l-20 -112h-162l20 112h-318l26 148l292 440h180l-293 -440h139l26 150h162l-26 -150h70z" />
    <glyph glyph-name="five" unicode="5" horiz-adv-x="549" 
d="M542 550h-251l-24 -96h53q96 0 156 -67t41 -177t-97 -167t-182 -57q-181 0 -238 150l148 77q24 -71 107 -71q44 0 70 22t32 56q6 35 -12.5 56.5t-61.5 21.5h-219l99 402h405z" />
    <glyph glyph-name="six" unicode="6" horiz-adv-x="560" 
d="M354 477q93 -15 145.5 -86.5t35.5 -167.5q-19 -109 -97.5 -173t-193.5 -64q-116 0 -180 74t-45 183q16 89 72 149l263 308h192zM375 233q8 44 -16 70.5t-65 26.5q-42 0 -74.5 -26t-40.5 -71t15.5 -71t65.5 -26q41 0 74 26.5t41 70.5z" />
    <glyph glyph-name="seven" unicode="7" horiz-adv-x="490" 
d="M89 700h460l-23 -134l-320 -566h-178l309 546h-275z" />
    <glyph glyph-name="eight" unicode="8" horiz-adv-x="574" 
d="M565 500q-16 -91 -95 -140q82 -65 63 -173q-17 -96 -90.5 -148.5t-193.5 -52.5t-182 62t-45 159q18 107 122 163q-61 53 -45 142q17 98 90 150t174 52q99 0 159 -58t43 -156zM257 496q-5 -30 11.5 -49t49.5 -19t56.5 19t28.5 49t-11.5 49t-49.5 19t-56.5 -19t-28.5 -49z
M378 220q7 39 -15.5 61.5t-65.5 22.5t-74 -22.5t-38 -61.5t16 -61.5t66 -22.5t73.5 22.5t37.5 61.5z" />
    <glyph glyph-name="nine" unicode="9" horiz-adv-x="560" 
d="M351 714q116 0 180 -74t45 -183q-16 -89 -72 -149l-263 -308h-192l192 224q-93 15 -145.5 86t-35.5 167q19 109 97.5 173t193.5 64zM220 467q-8 -44 16 -70.5t65 -26.5q42 0 74.5 26t40.5 71t-15.5 71t-65.5 26q-41 0 -74 -26.5t-41 -70.5z" />
    <glyph glyph-name="colon" unicode=":" horiz-adv-x="280" 
d="M153 326q-39 0 -61.5 29t-15.5 68q7 40 38.5 66.5t72.5 26.5q39 0 62 -29t16 -68q-7 -40 -38 -66.5t-74 -26.5zM93 -14q-39 0 -61.5 29t-15.5 68q7 40 38.5 66.5t72.5 26.5q39 0 62 -29t16 -68q-7 -40 -38 -66.5t-74 -26.5z" />
    <glyph glyph-name="semicolon" unicode=";" horiz-adv-x="290" 
d="M163 326q-39 0 -61.5 29t-15.5 68q7 40 38.5 66.5t72.5 26.5q39 0 62 -29t16 -68q-7 -40 -38 -66.5t-74 -26.5zM228 155l-132 -295h-120l92 295h160z" />
    <glyph glyph-name="less" unicode="&#x3c;" horiz-adv-x="530" 
d="M554 610l-29 -162l-298 -106l261 -106l-26 -146l-416 195l12 65l11 65z" />
    <glyph glyph-name="equal" unicode="=" horiz-adv-x="520" 
d="M64 385l25 140h439l-25 -140h-439zM27 175l25 140h439l-25 -140h-439z" />
    <glyph glyph-name="greater" unicode="&#x3e;" horiz-adv-x="530" 
d="M104 610l415 -195l-11 -65l-12 -65l-484 -195l29 162l299 106l-262 106z" />
    <glyph glyph-name="question" unicode="?" horiz-adv-x="560" 
d="M190 250q7 46 38.5 84t65 59.5t63.5 49.5t35 57q5 26 -10 42t-44 16q-45 0 -74 -23t-51 -65l-130 83q38 76 112 118.5t162 42.5q97 0 156 -58t42 -152q-7 -41 -30 -76t-50.5 -58.5t-54.5 -43t-47 -38.5t-23 -38h-160zM223 -14q-39 0 -61.5 29t-15.5 68q7 40 38.5 66.5
t72.5 26.5q39 0 62 -29t16 -68q-7 -40 -38 -66.5t-74 -26.5z" />
    <glyph glyph-name="at" unicode="@" horiz-adv-x="774" 
d="M454 612q106 0 179.5 -53.5t100.5 -132.5t12 -164q-19 -104 -73 -157.5t-128 -53.5q-46 0 -78 20.5t-43 55.5q-44 -42 -104 -42q-62 0 -95 50.5t-20 122.5q13 70 58 113.5t101 43.5q57 0 90 -43l6 31h122l-42 -236q-11 -66 45 -66q42 0 75 43t48 126q23 129 -51 217.5
t-205 88.5q-137 0 -247 -94t-135 -232q-25 -141 56 -233.5t229 -92.5q89 0 163 24l-7 -38q-72 -22 -161 -22q-164 0 -255.5 106.5t-63.5 263.5q26 151 147 252.5t276 101.5zM371 193q23 0 39.5 16t21.5 41q5 26 -6.5 41.5t-34.5 15.5q-24 0 -40.5 -15.5t-21.5 -41.5
q-5 -25 6.5 -41t35.5 -16z" />
    <glyph glyph-name="A" unicode="A" horiz-adv-x="680" 
d="M461 0l-14 110h-260l-56 -110h-175l361 700h204l115 -700h-175zM262 260h167l-33 265z" />
    <glyph glyph-name="B" unicode="B" horiz-adv-x="600" 
d="M598 495q-14 -87 -84 -136q71 -56 57 -159q-12 -90 -81 -145t-190 -55h-284l123 700h264q95 0 152 -57.5t43 -147.5zM382 550h-109l-22 -124h109q30 0 51 17t26 45q5 26 -9 44t-46 18zM414 217q5 30 -10.5 48.5t-48.5 18.5h-129l-24 -134h129q33 0 55.5 18.5t27.5 48.5z
" />
    <glyph glyph-name="C" unicode="C" horiz-adv-x="723" 
d="M359 -14q-160 0 -248 109t-62 265q26 154 142.5 254t272.5 100q100 0 171.5 -43t106.5 -120l-147 -77q-41 84 -148 84q-91 0 -156.5 -57t-81.5 -151q-16 -93 28 -150.5t131 -57.5q115 0 182 89l130 -85q-57 -75 -141 -117.5t-180 -42.5z" />
    <glyph glyph-name="D" unicode="D" horiz-adv-x="712" 
d="M419 700q138 0 221.5 -106t57.5 -254q-26 -149 -138 -244.5t-264 -95.5h-280l123 700h280zM544 355q16 89 -26 140t-126 51h-120l-69 -392h110q89 0 152 55t79 146z" />
    <glyph glyph-name="E" unicode="E" horiz-adv-x="530" 
d="M547 546h-275l-21 -117h251l-27 -150h-250l-22 -125h280l-27 -154h-440l123 700h435z" />
    <glyph glyph-name="F" unicode="F" horiz-adv-x="520" 
d="M537 546h-265l-24 -135h260l-27 -154h-260l-45 -257h-160l123 700h425z" />
    <glyph glyph-name="G" unicode="G" horiz-adv-x="784" 
d="M778 390l-10 -60q-27 -161 -138.5 -252.5t-267.5 -91.5q-162 0 -250.5 109t-62.5 265q26 154 142.5 254t272.5 100q104 0 179 -44t114 -124l-147 -77q-48 89 -163 89q-91 0 -156.5 -57t-81.5 -151q-17 -94 29.5 -151t139.5 -57q150 0 205 108h-180l24 140h351z" />
    <glyph glyph-name="H" unicode="H" horiz-adv-x="660" 
d="M519 700h160l-123 -700h-160l49 278h-220l-49 -278h-160l123 700h160l-47 -268h220z" />
    <glyph glyph-name="I" unicode="I" horiz-adv-x="280" 
d="M139 700h160l-123 -700h-160z" />
    <glyph glyph-name="J" unicode="J" horiz-adv-x="570" 
d="M232 -14q-171 0 -224 141l147 80q10 -35 31 -50t60 -15q94 0 109 83l84 475h160l-84 -475q-21 -120 -95 -179.5t-188 -59.5z" />
    <glyph glyph-name="K" unicode="K" horiz-adv-x="626" 
d="M705 700l-318 -344l195 -356h-165l-183 333l-58 -333h-160l123 700h160l-52 -293l269 293h189z" />
    <glyph glyph-name="L" unicode="L" horiz-adv-x="480" 
d="M203 154h250l-27 -154h-410l27 154l96 546h160z" />
    <glyph glyph-name="M" unicode="M" horiz-adv-x="820" 
d="M839 700l-123 -700h-160l72 410l-239 -300h-18l-123 302l-72 -412h-160l123 700h160l121 -316l245 316h174z" />
    <glyph glyph-name="N" unicode="N" horiz-adv-x="670" 
d="M16 0l123 700h120l201 -393l69 393h160l-123 -700h-120l-200 393l-70 -393h-160z" />
    <glyph glyph-name="O" unicode="O" horiz-adv-x="788" 
d="M352 -14q-152 0 -241.5 110t-61.5 264q27 156 143.5 255t279.5 99q150 0 239.5 -110t62.5 -264q-28 -156 -144 -255t-278 -99zM369 142q88 0 158.5 58t86.5 150t-31.5 150t-134.5 58t-155 -58t-84 -150q-16 -93 29 -150.5t131 -57.5z" />
    <glyph glyph-name="P" unicode="P" horiz-adv-x="590" 
d="M392 700q108 0 168 -71.5t45 -178.5q-15 -103 -91.5 -166.5t-195.5 -63.5h-103l-39 -220h-160l123 700h253zM445 460q8 41 -11.5 65.5t-67.5 24.5h-93l-32 -180h93q45 0 74 24t37 66z" />
    <glyph glyph-name="Q" unicode="Q" horiz-adv-x="793" 
d="M472 714q150 0 239.5 -110t62.5 -264q-24 -134 -119 -229l53 -69l-123 -92l-56 74q-82 -38 -177 -38q-147 0 -238.5 110.5t-64.5 263.5q27 154 146.5 254t276.5 100zM471 351l90 -117q41 51 53 116q16 92 -31.5 150t-134.5 58t-155 -58t-84 -150q-16 -93 29 -150.5
t131 -57.5q30 0 62 8l-83 109z" />
    <glyph glyph-name="R" unicode="R" horiz-adv-x="615" 
d="M617 450q-13 -70 -56 -121.5t-107 -76.5l102 -252h-162l-91 230h-87l-40 -230h-160l123 700h270q100 0 163 -75.5t45 -174.5zM457 460q7 39 -13.5 64.5t-60.5 25.5h-110l-32 -180h120q36 0 62.5 25.5t33.5 64.5z" />
    <glyph glyph-name="S" unicode="S" horiz-adv-x="586" 
d="M270 -14q-110 0 -178.5 46.5t-87.5 126.5l146 75q26 -94 134 -94q92 0 103 59q6 30 -20.5 47.5t-93.5 40.5q-99 33 -147.5 84.5t-32.5 144.5q16 98 90 148t171 50q86 0 149.5 -41t90.5 -117l-140 -74q-37 78 -114 78q-36 0 -57.5 -15t-26.5 -38q-6 -29 19.5 -47.5
t88.5 -41.5q19 -7 31.5 -11.5t30.5 -12t29.5 -14t27 -16t25 -19.5t20 -22.5t16 -27t9.5 -31t3.5 -36.5t-4.5 -43q-17 -96 -92.5 -147.5t-189.5 -51.5z" />
    <glyph glyph-name="T" unicode="T" horiz-adv-x="540" 
d="M609 700l-27 -154h-180l-96 -546h-160l96 546h-180l27 154h520z" />
    <glyph glyph-name="U" unicode="U" horiz-adv-x="641" 
d="M290 -14q-126 0 -194.5 67.5t-49.5 172.5l84 474h160l-81 -460q-17 -98 93 -98t127 98l81 460h160l-84 -474q-21 -119 -101 -179.5t-195 -60.5z" />
    <glyph glyph-name="V" unicode="V" horiz-adv-x="640" 
d="M174 0l-95 700h167l55 -515l235 515h183l-341 -700h-204z" />
    <glyph glyph-name="W" unicode="W" horiz-adv-x="998" 
d="M159 0l-70 700h160l37 -490l221 490h130l49 -490l207 490h174l-316 -700h-182l-42 413l-186 -413h-182z" />
    <glyph glyph-name="X" unicode="X" horiz-adv-x="620" 
d="M679 700l-260 -348l147 -352h-174l-85 202l-151 -202h-190l273 365l-140 335h174l78 -185l138 185h190z" />
    <glyph glyph-name="Y" unicode="Y" horiz-adv-x="610" 
d="M689 700l-294 -394l-54 -306h-160l54 307l-156 393h173l82 -236l164 236h191z" />
    <glyph glyph-name="Z" unicode="Z" horiz-adv-x="540" 
d="M589 700l-21 -124l-340 -422h270l-27 -154h-480l22 124l341 422h-262l27 154h470z" />
    <glyph glyph-name="bracketleft" unicode="[" horiz-adv-x="320" 
d="M372 656h-100l-109 -612h101l-26 -144h-250l159 900h250z" />
    <glyph glyph-name="backslash" unicode="\" horiz-adv-x="520" 
d="M370 -100l-243 900h58l243 -900h-58z" />
    <glyph glyph-name="bracketright" unicode="]" horiz-adv-x="320" 
d="M367 800l-159 -900h-250l26 144h99l109 612h-100l25 144h250z" />
    <glyph glyph-name="asciicircum" unicode="^" 
d="M423 700l136 -340h-156l-58 167l-122 -167h-164l256 340h108z" />
    <glyph glyph-name="underscore" unicode="_" horiz-adv-x="520" 
d="M-46 -181l25 144h460l-25 -144h-460z" />
    <glyph glyph-name="grave" unicode="`" horiz-adv-x="300" 
d="M335 560l-63 140h-173l95 -140h141z" />
    <glyph glyph-name="a" unicode="a" horiz-adv-x="623" 
d="M462 500h150l-88 -500h-150l6 34q-57 -48 -150 -48q-115 0 -167 83.5t-31 192.5q19 103 94.5 177.5t186.5 74.5q94 0 140 -67zM278 128q52 0 91 33t49 88v1q10 56 -17.5 89t-79.5 33t-90.5 -33t-48.5 -89t17 -89t79 -33z" />
    <glyph glyph-name="b" unicode="b" horiz-adv-x="623" 
d="M389 514q73 0 123.5 -40t70 -101.5t8.5 -132.5q-16 -104 -89 -179t-183 -75q-103 0 -148 71l-10 -57h-150l123 700h150l-43 -242q62 56 148 56zM441 250q10 57 -17.5 89.5t-78.5 32.5q-52 0 -91.5 -33t-48.5 -89t19 -89t80 -33q51 0 89 32.5t48 89.5z" />
    <glyph glyph-name="c" unicode="c" horiz-adv-x="535" 
d="M265 -14q-119 0 -185 79t-48 195q17 110 101 182t197 72q78 0 133 -35.5t80 -94.5l-137 -72q-23 54 -89 54q-50 0 -88 -31.5t-47 -82.5t18 -84.5t76 -33.5q64 0 104 56l121 -77q-38 -63 -101 -95t-135 -32z" />
    <glyph glyph-name="d" unicode="d" horiz-adv-x="625" 
d="M499 700h150l-123 -700h-150l6 36q-58 -50 -152 -50q-115 0 -167 83.5t-31 192.5q19 103 94.5 177.5t186.5 74.5q96 0 141 -69zM280 128q51 0 89.5 32t49.5 85l2 10q7 54 -20 85.5t-78 31.5q-53 0 -92 -33.5t-49 -88.5t17.5 -88.5t80.5 -33.5z" />
    <glyph glyph-name="e" unicode="e" horiz-adv-x="582" 
d="M331 514q111 0 176.5 -76t44.5 -188q-5 -32 -16 -60h-358q11 -70 103 -70q63 0 105 39l105 -86q-86 -87 -220 -87q-127 0 -192.5 79t-46.5 195q17 109 102 181.5t197 72.5zM199 304h212q-7 77 -90 77t-122 -77z" />
    <glyph glyph-name="f" unicode="f" horiz-adv-x="331" 
d="M387 570q-93 8 -106 -70h93l-25 -144h-93l-63 -356h-150l63 356h-67l25 144h67q19 110 89.5 165.5t191.5 48.5z" />
    <glyph glyph-name="g" unicode="g" horiz-adv-x="624" 
d="M467 500h146l-84 -475q-22 -126 -99.5 -182.5t-189.5 -56.5q-178 0 -233 121l134 70q29 -59 110 -59q54 0 88.5 27.5t43.5 79.5l6 35q-59 -54 -150 -54q-115 0 -169 79.5t-36 186.5q17 98 90.5 170t182.5 72q106 0 150 -73zM283 146q50 0 89 29t51 75l4 21
q4 46 -24.5 74.5t-78.5 28.5q-53 0 -92.5 -32t-48.5 -82t19 -82t81 -32z" />
    <glyph glyph-name="h" unicode="h" 
d="M388 514q81 0 127.5 -55.5t29.5 -151.5l-54 -307h-150l50 285q8 46 -12.5 68.5t-59.5 22.5q-41 0 -71 -25.5t-39 -77.5l-48 -273h-150l123 700h150l-43 -247q55 61 147 61z" />
    <glyph glyph-name="i" unicode="i" horiz-adv-x="260" 
d="M183 544q-38 0 -59.5 26.5t-15.5 63.5q6 36 36.5 63t67.5 27t59.5 -26.5t16.5 -63.5t-36.5 -63.5t-68.5 -26.5zM11 0l88 500h150l-88 -500h-150z" />
    <glyph glyph-name="j" unicode="j" horiz-adv-x="275" 
d="M227 724q37 0 59.5 -26.5t16.5 -63.5t-36.5 -63.5t-68.5 -26.5t-59.5 26.5t-15.5 63.5q6 36 36.5 63t67.5 27zM26 0l88 500h150l-88 -500q-21 -123 -84.5 -172t-183.5 -42l26 144q41 -2 63 14.5t29 55.5z" />
    <glyph glyph-name="k" unicode="k" horiz-adv-x="525" 
d="M564 500l-221 -250l138 -250h-160l-120 228l-40 -228h-150l123 700h150l-72 -407l179 207h173z" />
    <glyph glyph-name="l" unicode="l" horiz-adv-x="261" 
d="M12 0l56 319l72 411h150l-73 -418l-55 -312h-150z" />
    <glyph glyph-name="m" unicode="m" horiz-adv-x="850" 
d="M656 514q87 0 131 -57.5t28 -149.5l-54 -307h-150l51 294q7 38 -7.5 60t-49.5 22q-74 0 -93 -87l-51 -289h-150l51 294q7 38 -7.5 60t-49.5 22q-74 0 -93 -85l-51 -291h-150l88 500h150l-8 -45q52 59 139 59q89 0 122 -68q62 68 154 68z" />
    <glyph glyph-name="n" unicode="n" 
d="M388 514q81 0 127.5 -55.5t29.5 -151.5l-54 -307h-150l50 285q8 46 -12.5 68.5t-59.5 22.5q-40 0 -69.5 -24t-39.5 -73l-49 -279h-150l88 500h150l-8 -47q55 61 147 61z" />
    <glyph glyph-name="o" unicode="o" horiz-adv-x="590" 
d="M264 -14q-88 0 -146.5 43.5t-78 107t-5.5 133.5q21 103 101 173.5t199 70.5q120 0 181 -86.5t42 -193.5q-18 -101 -101 -174.5t-192 -73.5zM274 132q49 0 87 32.5t47 85.5q10 53 -16.5 85.5t-75.5 32.5t-85.5 -32.5t-46.5 -85.5q-9 -53 16 -85.5t74 -32.5z" />
    <glyph glyph-name="p" unicode="p" horiz-adv-x="623" 
d="M391 514q107 0 162 -82.5t38 -191.5q-15 -102 -88.5 -178t-184.5 -76q-100 0 -147 71l-45 -257h-150l123 700h150l-7 -42q61 56 149 56zM441 250q10 56 -16.5 89t-78.5 33q-51 0 -90 -32t-50 -85l-2 -9q-7 -54 20 -86t79 -32t90 33t48 89z" />
    <glyph glyph-name="q" unicode="q" horiz-adv-x="623" 
d="M462 500h150l-123 -700h-150l41 234q-57 -48 -150 -48q-77 0 -127.5 41.5t-66.5 103t-4 131.5q19 103 94.5 177.5t186.5 74.5q94 0 140 -67zM278 128q52 0 91 33t49 89t-17.5 89t-79.5 33t-90.5 -33t-48.5 -89t17 -89t79 -33z" />
    <glyph glyph-name="r" unicode="r" horiz-adv-x="371" 
d="M233 410q22 49 67 74.5t101 25.5l-29 -170q-33 5 -66.5 -2t-65 -35.5t-39.5 -76.5l1 6l-41 -232h-150l88 500h150z" />
    <glyph glyph-name="s" unicode="s" horiz-adv-x="468" 
d="M206 -14q-155 0 -211 123l135 68q22 -57 89 -57q51 0 55 26q3 16 -22 27t-61 21t-70.5 26t-54.5 52.5t-10 90.5q9 51 43 86t77 50t90 15q66 0 116.5 -28.5t74.5 -78.5l-135 -67q-18 44 -65 44q-45 0 -51 -31q-4 -20 20.5 -31t60.5 -19.5t71 -23t55 -51t10 -93.5
q-14 -76 -73 -112.5t-144 -36.5z" />
    <glyph glyph-name="t" unicode="t" horiz-adv-x="389" 
d="M264 356l-31 -177q-6 -31 17 -39t79 -4l-24 -136q-134 -15 -187.5 29t-34.5 150l31 177h-80l26 144h79l17 95l158 45l-25 -140h104l-26 -144h-103z" />
    <glyph glyph-name="u" unicode="u" 
d="M419 500h150l-88 -500h-150l8 47q-55 -61 -147 -61q-81 0 -127.5 55.5t-29.5 151.5l54 307h150l-50 -285q-8 -46 12.5 -68.5t59.5 -22.5q40 0 69.5 24t39.5 73z" />
    <glyph glyph-name="v" unicode="v" horiz-adv-x="510" 
d="M388 500h166l-268 -500h-150l-92 500h154l42 -306z" />
    <glyph glyph-name="w" unicode="w" horiz-adv-x="780" 
d="M649 500h165l-248 -500h-140l-33 263l-117 -263h-150l-72 500h150l31 -268l119 268h145l33 -268z" />
    <glyph glyph-name="x" unicode="x" horiz-adv-x="530" 
d="M568 500l-219 -251l137 -249h-162l-74 135l-118 -135h-176l226 259l-132 241h162l69 -127l111 127h176z" />
    <glyph glyph-name="y" unicode="y" horiz-adv-x="530" 
d="M408 500h166l-256 -485q-66 -125 -143.5 -173t-179.5 -42l24 140q54 0 82 17t54 65l-111 478h154l62 -306z" />
    <glyph glyph-name="z" unicode="z" horiz-adv-x="455" 
d="M464 500l-17 -100l-229 -260h193l-25 -140h-400l18 100l228 260h-173l25 140h380z" />
    <glyph glyph-name="braceleft" unicode="{" horiz-adv-x="361" 
d="M277 -107q-102 -8 -152.5 44.5t-33.5 149.5l25 142q6 34 -9.5 44t-51.5 6l26 145q35 -4 54 6t25 44l25 142q19 111 79.5 156.5t174.5 37.5l-26 -144q-35 4 -53.5 -6t-24.5 -44l-25 -142q-14 -84 -75 -122q46 -39 31 -123l-25 -142q-6 -34 10 -44t52 -6z" />
    <glyph glyph-name="bar" unicode="|" horiz-adv-x="270" 
d="M-19 -200l162 920h150l-162 -920h-150z" />
    <glyph glyph-name="braceright" unicode="}" horiz-adv-x="360" 
d="M119 809q102 8 152.5 -44.5t33.5 -149.5l-25 -142q-6 -34 9.5 -44t51.5 -6l-26 -145q-35 4 -54 -6t-25 -44l-25 -142q-19 -111 -79.5 -156.5t-174.5 -37.5l26 144q35 -4 53.5 6t24.5 44l25 142q14 84 75 122q-46 39 -31 123l25 142q6 34 -10 44t-52 6z" />
    <glyph glyph-name="asciitilde" unicode="~" horiz-adv-x="600" 
d="M159 244l-110 58q25 69 68.5 107.5t92 41t101.5 -18.5q69 -34 102.5 -32t62.5 52l109 -58q-25 -69 -68.5 -107.5t-92 -41t-100.5 18.5q-69 34 -103 32t-62 -52z" />
    <glyph glyph-name="exclamdown" unicode="&#xa1;" horiz-adv-x="280" 
d="M187 514q39 0 62 -29t16 -68t-38.5 -66t-73.5 -27q-39 0 -62 29t-16 68q7 40 38 66.5t74 26.5zM200 250l-14 -250l-35 -200h-180l35 200l74 250h120z" />
    <glyph glyph-name="cent" unicode="&#xa2;" horiz-adv-x="535" 
d="M293 234q64 0 104 56l121 -77q-38 -63 -101 -95t-135 -32q-33 0 -67 8l-46 -94h-62l56 113q-65 32 -96 98t-18 149q17 110 101 182t197 72q33 0 61 -6l46 92h62l-55 -111q69 -34 99 -105l-137 -72q-11 25 -31 38l-107 -216h8zM199 352q-12 -66 33 -99l106 213h-4
q-50 0 -88 -31.5t-47 -82.5z" />
    <glyph glyph-name="sterling" unicode="&#xa3;" 
d="M259 269l-20 -115h314l-27 -154h-540l27 154h66l20 115h-55l25 140h55l14 81q20 112 87.5 168t167.5 56q76 0 131.5 -39.5t78.5 -109.5l-144 -76q-24 69 -84 69q-29 0 -50 -18t-27 -50l-14 -81h195l-25 -140h-195z" />
    <glyph glyph-name="currency" unicode="&#xa4;" horiz-adv-x="540" 
d="M563 550l-82 -69q35 -58 22 -131q-13 -75 -68 -131l57 -69l-45 -37l-56 70q-65 -43 -140 -43q-72 0 -120 39l-81 -69l-38 40l82 70q-34 57 -21 130q13 75 67 130l-57 70l42 38l59 -72q64 44 141 44q71 0 118 -38l80 68zM276 282q31 0 52 18.5t27 49.5q5 31 -9.5 49.5
t-45.5 18.5t-52.5 -18.5t-26.5 -49.5q-6 -31 9 -49.5t46 -18.5z" />
    <glyph glyph-name="yen" unicode="&#xa5;" horiz-adv-x="610" 
d="M689 700l-248 -333h120l-16 -88h-155l-7 -40h155l-15 -88h-155l-27 -151h-160l27 151h-155l15 88h155l7 40h-155l16 88h120l-132 333h173l82 -236l164 236h191z" />
    <glyph glyph-name="brokenbar" unicode="&#xa6;" horiz-adv-x="270" 
d="M78 350l65 370h150l-65 -370h-150zM-19 -200l65 370h150l-65 -370h-150z" />
    <glyph glyph-name="section" unicode="&#xa7;" horiz-adv-x="556" 
d="M397 460q62 -24 101.5 -70t27.5 -112q-14 -78 -82 -123q24 -42 14 -103q-16 -85 -77.5 -124.5t-151.5 -39.5q-160 0 -214 124l134 73q28 -67 93 -67q58 0 65 36q2 9 -0.5 16.5t-9.5 15t-15 13t-21.5 12t-24 11l-28 12t-28.5 12.5q-61 27 -96.5 74t-23.5 114q14 76 82 117
q-21 43 -11 103q15 83 73.5 121.5t140.5 38.5q66 0 118.5 -32t79.5 -96l-126 -63q-28 61 -81 61q-48 0 -55 -38q-1 -10 1.5 -18.5t11.5 -16.5t16.5 -13t25.5 -13t28 -12t33 -13zM269 264q5 -2 34 -13t45 -19q21 15 25 40t-13 39.5t-55 29.5q-66 27 -70 29q-20 -15 -24 -40
q-7 -40 58 -66z" />
    <glyph glyph-name="dieresis" unicode="&#xa8;" horiz-adv-x="350" 
d="M146 540q-31 0 -49 22t-13 53t31 53t57 22t49 -22t13 -53t-31 -53t-57 -22zM336 540q-31 0 -49 22t-13 53t31 53t57 22t49 -22t13 -53t-31 -53t-57 -22z" />
    <glyph glyph-name="copyright" unicode="&#xa9;" horiz-adv-x="784" 
d="M355 -12q-96 0 -173 50t-114 135t-19 183q26 151 144.5 253.5t271.5 102.5q147 0 239.5 -109.5t66.5 -258.5q-27 -151 -145.5 -253.5t-270.5 -102.5zM357 24q136 0 243.5 95t131.5 231q23 134 -58 230t-212 96q-136 0 -243.5 -95t-130.5 -231q-24 -134 57 -230t212 -96z
M378 153q-84 0 -131.5 62.5t-32.5 144.5q14 81 76 134t143 53q52 0 95.5 -27t67.5 -72l-117 -61q-16 33 -57 33q-31 0 -54 -21t-28 -49t10 -49t43 -21q43 0 68 34l105 -65q-34 -46 -84 -71t-104 -25z" />
    <glyph glyph-name="guillemotleft" unicode="&#xab;" horiz-adv-x="562" 
d="M342 499l-140 -194l72 -186h-130l-74 190l137 190h135zM546 499l-143 -199l71 -181h-130l-72 185l139 195h135z" />
    <glyph glyph-name="logicalnot" unicode="&#xac;" horiz-adv-x="560" 
d="M550 420l-46 -260h-150l21 120h-330l25 140h480z" />
    <glyph glyph-name="registered" unicode="&#xae;" horiz-adv-x="784" 
d="M465 712q147 0 239.5 -109.5t66.5 -258.5q-27 -151 -145.5 -253.5t-270.5 -102.5q-96 0 -173 50t-114 135t-19 183q26 151 144.5 253.5t271.5 102.5zM732 350q23 134 -58 230t-212 96q-136 0 -243.5 -95t-130.5 -231q-24 -134 57 -230t212 -96q136 0 243.5 95t131.5 231z
M458 535q57 0 94.5 -41t27.5 -98q-13 -72 -68 -103l50 -128h-127l-30 102h-32l-18 -102h-122l65 370h160zM401 425l-11 -58h25q16 0 27 8t13 21q5 29 -29 29h-25z" />
    <glyph glyph-name="macron" unicode="&#xaf;" horiz-adv-x="341" 
d="M75 559l21 120h300l-21 -120h-300z" />
    <glyph glyph-name="degree" unicode="&#xb0;" horiz-adv-x="406" 
d="M244 470q-73 0 -115.5 52.5t-29.5 122.5q12 71 68 118t133 47q73 0 115 -52t30 -123q-13 -71 -68 -118t-133 -47zM263 590q22 0 38 13.5t20 36.5q4 22 -7 36t-33 14t-38 -14t-20 -36t7 -36t33 -14z" />
    <glyph glyph-name="plusminus" unicode="&#xb1;" horiz-adv-x="560" 
d="M397 520h161l-25 -140h-160l-25 -140h-140l25 140h-160l25 140h159l25 140h140zM13 40l25 140h460l-25 -140h-460z" />
    <glyph glyph-name="acute" unicode="&#xb4;" horiz-adv-x="300" 
d="M75 560h148l136 140h-184z" />
    <glyph glyph-name="uni00B5" unicode="&#xb5;" horiz-adv-x="620" 
d="M546 140h35l-25 -140h-65q-68 0 -104 45q-54 -59 -145 -59q-46 0 -80 18l-36 -204h-150l123 700h150l-51 -289q-6 -44 14.5 -65.5t58.5 -21.5q39 0 67.5 22.5t39.5 67.5l51 286h150l-58 -330q-5 -30 25 -30z" />
    <glyph glyph-name="paragraph" unicode="&#xb6;" horiz-adv-x="698" 
d="M728 700l-22 -130h-62l-135 -770h-140l135 770h-68l-135 -770h-140l81 460q-91 1 -144 70t-36 160q16 90 90 150t167 60h409z" />
    <glyph glyph-name="periodcentered" unicode="&#xb7;" horiz-adv-x="279" 
d="M139 251q-39 0 -61.5 29t-15.5 68q7 40 38.5 66.5t72.5 26.5q39 0 62 -29t16 -68q-7 -40 -38 -66.5t-74 -26.5z" />
    <glyph glyph-name="cedilla" unicode="&#xb8;" horiz-adv-x="265" 
d="M130 -46q60 -22 49 -86q-19 -101 -241 -84l18 104q93 -7 98 14q3 15 -50 20l14 78h120z" />
    <glyph glyph-name="guillemotright" unicode="&#xbb;" horiz-adv-x="563" 
d="M239 499l72 -185l-139 -195h-135l143 199l-71 181h130zM439 499l74 -190l-137 -190h-135l140 194l-72 186h130z" />
    <glyph glyph-name="onequarter" unicode="&#xbc;" horiz-adv-x="811" 
d="M588 700h105l-518 -700h-105zM163 571l-81 -22l-11 107l130 44h107l-71 -400h-122zM782 171l-19 -110h-36l-11 -61h-116l11 61h-180l19 110l156 229h134l-152 -229h42l11 61h116l-11 -61h36z" />
    <glyph glyph-name="onehalf" unicode="&#xbd;" horiz-adv-x="815" 
d="M588 700h105l-518 -700h-105zM163 571l-81 -22l-11 107l130 44h107l-71 -400h-122zM784 271q-5 -30 -26 -55t-62 -59l-55 -47h119l-19 -110h-306l13 77l173 151q2 2 5 4q31 27 35 42l1 4q2 12 -4.5 19t-19.5 7q-34 0 -63 -49l-95 60q60 99 174 99q67 0 104.5 -38
t25.5 -105z" />
    <glyph glyph-name="threequarters" unicode="&#xbe;" horiz-adv-x="883" 
d="M352 415q-23 -129 -175 -129q-117 0 -150 90l107 57q17 -42 56 -42q35 0 40 31q2 15 -7.5 22.5t-27.5 7.5h-25l-31 61l73 77h-129l19 110h281l-15 -85l-79 -83q36 -16 53 -46.5t10 -70.5zM660 700h105l-518 -700h-105zM854 171l-19 -110h-36l-11 -61h-116l11 61h-180
l19 110l156 229h134l-152 -229h42l11 61h116l-11 -61h36z" />
    <glyph glyph-name="questiondown" unicode="&#xbf;" horiz-adv-x="560" 
d="M337 514q39 0 61.5 -29t15.5 -68q-7 -40 -38.5 -66.5t-72.5 -26.5q-39 0 -62 29t-16 68q7 40 38 66.5t74 26.5zM370 250q-7 -46 -38.5 -84t-65 -59.5t-63.5 -49.5t-35 -57q-5 -26 10 -42t44 -16q45 0 74 23t51 65l130 -83q-38 -76 -112 -118.5t-162 -42.5q-97 0 -156 58
t-42 152q7 41 30 76t50.5 58.5t54.5 43t47 38.5t23 38h160z" />
    <glyph glyph-name="Agrave" unicode="&#xc0;" horiz-adv-x="680" 
d="M520 760h-141l-95 140h173zM461 0l-14 110h-260l-56 -110h-175l361 700h204l115 -700h-175zM262 260h167l-33 265z" />
    <glyph glyph-name="Aacute" unicode="&#xc1;" horiz-adv-x="680" 
d="M624 900l-136 -140h-148l100 140h184zM461 0l-14 110h-260l-56 -110h-175l361 700h204l115 -700h-175zM262 260h167l-33 265z" />
    <glyph glyph-name="Acircumflex" unicode="&#xc2;" horiz-adv-x="680" 
d="M435 805l-47 -55h-145l132 150h148l80 -150h-145zM461 0l-14 110h-260l-56 -110h-175l361 700h204l115 -700h-175zM262 260h167l-33 265z" />
    <glyph glyph-name="Atilde" unicode="&#xc3;" horiz-adv-x="680" 
d="M421 777q-23 16 -35 11t-17 -35h-120q5 59 28 98t54.5 52t66 8.5t65.5 -25.5q22 -16 34.5 -11t17.5 35h120q-5 -59 -28 -98t-54.5 -52t-66 -8.5t-65.5 25.5zM461 0l-14 110h-260l-56 -110h-175l361 700h204l115 -700h-175zM262 260h167l-33 265z" />
    <glyph glyph-name="Adieresis" unicode="&#xc4;" horiz-adv-x="680" 
d="M331 740q-31 0 -49 22t-13 53t31 53t57 22t49 -22t13 -53t-31 -53t-57 -22zM521 740q-31 0 -49 22t-13 53t31 53t57 22t49 -22t13 -53t-31 -53t-57 -22zM461 0l-14 110h-260l-56 -110h-175l361 700h204l115 -700h-175zM262 260h167l-33 265z" />
    <glyph glyph-name="Aring" unicode="&#xc5;" horiz-adv-x="680" 
d="M461 0l-14 110h-260l-56 -110h-175l357 693q-24 34 -16 81q10 54 52 87.5t100 33.5t91 -37.5t23 -91.5q-7 -45 -40 -78l113 -688h-175zM395 771q-2 -15 5 -25t24 -10q37 0 42 33q3 15 -5 25t-25 10q-34 0 -41 -33zM262 260h167l-33 265z" />
    <glyph glyph-name="AE" unicode="&#xc6;" horiz-adv-x="880" 
d="M897 546h-240l-21 -117h216l-27 -150h-215l-22 -125h245l-27 -154h-400l19 110h-204l-85 -110h-180l532 700h436zM337 260h115l34 193z" />
    <glyph glyph-name="Ccedilla" unicode="&#xc7;" horiz-adv-x="723" 
d="M368 142q115 0 182 89l130 -85q-100 -133 -264 -156l-6 -36q60 -22 49 -86q-19 -101 -241 -84l18 104q93 -7 98 14q3 15 -50 20l12 69q-132 22 -201 126t-46 243q26 154 142.5 254t272.5 100q100 0 171.5 -43t106.5 -120l-147 -77q-41 84 -148 84q-91 0 -156.5 -57
t-81.5 -151q-16 -93 28 -150.5t131 -57.5z" />
    <glyph glyph-name="Egrave" unicode="&#xc8;" horiz-adv-x="530" 
d="M458 760h-141l-95 140h173zM547 546h-275l-21 -117h251l-27 -150h-250l-22 -125h280l-27 -154h-440l123 700h435z" />
    <glyph glyph-name="Eacute" unicode="&#xc9;" horiz-adv-x="530" 
d="M562 900l-136 -140h-148l100 140h184zM547 546h-275l-21 -117h251l-27 -150h-250l-22 -125h280l-27 -154h-440l123 700h435z" />
    <glyph glyph-name="Ecircumflex" unicode="&#xca;" horiz-adv-x="530" 
d="M373 805l-47 -55h-145l132 150h148l80 -150h-145zM547 546h-275l-21 -117h251l-27 -150h-250l-22 -125h280l-27 -154h-440l123 700h435z" />
    <glyph glyph-name="Edieresis" unicode="&#xcb;" horiz-adv-x="530" 
d="M269 740q-31 0 -49 22t-13 53t31 53t57 22t49 -22t13 -53t-31 -53t-57 -22zM459 740q-31 0 -49 22t-13 53t31 53t57 22t49 -22t13 -53t-31 -53t-57 -22zM547 546h-275l-21 -117h251l-27 -150h-250l-22 -125h280l-27 -154h-440l123 700h435z" />
    <glyph glyph-name="Igrave" unicode="&#xcc;" horiz-adv-x="280" 
d="M320 760l-63 140h-173l95 -140h141zM139 700h160l-123 -700h-160z" />
    <glyph glyph-name="Iacute" unicode="&#xcd;" horiz-adv-x="280" 
d="M140 760h148l136 140h-184zM139 700h160l-123 -700h-160z" />
    <glyph glyph-name="Icircumflex" unicode="&#xce;" horiz-adv-x="280" 
d="M235 805l-47 -55h-145l132 150h148l80 -150h-145zM16 0l123 700h160l-123 -700h-160z" />
    <glyph glyph-name="Idieresis" unicode="&#xcf;" horiz-adv-x="280" 
d="M131 740q-31 0 -49 22t-13 53t31 53t57 22t49 -22t13 -53t-31 -53t-57 -22zM321 740q-31 0 -49 22t-13 53t31 53t57 22t49 -22t13 -53t-31 -53t-57 -22zM139 700h160l-123 -700h-160z" />
    <glyph glyph-name="Eth" unicode="&#xd0;" horiz-adv-x="753" 
d="M460 700q138 0 221.5 -106t57.5 -254q-26 -149 -138 -244.5t-264 -95.5h-280l47 268h-80l25 144h80l51 288h280zM585 355q16 89 -26 140t-126 51h-120l-24 -134h140l-25 -144h-140l-20 -114h110q89 0 152 55t79 146z" />
    <glyph glyph-name="Ntilde" unicode="&#xd1;" horiz-adv-x="670" 
d="M244 753q5 59 28 98t54.5 52t66 8.5t65.5 -25.5q22 -16 34.5 -11t17.5 35h120q-5 -59 -28 -98t-54.5 -52t-66 -8.5t-65.5 25.5q-23 16 -35 11t-17 -35h-120zM16 0l123 700h120l201 -393l69 393h160l-123 -700h-120l-200 393l-70 -393h-160z" />
    <glyph glyph-name="Ograve" unicode="&#xd2;" horiz-adv-x="788" 
d="M576 770l-63 140h-173l95 -140h141zM352 -14q-152 0 -241.5 110t-61.5 264q27 156 143.5 255t279.5 99q150 0 239.5 -110t62.5 -264q-28 -156 -144 -255t-278 -99zM369 142q88 0 158.5 58t86.5 150t-31.5 150t-134.5 58t-155 -58t-84 -150q-16 -93 29 -150.5t131 -57.5z
" />
    <glyph glyph-name="Oacute" unicode="&#xd3;" horiz-adv-x="788" 
d="M396 770h148l136 140h-184zM352 -14q-152 0 -241.5 110t-61.5 264q27 156 143.5 255t279.5 99q150 0 239.5 -110t62.5 -264q-28 -156 -144 -255t-278 -99zM369 142q88 0 158.5 58t86.5 150t-31.5 150t-134.5 58t-155 -58t-84 -150q-16 -93 29 -150.5t131 -57.5z" />
    <glyph glyph-name="Ocircumflex" unicode="&#xd4;" horiz-adv-x="788" 
d="M491 815l-47 -55h-145l132 150h148l80 -150h-145zM472 714q150 0 239.5 -110t62.5 -264q-28 -156 -144 -255t-278 -99q-152 0 -241.5 110t-61.5 264q27 156 143.5 255t279.5 99zM614 350q16 92 -31.5 150t-134.5 58t-155 -58t-84 -150q-16 -93 29 -150.5t131 -57.5
q88 0 158.5 58t86.5 150z" />
    <glyph glyph-name="Otilde" unicode="&#xd5;" horiz-adv-x="788" 
d="M305 763q5 59 28 98t54.5 52t66 8.5t65.5 -25.5q22 -16 34.5 -11t17.5 35h120q-5 -59 -28 -98t-54.5 -52t-66 -8.5t-65.5 25.5q-23 16 -35 11t-17 -35h-120zM352 -14q-152 0 -241.5 110t-61.5 264q27 156 143.5 255t279.5 99q150 0 239.5 -110t62.5 -264
q-28 -156 -144 -255t-278 -99zM369 142q88 0 158.5 58t86.5 150t-31.5 150t-134.5 58t-155 -58t-84 -150q-16 -93 29 -150.5t131 -57.5z" />
    <glyph glyph-name="Odieresis" unicode="&#xd6;" horiz-adv-x="788" 
d="M387 750q-31 0 -49 22t-13 53t31 53t57 22t49 -22t13 -53t-31 -53t-57 -22zM577 750q-31 0 -49 22t-13 53t31 53t57 22t49 -22t13 -53t-31 -53t-57 -22zM352 -14q-152 0 -241.5 110t-61.5 264q27 156 143.5 255t279.5 99q150 0 239.5 -110t62.5 -264q-28 -156 -144 -255
t-278 -99zM369 142q88 0 158.5 58t86.5 150t-31.5 150t-134.5 58t-155 -58t-84 -150q-16 -93 29 -150.5t131 -57.5z" />
    <glyph glyph-name="multiply" unicode="&#xd7;" horiz-adv-x="525" 
d="M513 464l-135 -117l95 -111l-109 -98l-96 114l-131 -114l-89 98l134 117l-94 111l108 98l96 -113l131 113z" />
    <glyph glyph-name="Oslash" unicode="&#xd8;" horiz-adv-x="793" 
d="M716 604q43 -51 60 -119.5t3 -144.5q-28 -156 -144 -255t-278 -99q-109 0 -190 60l-59 -60l-73 46l73 74q-79 108 -54 254q27 156 143.5 255t279.5 99q101 0 177 -53l52 53l73 -46zM214 350q-12 -73 12 -124l309 315q-36 17 -82 17q-87 0 -155 -58t-84 -150zM619 350
q13 80 -20 135l-316 -321q39 -22 91 -22q88 0 158.5 58t86.5 150z" />
    <glyph glyph-name="Ugrave" unicode="&#xd9;" horiz-adv-x="641" 
d="M501 760l-63 140h-173l95 -140h141zM290 -14q-126 0 -194.5 67.5t-49.5 172.5l84 474h160l-81 -460q-17 -98 93 -98t127 98l81 460h160l-84 -474q-21 -119 -101 -179.5t-195 -60.5z" />
    <glyph glyph-name="Uacute" unicode="&#xda;" horiz-adv-x="641" 
d="M321 760h148l136 140h-184zM290 -14q-126 0 -194.5 67.5t-49.5 172.5l84 474h160l-81 -460q-17 -98 93 -98t127 98l81 460h160l-84 -474q-21 -119 -101 -179.5t-195 -60.5z" />
    <glyph glyph-name="Ucircumflex" unicode="&#xdb;" horiz-adv-x="641" 
d="M416 805l-47 -55h-145l132 150h148l80 -150h-145zM510 700h160l-84 -474q-21 -119 -101 -179.5t-195 -60.5q-126 0 -194.5 67.5t-49.5 172.5l84 474h160l-81 -460q-17 -98 93 -98t127 98z" />
    <glyph glyph-name="Udieresis" unicode="&#xdc;" horiz-adv-x="641" 
d="M312 740q-31 0 -49 22t-13 53t31 53t57 22t49 -22t13 -53t-31 -53t-57 -22zM502 740q-31 0 -49 22t-13 53t31 53t57 22t49 -22t13 -53t-31 -53t-57 -22zM290 -14q-126 0 -194.5 67.5t-49.5 172.5l84 474h160l-81 -460q-17 -98 93 -98t127 98l81 460h160l-84 -474
q-21 -119 -101 -179.5t-195 -60.5z" />
    <glyph glyph-name="Yacute" unicode="&#xdd;" horiz-adv-x="610" 
d="M589 900l-136 -140h-148l100 140h184zM689 700l-294 -394l-54 -306h-160l54 307l-156 393h173l82 -236l164 236h191z" />
    <glyph glyph-name="Thorn" unicode="&#xde;" horiz-adv-x="590" 
d="M373 590q108 0 168 -71.5t45 -178.5q-15 -103 -91.5 -166.5t-195.5 -63.5h-104l-19 -110h-160l123 700h160l-19 -110h93zM426 350q8 41 -11.5 65.5t-67.5 24.5h-94l-31 -180h93q45 0 74 24t37 66z" />
    <glyph glyph-name="germandbls" unicode="&#xdf;" horiz-adv-x="544" 
d="M231 -7l23 132q101 -15 112 49q5 28 -36.5 105.5t-35.5 109.5q5 28 39.5 73.5t38.5 61.5q6 25 -8 39.5t-41 14.5q-60 0 -71 -63l-91 -515h-150l91 515q34 199 246 199q86 0 138 -50.5t39 -122.5q-7 -38 -40.5 -86t-36.5 -66q-4 -22 14.5 -63.5t36 -92.5t10.5 -97
q-8 -49 -36 -84t-90.5 -53t-151.5 -6z" />
    <glyph glyph-name="agrave" unicode="&#xe0;" horiz-adv-x="623" 
d="M445 560h-141l-95 140h173zM462 500h150l-88 -500h-150l6 34q-57 -48 -150 -48q-115 0 -167 83.5t-31 192.5q19 103 94.5 177.5t186.5 74.5q94 0 140 -67zM278 128q52 0 91 33t49 88v1q10 56 -17.5 89t-79.5 33t-90.5 -33t-48.5 -89t17 -89t79 -33z" />
    <glyph glyph-name="aacute" unicode="&#xe1;" horiz-adv-x="623" 
d="M549 700l-136 -140h-148l100 140h184zM462 500h150l-88 -500h-150l6 34q-57 -48 -150 -48q-115 0 -167 83.5t-31 192.5q19 103 94.5 177.5t186.5 74.5q94 0 140 -67zM278 128q52 0 91 33t49 88v1q10 56 -17.5 89t-79.5 33t-90.5 -33t-48.5 -89t17 -89t79 -33z" />
    <glyph glyph-name="acircumflex" unicode="&#xe2;" horiz-adv-x="623" 
d="M360 605l-47 -55h-145l132 150h148l80 -150h-145zM462 500h150l-88 -500h-150l6 34q-57 -48 -150 -48q-115 0 -167 83.5t-31 192.5q19 103 94.5 177.5t186.5 74.5q94 0 140 -67zM278 128q52 0 91 33t49 88v1q10 56 -17.5 89t-79.5 33t-90.5 -33t-48.5 -89t17 -89t79 -33z
" />
    <glyph glyph-name="atilde" unicode="&#xe3;" horiz-adv-x="623" 
d="M346 577q-23 16 -35 11t-17 -35h-120q5 59 28 98t54.5 52t66 8.5t65.5 -25.5q22 -16 34.5 -11t17.5 35h120q-5 -59 -28 -98t-54.5 -52t-66 -8.5t-65.5 25.5zM462 500h150l-88 -500h-150l6 34q-57 -48 -150 -48q-115 0 -167 83.5t-31 192.5q19 103 94.5 177.5t186.5 74.5
q94 0 140 -67zM278 128q52 0 91 33t49 88v1q10 56 -17.5 89t-79.5 33t-90.5 -33t-48.5 -89t17 -89t79 -33z" />
    <glyph glyph-name="adieresis" unicode="&#xe4;" horiz-adv-x="623" 
d="M256 540q-31 0 -49 22t-13 53t31 53t57 22t49 -22t13 -53t-31 -53t-57 -22zM446 540q-31 0 -49 22t-13 53t31 53t57 22t49 -22t13 -53t-31 -53t-57 -22zM462 500h150l-88 -500h-150l6 34q-57 -48 -150 -48q-115 0 -167 83.5t-31 192.5q19 103 94.5 177.5t186.5 74.5
q94 0 140 -67zM278 128q52 0 91 33t49 88v1q10 56 -17.5 89t-79.5 33t-90.5 -33t-48.5 -89t17 -89t79 -33z" />
    <glyph glyph-name="aring" unicode="&#xe5;" horiz-adv-x="623" 
d="M353 535q-57 0 -90 38t-24 91q10 54 52 87.5t100 33.5t91 -37.5t23 -91.5q-9 -54 -50.5 -87.5t-101.5 -33.5zM337 661q-2 -15 5 -25t24 -10q37 0 42 33q3 15 -5 25t-25 10q-34 0 -41 -33zM462 500h150l-88 -500h-150l6 34q-57 -48 -150 -48q-115 0 -167 83.5t-31 192.5
q19 103 94.5 177.5t186.5 74.5q94 0 140 -67zM278 128q52 0 91 33t49 88v1q10 56 -17.5 89t-79.5 33t-90.5 -33t-48.5 -89t17 -89t79 -33z" />
    <glyph glyph-name="ae" unicode="&#xe6;" horiz-adv-x="970" 
d="M749 514q104 0 157 -74.5t34 -189.5q-5 -32 -16 -60h-358q11 -70 103 -70q63 0 105 39l105 -86q-86 -87 -200 -87q-103 0 -156 63l-9 -49h-140l8 45q-64 -59 -152 -59q-115 0 -167 83.5t-31 192.5q19 103 94.5 177.5t186.5 74.5q96 0 141 -61l8 47h140l-6 -32
q65 46 153 46zM587 304h212q-7 77 -90 77t-122 -77zM278 128q52 0 91 33t49 88v1q10 56 -17.5 89t-79.5 33q-53 0 -92 -33.5t-49 -88.5t17.5 -88.5t80.5 -33.5z" />
    <glyph glyph-name="ccedilla" unicode="&#xe7;" horiz-adv-x="535" 
d="M276 134q64 0 104 56l121 -77q-63 -102 -183 -122l-6 -37q60 -22 49 -86q-19 -101 -241 -84l18 104q93 -7 98 14q3 15 -50 20l13 71q-90 22 -136 95.5t-31 171.5q17 110 101 182t197 72q78 0 133 -35.5t80 -94.5l-137 -72q-23 54 -89 54q-50 0 -88 -31.5t-47 -82.5
t18 -84.5t76 -33.5z" />
    <glyph glyph-name="egrave" unicode="&#xe8;" horiz-adv-x="582" 
d="M448 565h-141l-95 140h173zM331 514q111 0 176.5 -76t44.5 -188q-5 -32 -16 -60h-358q11 -70 103 -70q63 0 105 39l105 -86q-86 -87 -220 -87q-127 0 -192.5 79t-46.5 195q17 109 102 181.5t197 72.5zM199 304h212q-7 77 -90 77t-122 -77z" />
    <glyph glyph-name="eacute" unicode="&#xe9;" horiz-adv-x="582" 
d="M552 705l-136 -140h-148l100 140h184zM331 514q111 0 176.5 -76t44.5 -188q-5 -32 -16 -60h-358q11 -70 103 -70q63 0 105 39l105 -86q-86 -87 -220 -87q-127 0 -192.5 79t-46.5 195q17 109 102 181.5t197 72.5zM199 304h212q-7 77 -90 77t-122 -77z" />
    <glyph glyph-name="ecircumflex" unicode="&#xea;" horiz-adv-x="582" 
d="M363 610l-47 -55h-145l132 150h148l80 -150h-145zM331 514q111 0 176.5 -76t44.5 -188q-5 -32 -16 -60h-358q11 -70 103 -70q63 0 105 39l105 -86q-86 -87 -220 -87q-127 0 -192.5 79t-46.5 195q17 109 102 181.5t197 72.5zM199 304h212q-7 77 -90 77t-122 -77z" />
    <glyph glyph-name="edieresis" unicode="&#xeb;" horiz-adv-x="582" 
d="M259 545q-31 0 -49 22t-13 53t31 53t57 22t49 -22t13 -53t-31 -53t-57 -22zM449 545q-31 0 -49 22t-13 53t31 53t57 22t49 -22t13 -53t-31 -53t-57 -22zM331 514q111 0 176.5 -76t44.5 -188q-5 -32 -16 -60h-358q11 -70 103 -70q63 0 105 39l105 -86q-86 -87 -220 -87
q-127 0 -192.5 79t-46.5 195q17 109 102 181.5t197 72.5zM199 304h212q-7 77 -90 77t-122 -77z" />
    <glyph glyph-name="igrave" unicode="&#xec;" horiz-adv-x="260" 
d="M253 550l-24 150h-160l45 -150h139zM161 0h-150l88 500h150z" />
    <glyph glyph-name="iacute" unicode="&#xed;" horiz-adv-x="260" 
d="M108 550h144l92 150h-170zM11 0l88 500h150l-88 -500h-150z" />
    <glyph glyph-name="icircumflex" unicode="&#xee;" horiz-adv-x="260" 
d="M194 594l-31 -44h-150l122 150h148l70 -150h-140zM11 0l88 500h150l-88 -500h-150z" />
    <glyph glyph-name="idieresis" unicode="&#xef;" horiz-adv-x="260" 
d="M92 545q-31 0 -49 22t-13 53t31 53t57 22t49 -22t13 -53t-31 -53t-57 -22zM272 545q-31 0 -49 22t-13 53t31 53t57 22t49 -22t13 -53t-31 -53t-57 -22zM11 0l88 500h150l-88 -500h-150z" />
    <glyph glyph-name="eth" unicode="&#xf0;" horiz-adv-x="569" 
d="M502 370q44 -76 32 -150q-19 -110 -99.5 -171t-186.5 -61q-68 0 -122.5 30.5t-82.5 89t-15 132.5q16 91 90 152.5t168 61.5l-37 68l-144 -60l18 105l83 34l-54 99h157l26 -45l142 59l-18 -105l-78 -32zM384 230q6 34 -8 59q-23 39 -78 39q-46 0 -79.5 -26.5t-40.5 -71.5
q-9 -48 14.5 -75t70.5 -27t79.5 27t41.5 75z" />
    <glyph glyph-name="ntilde" unicode="&#xf1;" 
d="M337 587q-23 16 -35 11t-17 -35h-120q5 59 28 98t54.5 52t66 8.5t65.5 -25.5q22 -16 34.5 -11t17.5 35h120q-5 -59 -28 -98t-54.5 -52t-66 -8.5t-65.5 25.5zM388 514q81 0 127.5 -55.5t29.5 -151.5l-54 -307h-150l50 285q8 46 -12.5 68.5t-59.5 22.5q-40 0 -69.5 -24
t-39.5 -73l-49 -279h-150l88 500h150l-8 -47q55 61 147 61z" />
    <glyph glyph-name="ograve" unicode="&#xf2;" horiz-adv-x="590" 
d="M442 570l-63 140h-173l95 -140h141zM264 -14q-88 0 -146.5 43.5t-78 107t-5.5 133.5q21 103 101 173.5t199 70.5q120 0 181 -86.5t42 -193.5q-18 -101 -101 -174.5t-192 -73.5zM274 132q49 0 87 32.5t47 85.5q10 53 -16.5 85.5t-75.5 32.5t-85.5 -32.5t-46.5 -85.5
q-9 -53 16 -85.5t74 -32.5z" />
    <glyph glyph-name="oacute" unicode="&#xf3;" horiz-adv-x="590" 
d="M262 570h148l136 140h-184zM264 -14q-88 0 -146.5 43.5t-78 107t-5.5 133.5q21 103 101 173.5t199 70.5q120 0 181 -86.5t42 -193.5q-18 -101 -101 -174.5t-192 -73.5zM274 132q49 0 87 32.5t47 85.5q10 53 -16.5 85.5t-75.5 32.5t-85.5 -32.5t-46.5 -85.5
q-9 -53 16 -85.5t74 -32.5z" />
    <glyph glyph-name="ocircumflex" unicode="&#xf4;" horiz-adv-x="590" 
d="M357 615l-47 -55h-145l132 150h148l80 -150h-145zM334 514q120 0 181 -86.5t42 -193.5q-18 -101 -101 -174.5t-192 -73.5q-88 0 -146.5 43.5t-78 107t-5.5 133.5q21 103 101 173.5t199 70.5zM408 250q10 53 -16.5 85.5t-75.5 32.5t-85.5 -32.5t-46.5 -85.5
q-9 -53 16 -85.5t74 -32.5t87 32.5t47 85.5z" />
    <glyph glyph-name="otilde" unicode="&#xf5;" horiz-adv-x="590" 
d="M171 563q5 59 28 98t54.5 52t66 8.5t65.5 -25.5q22 -16 34.5 -11t17.5 35h120q-5 -59 -28 -98t-54.5 -52t-66 -8.5t-65.5 25.5q-23 16 -35 11t-17 -35h-120zM264 -14q-88 0 -146.5 43.5t-78 107t-5.5 133.5q21 103 101 173.5t199 70.5q120 0 181 -86.5t42 -193.5
q-18 -101 -101 -174.5t-192 -73.5zM274 132q49 0 87 32.5t47 85.5q10 53 -16.5 85.5t-75.5 32.5t-85.5 -32.5t-46.5 -85.5q-9 -53 16 -85.5t74 -32.5z" />
    <glyph glyph-name="odieresis" unicode="&#xf6;" horiz-adv-x="590" 
d="M253 550q-31 0 -49 22t-13 53t31 53t57 22t49 -22t13 -53t-31 -53t-57 -22zM443 550q-31 0 -49 22t-13 53t31 53t57 22t49 -22t13 -53t-31 -53t-57 -22zM264 -14q-88 0 -146.5 43.5t-78 107t-5.5 133.5q21 103 101 173.5t199 70.5q120 0 181 -86.5t42 -193.5
q-18 -101 -101 -174.5t-192 -73.5zM274 132q49 0 87 32.5t47 85.5q10 53 -16.5 85.5t-75.5 32.5t-85.5 -32.5t-46.5 -85.5q-9 -53 16 -85.5t74 -32.5z" />
    <glyph glyph-name="divide" unicode="&#xf7;" horiz-adv-x="560" 
d="M318 457q-38 0 -60.5 27t-15.5 65t37 63t68 25t60 -27t15 -65t-36.5 -63t-67.5 -25zM45 280l25 140h480l-25 -140h-480zM248 63q-38 0 -60 27t-15 65t37 63t68 25t60 -27t15 -65t-37 -63t-68 -25z" />
    <glyph glyph-name="oslash" unicode="&#xf8;" horiz-adv-x="590" 
d="M568 475l-50 -51q58 -83 39 -190q-18 -103 -98 -175.5t-195 -72.5q-81 0 -141 39l-34 -35l-63 34l48 48q-63 84 -40 198q21 103 101 173.5t199 70.5q80 0 135 -41l36 37zM184 250q-6 -37 4 -62l170 172q-21 8 -42 8q-49 0 -85.5 -32.5t-46.5 -85.5zM408 250q6 34 -3 60
l-169 -172q16 -6 38 -6q49 0 87 32.5t47 85.5z" />
    <glyph glyph-name="ugrave" unicode="&#xf9;" 
d="M424 560h-141l-95 140h173zM419 500h150l-88 -500h-150l8 47q-55 -61 -147 -61q-81 0 -127.5 55.5t-29.5 151.5l54 307h150l-50 -285q-8 -46 12.5 -68.5t59.5 -22.5q40 0 69.5 24t39.5 73z" />
    <glyph glyph-name="uacute" unicode="&#xfa;" 
d="M528 700l-136 -140h-148l100 140h184zM419 500h150l-88 -500h-150l8 47q-55 -61 -147 -61q-81 0 -127.5 55.5t-29.5 151.5l54 307h150l-50 -285q-8 -46 12.5 -68.5t59.5 -22.5q40 0 69.5 24t39.5 73z" />
    <glyph glyph-name="ucircumflex" unicode="&#xfb;" 
d="M339 605l-47 -55h-145l132 150h148l80 -150h-145zM419 500h150l-88 -500h-150l8 47q-55 -61 -147 -61q-81 0 -127.5 55.5t-29.5 151.5l54 307h150l-50 -285q-8 -46 12.5 -68.5t59.5 -22.5q40 0 69.5 24t39.5 73z" />
    <glyph glyph-name="udieresis" unicode="&#xfc;" 
d="M235 540q-31 0 -49 22t-13 53t31 53t57 22t49 -22t13 -53t-31 -53t-57 -22zM425 540q-31 0 -49 22t-13 53t31 53t57 22t49 -22t13 -53t-31 -53t-57 -22zM419 500h150l-88 -500h-150l8 47q-55 -61 -147 -61q-81 0 -127.5 55.5t-29.5 151.5l54 307h150l-50 -285
q-8 -46 12.5 -68.5t59.5 -22.5q40 0 69.5 24t39.5 73z" />
    <glyph glyph-name="yacute" unicode="&#xfd;" horiz-adv-x="530" 
d="M500 700l-136 -140h-148l100 140h184zM408 500h166l-256 -485q-66 -125 -143.5 -173t-179.5 -42l24 140q54 0 82 17t54 65l-111 478h154l62 -306z" />
    <glyph glyph-name="thorn" unicode="&#xfe;" horiz-adv-x="623" 
d="M391 514q107 0 162 -82.5t38 -191.5q-15 -102 -88.5 -178t-184.5 -76q-100 0 -147 71l-45 -257h-150l158 900h150l-42 -242q61 56 149 56zM441 250q10 56 -16.5 89t-78.5 33q-53 0 -92 -33.5t-49 -88.5t17.5 -88.5t80.5 -33.5q52 0 90 33t48 89z" />
    <glyph glyph-name="ydieresis" unicode="&#xff;" horiz-adv-x="530" 
d="M207 540q-31 0 -49 22t-13 53t31 53t57 22t49 -22t13 -53t-31 -53t-57 -22zM397 540q-31 0 -49 22t-13 53t31 53t57 22t49 -22t13 -53t-31 -53t-57 -22zM408 500h166l-256 -485q-66 -125 -143.5 -173t-179.5 -42l24 140q54 0 82 17t54 65l-111 478h154l62 -306z" />
    <glyph glyph-name="Amacron" unicode="&#x100;" horiz-adv-x="680" 
d="M601 879l-21 -120h-300l21 120h300zM461 0l-14 110h-260l-56 -110h-175l361 700h204l115 -700h-175zM262 260h167l-33 265z" />
    <glyph glyph-name="amacron" unicode="&#x101;" horiz-adv-x="623" 
d="M526 679l-21 -120h-300l21 120h300zM462 500h150l-88 -500h-150l6 34q-57 -48 -150 -48q-115 0 -167 83.5t-31 192.5q19 103 94.5 177.5t186.5 74.5q94 0 140 -67zM278 128q52 0 91 33t49 88v1q10 56 -17.5 89t-79.5 33t-90.5 -33t-48.5 -89t17 -89t79 -33z" />
    <glyph glyph-name="Abreve" unicode="&#x102;" horiz-adv-x="680" 
d="M434 742q-85 0 -127 40.5t-29 109.5h132q-4 -22 5.5 -34t29.5 -12q43 0 51 46h132q-11 -72 -60.5 -111t-133.5 -39zM461 0l-14 110h-260l-56 -110h-175l361 700h204l115 -700h-175zM262 260h167l-33 265z" />
    <glyph glyph-name="abreve" unicode="&#x103;" horiz-adv-x="623" 
d="M359 542q-85 0 -127 40.5t-29 109.5h132q-4 -22 5.5 -34t29.5 -12q43 0 51 46h132q-11 -72 -60.5 -111t-133.5 -39zM462 500h150l-88 -500h-150l6 34q-57 -48 -150 -48q-115 0 -167 83.5t-31 192.5q19 103 94.5 177.5t186.5 74.5q94 0 140 -67zM278 128q52 0 91 33t49 88
v1q10 56 -17.5 89t-79.5 33t-90.5 -33t-48.5 -89t17 -89t79 -33z" />
    <glyph glyph-name="Aogonek" unicode="&#x104;" horiz-adv-x="680" 
d="M576 -78q-3 -12 2 -20.5t16 -8.5q12 0 24 4l-17 -94q-45 -17 -91 -17q-43 0 -68 27.5t-16 73.5q11 57 80 113h-45l-14 110h-260l-56 -110h-175l361 700h204l115 -700q-52 -46 -60 -78zM262 260h167l-33 265z" />
    <glyph glyph-name="aogonek" unicode="&#x105;" horiz-adv-x="623" 
d="M462 500h150l-88 -500q-24 -22 -42 -48.5t-19 -43.5q-2 -19 18 -19q12 0 24 4l-16 -90q-35 -17 -79 -17q-48 0 -76.5 24t-19.5 69q9 52 86 121h-26l6 34q-57 -48 -150 -48q-115 0 -167 83.5t-31 192.5q19 103 94.5 177.5t186.5 74.5q94 0 140 -67zM278 128q52 0 91 33
t49 88v1q10 56 -17.5 89t-79.5 33t-90.5 -33t-48.5 -89t17 -89t79 -33z" />
    <glyph glyph-name="Cacute" unicode="&#x106;" horiz-adv-x="723" 
d="M397 770h148l136 140h-184zM359 -14q-160 0 -248 109t-62 265q26 154 142.5 254t272.5 100q100 0 171.5 -43t106.5 -120l-147 -77q-41 84 -148 84q-91 0 -156.5 -57t-81.5 -151q-16 -93 28 -150.5t131 -57.5q115 0 182 89l130 -85q-57 -75 -141 -117.5t-180 -42.5z" />
    <glyph glyph-name="cacute" unicode="&#x107;" horiz-adv-x="535" 
d="M249 560h148l136 140h-184zM265 -14q-119 0 -185 79t-48 195q17 110 101 182t197 72q78 0 133 -35.5t80 -94.5l-137 -72q-23 54 -89 54q-50 0 -88 -31.5t-47 -82.5t18 -84.5t76 -33.5q64 0 104 56l121 -77q-38 -63 -101 -95t-135 -32z" />
    <glyph glyph-name="Cdotaccent" unicode="&#x10a;" horiz-adv-x="723" 
d="M485 755q-35 0 -56 25.5t-14 59.5q6 35 35.5 60t63.5 25q35 0 56 -25.5t15 -59.5q-7 -35 -36.5 -60t-63.5 -25zM359 -14q-160 0 -248 109t-62 265q26 154 142.5 254t272.5 100q100 0 171.5 -43t106.5 -120l-147 -77q-41 84 -148 84q-91 0 -156.5 -57t-81.5 -151
q-16 -93 28 -150.5t131 -57.5q115 0 182 89l130 -85q-57 -75 -141 -117.5t-180 -42.5z" />
    <glyph glyph-name="cdotaccent" unicode="&#x10b;" horiz-adv-x="535" 
d="M337 545q-35 0 -56 25.5t-14 59.5q6 35 35.5 60t63.5 25q35 0 56 -25.5t15 -59.5q-7 -35 -36.5 -60t-63.5 -25zM265 -14q-119 0 -185 79t-48 195q17 110 101 182t197 72q78 0 133 -35.5t80 -94.5l-137 -72q-23 54 -89 54q-50 0 -88 -31.5t-47 -82.5t18 -84.5t76 -33.5
q64 0 104 56l121 -77q-38 -63 -101 -95t-135 -32z" />
    <glyph glyph-name="Ccaron" unicode="&#x10c;" horiz-adv-x="723" 
d="M406 760l-80 150h140l25 -55l45 55h150l-132 -150h-148zM368 142q115 0 182 89l130 -85q-57 -75 -141 -117.5t-180 -42.5q-160 0 -248 109t-62 265q26 154 142.5 254t272.5 100q100 0 171.5 -43t106.5 -120l-147 -77q-41 84 -148 84q-91 0 -156.5 -57t-81.5 -151
q-16 -93 28 -150.5t131 -57.5z" />
    <glyph glyph-name="ccaron" unicode="&#x10d;" horiz-adv-x="535" 
d="M258 550l-80 150h140l25 -55l45 55h150l-132 -150h-148zM276 134q64 0 104 56l121 -77q-38 -63 -101 -95t-135 -32q-119 0 -185 79t-48 195q17 110 101 182t197 72q78 0 133 -35.5t80 -94.5l-137 -72q-23 54 -89 54q-50 0 -88 -31.5t-47 -82.5t18 -84.5t76 -33.5z" />
    <glyph glyph-name="Dcaron" unicode="&#x10e;" horiz-adv-x="712" 
d="M329 750l-80 150h140l25 -55l45 55h150l-132 -150h-148zM419 700q138 0 221.5 -106t57.5 -254q-26 -149 -138 -244.5t-264 -95.5h-280l123 700h280zM544 355q16 89 -26 140t-126 51h-120l-69 -392h110q89 0 152 55t79 146z" />
    <glyph glyph-name="dcaron" unicode="&#x10f;" horiz-adv-x="751" 
d="M454 445l45 255h150l-123 -700h-150l6 36q-58 -50 -152 -50q-115 0 -167 83.5t-31 192.5q19 103 94.5 177.5t186.5 74.5q96 0 141 -69zM700 700h140l-67 -210h-120zM280 128q51 0 89.5 32t49.5 85l2 10q7 54 -20 85.5t-78 31.5q-53 0 -92 -33.5t-49 -88.5t17.5 -88.5
t80.5 -33.5z" />
    <glyph glyph-name="Dcroat" unicode="&#x110;" horiz-adv-x="753" 
d="M460 700q138 0 221.5 -106t57.5 -254q-26 -149 -138 -244.5t-264 -95.5h-280l47 268h-80l25 144h80l51 288h280zM585 355q16 89 -26 140t-126 51h-120l-24 -134h140l-25 -144h-140l-20 -114h110q89 0 152 55t79 146z" />
    <glyph glyph-name="dcroat" unicode="&#x111;" horiz-adv-x="628" 
d="M697 640l-17 -94h-58l-96 -546h-150l6 36q-58 -50 -152 -50q-115 0 -167 83.5t-31 192.5q19 103 94.5 177.5t186.5 74.5q96 0 141 -69l18 101h-142l17 94h141l11 60h150l-11 -60h59zM280 128q51 0 89.5 32t49.5 85l2 10q7 54 -20 85.5t-78 31.5q-53 0 -92 -33.5
t-49 -88.5t17.5 -88.5t80.5 -33.5z" />
    <glyph glyph-name="Emacron" unicode="&#x112;" horiz-adv-x="530" 
d="M539 879l-21 -120h-300l21 120h300zM547 546h-275l-21 -117h251l-27 -150h-250l-22 -125h280l-27 -154h-440l123 700h435z" />
    <glyph glyph-name="emacron" unicode="&#x113;" horiz-adv-x="582" 
d="M529 684l-21 -120h-300l21 120h300zM331 514q111 0 176.5 -76t44.5 -188q-5 -32 -16 -60h-358q11 -70 103 -70q63 0 105 39l105 -86q-86 -87 -220 -87q-127 0 -192.5 79t-46.5 195q17 109 102 181.5t197 72.5zM199 304h212q-7 77 -90 77t-122 -77z" />
    <glyph glyph-name="Edotaccent" unicode="&#x116;" horiz-adv-x="530" 
d="M366 745q-35 0 -56 25.5t-14 59.5q6 35 35.5 60t63.5 25q35 0 56 -25.5t15 -59.5q-7 -35 -36.5 -60t-63.5 -25zM547 546h-275l-21 -117h251l-27 -150h-250l-22 -125h280l-27 -154h-440l123 700h435z" />
    <glyph glyph-name="edotaccent" unicode="&#x117;" horiz-adv-x="582" 
d="M356 550q-35 0 -56 25.5t-14 59.5q6 35 35.5 60t63.5 25q35 0 56 -25.5t15 -59.5q-7 -35 -36.5 -60t-63.5 -25zM331 514q111 0 176.5 -76t44.5 -188q-5 -32 -16 -60h-358q11 -70 103 -70q63 0 105 39l105 -86q-86 -87 -220 -87q-127 0 -192.5 79t-46.5 195
q17 109 102 181.5t197 72.5zM199 304h212q-7 77 -90 77t-122 -77z" />
    <glyph glyph-name="Eogonek" unicode="&#x118;" horiz-adv-x="530" 
d="M547 546h-275l-21 -117h251l-27 -150h-250l-22 -125h280l-27 -154q-53 -49 -60 -85q-6 -26 17 -26q8 -1 24 4l-16 -90q-45 -17 -91 -17q-44 0 -68 23t-16 68q10 56 86 123h-316l123 700h435z" />
    <glyph glyph-name="eogonek" unicode="&#x119;" horiz-adv-x="582" 
d="M331 514q111 0 176.5 -76t44.5 -188q-5 -32 -16 -60h-358q11 -70 103 -70q63 0 105 39l105 -86q-20 -20 -41 -35q-80 -67 -92 -119q-6 -30 20 -30q11 0 22 4l-16 -90q-37 -17 -82 -17q-53 0 -77.5 26t-17.5 65q9 50 79 109h-15q-127 0 -192.5 79t-46.5 195
q17 109 102 181.5t197 72.5zM199 304h212q-7 77 -90 77t-122 -77z" />
    <glyph glyph-name="Ecaron" unicode="&#x11a;" horiz-adv-x="530" 
d="M287 750l-80 150h140l25 -55l45 55h150l-132 -150h-148zM547 546h-275l-21 -117h251l-27 -150h-250l-22 -125h280l-27 -154h-440l123 700h435z" />
    <glyph glyph-name="ecaron" unicode="&#x11b;" horiz-adv-x="582" 
d="M277 555l-80 150h140l25 -55l45 55h150l-132 -150h-148zM331 514q111 0 176.5 -76t44.5 -188q-5 -32 -16 -60h-358q11 -70 103 -70q63 0 105 39l105 -86q-86 -87 -220 -87q-127 0 -192.5 79t-46.5 195q17 109 102 181.5t197 72.5zM199 304h212q-7 77 -90 77t-122 -77z
" />
    <glyph glyph-name="Gbreve" unicode="&#x11e;" horiz-adv-x="784" 
d="M491 752q-85 0 -127 40.5t-29 109.5h132q-4 -22 5.5 -34t29.5 -12q43 0 51 46h132q-11 -72 -60.5 -111t-133.5 -39zM778 390l-10 -60q-27 -161 -138.5 -252.5t-267.5 -91.5q-162 0 -250.5 109t-62.5 265q26 154 142.5 254t272.5 100q104 0 179 -44t114 -124l-147 -77
q-48 89 -163 89q-91 0 -156.5 -57t-81.5 -151q-17 -94 29.5 -151t139.5 -57q150 0 205 108h-180l24 140h351z" />
    <glyph glyph-name="gbreve" unicode="&#x11f;" horiz-adv-x="624" 
d="M355 552q-85 0 -127 40.5t-29 109.5h132q-4 -22 5.5 -34t29.5 -12q43 0 51 46h132q-11 -72 -60.5 -111t-133.5 -39zM467 500h146l-84 -475q-22 -126 -99.5 -182.5t-189.5 -56.5q-178 0 -233 121l134 70q29 -59 110 -59q54 0 88.5 27.5t43.5 79.5l6 35q-59 -54 -150 -54
q-115 0 -169 79.5t-36 186.5q17 98 90.5 170t182.5 72q106 0 150 -73zM283 146q50 0 89 29t51 75l4 21q4 46 -24.5 74.5t-78.5 28.5q-53 0 -92.5 -32t-48.5 -82t19 -82t81 -32z" />
    <glyph glyph-name="Gdotaccent" unicode="&#x120;" horiz-adv-x="784" 
d="M485 755q-35 0 -56 25.5t-14 59.5q6 35 35.5 60t63.5 25q35 0 56 -25.5t15 -59.5q-7 -35 -36.5 -60t-63.5 -25zM778 390l-10 -60q-27 -161 -138.5 -252.5t-267.5 -91.5q-162 0 -250.5 109t-62.5 265q26 154 142.5 254t272.5 100q104 0 179 -44t114 -124l-147 -77
q-48 89 -163 89q-91 0 -156.5 -57t-81.5 -151q-17 -94 29.5 -151t139.5 -57q150 0 205 108h-180l24 140h351z" />
    <glyph glyph-name="gdotaccent" unicode="&#x121;" horiz-adv-x="624" 
d="M349 555q-35 0 -56 25.5t-14 59.5q6 35 35.5 60t63.5 25q35 0 56 -25.5t15 -59.5q-7 -35 -36.5 -60t-63.5 -25zM467 500h146l-84 -475q-22 -126 -99.5 -182.5t-189.5 -56.5q-178 0 -233 121l134 70q29 -59 110 -59q54 0 88.5 27.5t43.5 79.5l6 35q-59 -54 -150 -54
q-115 0 -169 79.5t-36 186.5q17 98 90.5 170t182.5 72q106 0 150 -73zM283 146q50 0 89 29t51 75l4 21q4 46 -24.5 74.5t-78.5 28.5q-53 0 -92.5 -32t-48.5 -82t19 -82t81 -32z" />
    <glyph glyph-name="Gcommaaccent" unicode="&#x122;" horiz-adv-x="784" 
d="M778 390l-10 -60q-27 -161 -138.5 -252.5t-267.5 -91.5q-162 0 -250.5 109t-62.5 265q26 154 142.5 254t272.5 100q104 0 179 -44t114 -124l-147 -77q-48 89 -163 89q-91 0 -156.5 -57t-81.5 -151q-17 -94 29.5 -151t139.5 -57q150 0 205 108h-180l24 140h351zM231 -270
l47 210h140l-67 -210h-120z" />
    <glyph glyph-name="gcommaaccent" unicode="&#x123;" horiz-adv-x="624" 
d="M463 790l-47 -210h-140l67 210h120zM467 500h146l-84 -475q-22 -126 -99.5 -182.5t-189.5 -56.5q-178 0 -233 121l134 70q29 -59 110 -59q54 0 88.5 27.5t43.5 79.5l6 35q-59 -54 -150 -54q-115 0 -169 79.5t-36 186.5q17 98 90.5 170t182.5 72q106 0 150 -73zM283 146
q50 0 89 29t51 75l4 21q4 46 -24.5 74.5t-78.5 28.5q-53 0 -92.5 -32t-48.5 -82t19 -82t81 -32z" />
    <glyph glyph-name="Hbar" unicode="&#x126;" horiz-adv-x="700" 
d="M744 613l-20 -116h-61l-87 -497h-160l44 253h-220l-44 -253h-160l87 497h-59l20 116h60l15 87h160l-15 -87h220l15 87h160l-15 -87h60zM488 407l15 90h-220l-15 -90h220z" />
    <glyph glyph-name="hbar" unicode="&#x127;" horiz-adv-x="585" 
d="M393 514q81 0 127.5 -55.5t29.5 -151.5l-54 -307h-150l50 285q8 46 -12.5 68.5t-59.5 22.5q-41 0 -71 -25.5t-39 -77.5l-48 -273h-150l96 546h-60l17 94h59l11 60h150l-11 -60h141l-17 -94h-140l-16 -93q55 61 147 61z" />
    <glyph glyph-name="Imacron" unicode="&#x12a;" horiz-adv-x="280" 
d="M80 759l21 120h300l-21 -120h-300zM139 700h160l-123 -700h-160z" />
    <glyph glyph-name="imacron" unicode="&#x12b;" horiz-adv-x="260" 
d="M65 559l22 130h240l-22 -130h-240zM11 0l88 500h150l-88 -500h-150z" />
    <glyph glyph-name="Iogonek" unicode="&#x12e;" horiz-adv-x="280" 
d="M176 0q-45 -52 -48 -86q-2 -25 20 -25q8 -1 24 4l-16 -90q-45 -17 -91 -17q-45 0 -67 25t-18 64q8 62 71 125h-35l123 700h160z" />
    <glyph glyph-name="iogonek" unicode="&#x12f;" horiz-adv-x="260" 
d="M212 724q37 0 59.5 -26.5t16.5 -63.5t-36.5 -63.5t-68.5 -26.5t-59.5 26.5t-15.5 63.5q6 36 36.5 63t67.5 27zM11 0l88 500h150l-88 -500q-42 -53 -48 -87q-3 -24 18 -24q8 -1 24 4l-16 -90q-42 -17 -91 -17q-42 0 -65 24t-20 60q4 56 69 130h-21z" />
    <glyph glyph-name="Idotaccent" unicode="&#x130;" horiz-adv-x="280" 
d="M228 745q-35 0 -56 25.5t-14 59.5q6 35 35.5 60t63.5 25q35 0 56 -25.5t15 -59.5q-7 -35 -36.5 -60t-63.5 -25zM139 700h160l-123 -700h-160z" />
    <glyph glyph-name="dotlessi" unicode="&#x131;" horiz-adv-x="260" 
d="M11 0l88 500h150l-88 -500h-150z" />
    <glyph glyph-name="Kcommaaccent" unicode="&#x136;" horiz-adv-x="626" 
d="M705 700l-318 -344l195 -356h-165l-183 333l-58 -333h-160l123 700h160l-52 -293l269 293h189zM143 -270l47 210h140l-67 -210h-120z" />
    <glyph glyph-name="kcommaaccent" unicode="&#x137;" horiz-adv-x="525" 
d="M564 500l-221 -250l138 -250h-160l-120 228l-40 -228h-150l123 700h150l-72 -407l179 207h173zM121 -270l47 210h140l-67 -210h-120z" />
    <glyph glyph-name="Lacute" unicode="&#x139;" horiz-adv-x="480" 
d="M436 900l-136 -140h-148l100 140h184zM203 154h250l-27 -154h-410l27 154l96 546h160z" />
    <glyph glyph-name="lacute" unicode="&#x13a;" horiz-adv-x="261" 
d="M142 760h148l136 140h-184zM12 0l56 319l72 411h150l-73 -418l-55 -312h-150z" />
    <glyph glyph-name="Lcommaaccent" unicode="&#x13b;" horiz-adv-x="480" 
d="M203 154h250l-27 -154h-410l27 154l96 546h160zM96 -270l47 210h140l-67 -210h-120z" />
    <glyph glyph-name="lcommaaccent" unicode="&#x13c;" horiz-adv-x="261" 
d="M12 0l56 319l72 411h150l-73 -418l-55 -312h-150zM81 -270l67 210h-140l-47 -210h120z" />
    <glyph glyph-name="Lcaron" unicode="&#x13d;" horiz-adv-x="480" 
d="M299 700l-96 -546h250l-27 -154h-410l27 154l96 546h160zM514 700l-63 -190h-130l43 190h150z" />
    <glyph glyph-name="lcaron" unicode="&#x13e;" horiz-adv-x="376" 
d="M12 0l56 319l72 411h150l-73 -418l-55 -312h-150zM404 520l67 210h-140l-47 -210h120z" />
    <glyph glyph-name="Lslash" unicode="&#x141;" horiz-adv-x="510" 
d="M233 154h250l-27 -154h-410l27 154l9 48l-67 -39l28 163l67 39l59 335h160l-40 -230l134 79l-29 -163l-134 -79z" />
    <glyph glyph-name="lslash" unicode="&#x142;" horiz-adv-x="270" 
d="M304 500l-25 -143l-56 -34l-2 -11l-55 -312h-150l39 220l-56 -34l25 143l56 34l64 367h150l-46 -264z" />
    <glyph glyph-name="Nacute" unicode="&#x143;" horiz-adv-x="670" 
d="M335 760h148l136 140h-184zM16 0l123 700h120l201 -393l69 393h160l-123 -700h-120l-200 393l-70 -393h-160z" />
    <glyph glyph-name="nacute" unicode="&#x144;" 
d="M540 710l-136 -140h-148l100 140h184zM388 514q81 0 127.5 -55.5t29.5 -151.5l-54 -307h-150l50 285q8 46 -12.5 68.5t-59.5 22.5q-40 0 -69.5 -24t-39.5 -73l-49 -279h-150l88 500h150l-8 -47q55 61 147 61z" />
    <glyph glyph-name="Ncommaaccent" unicode="&#x145;" horiz-adv-x="670" 
d="M16 0l123 700h120l201 -393l69 393h160l-123 -700h-120l-200 393l-70 -393h-160zM291 -270l67 210h-140l-47 -210h120z" />
    <glyph glyph-name="ncommaaccent" unicode="&#x146;" 
d="M388 514q81 0 127.5 -55.5t29.5 -151.5l-54 -307h-150l50 285q8 46 -12.5 68.5t-59.5 22.5q-40 0 -69.5 -24t-39.5 -73l-49 -279h-150l88 500h150l-8 -47q55 61 147 61zM134 -270l47 210h140l-67 -210h-120z" />
    <glyph glyph-name="Ncaron" unicode="&#x147;" horiz-adv-x="670" 
d="M344 750l-80 150h140l25 -55l45 55h150l-132 -150h-148zM529 700h160l-123 -700h-120l-200 393l-70 -393h-160l123 700h120l201 -393z" />
    <glyph glyph-name="ncaron" unicode="&#x148;" 
d="M265 560l-80 150h140l25 -55l45 55h150l-132 -150h-148zM388 514q81 0 127.5 -55.5t29.5 -151.5l-54 -307h-150l50 285q8 46 -12.5 68.5t-59.5 22.5q-40 0 -69.5 -24t-39.5 -73l-49 -279h-150l88 500h150l-8 -47q55 61 147 61z" />
    <glyph glyph-name="Eng" unicode="&#x14a;" horiz-adv-x="670" 
d="M529 700h160l-123 -700q-19 -109 -85.5 -160t-189.5 -40l26 145q40 -1 62.5 14.5t29.5 54.5l8 44l-171 335l-70 -393h-160l123 700h120l201 -393z" />
    <glyph glyph-name="eng" unicode="&#x14b;" 
d="M388 514q81 0 127.5 -55.5t29.5 -151.5l-54 -307q-20 -114 -83 -167.5t-175 -46.5l26 144q69 -8 82 70l50 285q8 46 -12.5 68.5t-59.5 22.5q-40 0 -69.5 -24t-39.5 -73l-49 -279h-150l88 500h150l-8 -47q55 61 147 61z" />
    <glyph glyph-name="Omacron" unicode="&#x14c;" horiz-adv-x="788" 
d="M336 769l21 120h300l-21 -120h-300zM352 -14q-152 0 -241.5 110t-61.5 264q27 156 143.5 255t279.5 99q150 0 239.5 -110t62.5 -264q-28 -156 -144 -255t-278 -99zM369 142q88 0 158.5 58t86.5 150t-31.5 150t-134.5 58t-155 -58t-84 -150q-16 -93 29 -150.5t131 -57.5z
" />
    <glyph glyph-name="omacron" unicode="&#x14d;" horiz-adv-x="590" 
d="M202 569l21 120h300l-21 -120h-300zM264 -14q-88 0 -146.5 43.5t-78 107t-5.5 133.5q21 103 101 173.5t199 70.5q120 0 181 -86.5t42 -193.5q-18 -101 -101 -174.5t-192 -73.5zM274 132q49 0 87 32.5t47 85.5q10 53 -16.5 85.5t-75.5 32.5t-85.5 -32.5t-46.5 -85.5
q-9 -53 16 -85.5t74 -32.5z" />
    <glyph glyph-name="Ohungarumlaut" unicode="&#x150;" horiz-adv-x="788" 
d="M294 760h148l111 140h-154zM477 760h148l121 140h-154zM352 -14q-152 0 -241.5 110t-61.5 264q27 156 143.5 255t279.5 99q150 0 239.5 -110t62.5 -264q-28 -156 -144 -255t-278 -99zM369 142q88 0 158.5 58t86.5 150t-31.5 150t-134.5 58t-155 -58t-84 -150
q-16 -93 29 -150.5t131 -57.5z" />
    <glyph glyph-name="ohungarumlaut" unicode="&#x151;" horiz-adv-x="590" 
d="M160 560h148l111 140h-154zM343 560h148l121 140h-154zM264 -14q-88 0 -146.5 43.5t-78 107t-5.5 133.5q21 103 101 173.5t199 70.5q120 0 181 -86.5t42 -193.5q-18 -101 -101 -174.5t-192 -73.5zM274 132q49 0 87 32.5t47 85.5q10 53 -16.5 85.5t-75.5 32.5t-85.5 -32.5
t-46.5 -85.5q-9 -53 16 -85.5t74 -32.5z" />
    <glyph glyph-name="OE" unicode="&#x152;" horiz-adv-x="916" 
d="M933 546h-235l-21 -117h211l-27 -150h-210l-22 -125h240l-27 -154h-400q-53 -14 -104 -14q-150 0 -233.5 109.5t-55.5 264.5q27 153 144.5 253.5t262.5 100.5q62 0 109 -14h395zM470 157l67 386q-37 15 -99 15q-86 0 -149.5 -57.5t-79.5 -150.5q-17 -94 24.5 -151
t126.5 -57q66 0 110 15z" />
    <glyph glyph-name="oe" unicode="&#x153;" horiz-adv-x="960" 
d="M719 514q103 0 166 -76t45 -188q-5 -32 -16 -60h-358q11 -70 103 -70q63 0 105 39l105 -86q-86 -87 -214 -87q-141 0 -198 95q-82 -95 -203 -95q-85 0 -141 41t-74.5 102t-6.5 131q18 105 96.5 179.5t198.5 74.5q119 0 176 -95q84 95 216 95zM577 304h212q-7 77 -90 77
t-122 -77zM410 250q10 52 -17 85t-77 33q-49 0 -86.5 -32.5t-47.5 -85.5q-9 -53 17 -85.5t75 -32.5q50 0 88.5 33t47.5 85z" />
    <glyph glyph-name="Racute" unicode="&#x154;" horiz-adv-x="615" 
d="M564 900l-136 -140h-148l100 140h184zM617 450q-13 -70 -56 -121.5t-107 -76.5l102 -252h-162l-91 230h-87l-40 -230h-160l123 700h270q100 0 163 -75.5t45 -174.5zM457 460q7 39 -13.5 64.5t-60.5 25.5h-110l-32 -180h120q36 0 62.5 25.5t33.5 64.5z" />
    <glyph glyph-name="racute" unicode="&#x155;" horiz-adv-x="371" 
d="M446 700l-136 -140h-148l100 140h184zM233 410q22 49 67 74.5t101 25.5l-29 -170q-33 5 -66.5 -2t-65 -35.5t-39.5 -76.5l1 6l-41 -232h-150l88 500h150z" />
    <glyph glyph-name="Rcommaaccent" unicode="&#x156;" horiz-adv-x="615" 
d="M617 450q-13 -70 -56 -121.5t-107 -76.5l102 -252h-162l-91 230h-87l-40 -230h-160l123 700h270q100 0 163 -75.5t45 -174.5zM457 460q7 39 -13.5 64.5t-60.5 25.5h-110l-32 -180h120q36 0 62.5 25.5t33.5 64.5zM171 -270l47 210h140l-67 -210h-120z" />
    <glyph glyph-name="rcommaaccent" unicode="&#x157;" horiz-adv-x="371" 
d="M233 410q22 49 67 74.5t101 25.5l-29 -170q-33 5 -66.5 -2t-65 -35.5t-39.5 -76.5l1 6l-41 -232h-150l88 500h150zM-38 -270l47 210h140l-67 -210h-120z" />
    <glyph glyph-name="Rcaron" unicode="&#x158;" horiz-adv-x="615" 
d="M289 750l-80 150h140l25 -55l45 55h150l-132 -150h-148zM617 450q-13 -70 -56 -121.5t-107 -76.5l102 -252h-162l-91 230h-87l-40 -230h-160l123 700h270q100 0 163 -75.5t45 -174.5zM457 460q7 39 -13.5 64.5t-60.5 25.5h-110l-32 -180h120q36 0 62.5 25.5t33.5 64.5z
" />
    <glyph glyph-name="rcaron" unicode="&#x159;" horiz-adv-x="371" 
d="M171 550l-80 150h140l25 -55l45 55h150l-132 -150h-148zM233 410q22 49 67 74.5t101 25.5l-29 -170q-33 5 -66.5 -2t-65 -35.5t-39.5 -76.5l1 6l-41 -232h-150l88 500h150z" />
    <glyph glyph-name="Sacute" unicode="&#x15a;" horiz-adv-x="586" 
d="M297 770h148l136 140h-184zM270 -14q-110 0 -178.5 46.5t-87.5 126.5l146 75q26 -94 134 -94q92 0 103 59q6 30 -20.5 47.5t-93.5 40.5q-99 33 -147.5 84.5t-32.5 144.5q16 98 90 148t171 50q86 0 149.5 -41t90.5 -117l-140 -74q-37 78 -114 78q-36 0 -57.5 -15
t-26.5 -38q-6 -29 19.5 -47.5t88.5 -41.5q19 -7 31.5 -11.5t30.5 -12t29.5 -14t27 -16t25 -19.5t20 -22.5t16 -27t9.5 -31t3.5 -36.5t-4.5 -43q-17 -96 -92.5 -147.5t-189.5 -51.5z" />
    <glyph glyph-name="sacute" unicode="&#x15b;" horiz-adv-x="468" 
d="M202 570h148l136 140h-184zM206 -14q-155 0 -211 123l135 68q22 -57 89 -57q51 0 55 26q3 16 -22 27t-61 21t-70.5 26t-54.5 52.5t-10 90.5q9 51 43 86t77 50t90 15q66 0 116.5 -28.5t74.5 -78.5l-135 -67q-18 44 -65 44q-45 0 -51 -31q-4 -20 20.5 -31t60.5 -19.5
t71 -23t55 -51t10 -93.5q-14 -76 -73 -112.5t-144 -36.5z" />
    <glyph glyph-name="Scedilla" unicode="&#x15e;" horiz-adv-x="586" 
d="M364 418q19 -7 31.5 -11.5t30.5 -12t29.5 -14t27 -16t25 -19.5t20 -22.5t16 -27t9.5 -31t3.5 -36.5t-4.5 -43q-15 -84 -75 -134t-153 -62l-6 -35q60 -22 49 -86q-19 -101 -241 -84l18 104q93 -7 98 14q3 15 -50 20l12 69q-82 13 -133 57t-67 111l146 75q26 -94 134 -94
q92 0 103 59q6 30 -20.5 47.5t-93.5 40.5q-99 33 -147.5 84.5t-32.5 144.5q16 98 90 148t171 50q86 0 149.5 -41t90.5 -117l-140 -74q-37 78 -114 78q-36 0 -57.5 -15t-26.5 -38q-6 -29 19.5 -47.5t88.5 -41.5z" />
    <glyph glyph-name="scedilla" unicode="&#x15f;" horiz-adv-x="468" 
d="M206 353q-4 -20 20.5 -31t60.5 -19.5t71 -23t55 -51t10 -93.5q-11 -61 -52.5 -97t-104.5 -47l-6 -37q60 -22 49 -86q-19 -101 -241 -84l18 104q93 -7 98 14q3 15 -50 20l12 69q-106 21 -151 118l135 68q22 -57 89 -57q51 0 55 26q3 16 -22 27t-61 21t-70.5 26t-54.5 52.5
t-10 90.5q9 51 43 86t77 50t90 15q66 0 116.5 -28.5t74.5 -78.5l-135 -67q-18 44 -65 44q-45 0 -51 -31z" />
    <glyph glyph-name="Scaron" unicode="&#x160;" horiz-adv-x="586" 
d="M306 760l-80 150h140l25 -55l45 55h150l-132 -150h-148zM364 418q19 -7 31.5 -11.5t30.5 -12t29.5 -14t27 -16t25 -19.5t20 -22.5t16 -27t9.5 -31t3.5 -36.5t-4.5 -43q-17 -96 -92.5 -147.5t-189.5 -51.5q-110 0 -178.5 46.5t-87.5 126.5l146 75q26 -94 134 -94
q92 0 103 59q6 30 -20.5 47.5t-93.5 40.5q-99 33 -147.5 84.5t-32.5 144.5q16 98 90 148t171 50q86 0 149.5 -41t90.5 -117l-140 -74q-37 78 -114 78q-36 0 -57.5 -15t-26.5 -38q-6 -29 19.5 -47.5t88.5 -41.5z" />
    <glyph glyph-name="scaron" unicode="&#x161;" horiz-adv-x="468" 
d="M211 560l-80 150h140l25 -55l45 55h150l-132 -150h-148zM257 384q-45 0 -51 -31q-4 -20 20.5 -31t60.5 -19.5t71 -23t55 -51t10 -93.5q-14 -76 -73 -112.5t-144 -36.5q-155 0 -211 123l135 68q22 -57 89 -57q51 0 55 26q3 16 -22 27t-61 21t-70.5 26t-54.5 52.5t-10 90.5
q9 51 43 86t77 50t90 15q66 0 116.5 -28.5t74.5 -78.5l-135 -67q-18 44 -65 44z" />
    <glyph glyph-name="uni0162" unicode="&#x162;" horiz-adv-x="540" 
d="M609 700l-27 -154h-180l-96 -546h-160l96 546h-180l27 154h520zM101 -270l47 210h140l-67 -210h-120z" />
    <glyph glyph-name="uni0163" unicode="&#x163;" horiz-adv-x="389" 
d="M264 356l-31 -177q-6 -31 17 -39t79 -4l-24 -136q-134 -15 -187.5 29t-34.5 150l31 177h-80l26 144h79l17 95l158 45l-25 -140h104l-26 -144h-103zM61 -270l47 210h140l-67 -210h-120z" />
    <glyph glyph-name="Tcaron" unicode="&#x164;" horiz-adv-x="540" 
d="M279 750l-80 150h140l25 -55l45 55h150l-132 -150h-148zM609 700l-27 -154h-180l-96 -546h-160l96 546h-180l27 154h520z" />
    <glyph glyph-name="tcaron" unicode="&#x165;" horiz-adv-x="416" 
d="M381 730h140l-63 -190h-120zM314 640l-25 -140h104l-26 -144h-103l-31 -177q-6 -31 17 -39t79 -4l-24 -136q-134 -15 -187.5 29t-34.5 150l31 177h-80l26 144h79l17 95z" />
    <glyph glyph-name="Tbar" unicode="&#x166;" horiz-adv-x="540" 
d="M582 546h-180l-24 -134h110l-25 -144h-110l-47 -268h-160l47 268h-110l25 144h110l24 134h-180l27 154h520z" />
    <glyph glyph-name="tbar" unicode="&#x167;" horiz-adv-x="389" 
d="M367 356h-103l-8 -48h75l-21 -120h-75l-2 -9q-6 -31 17 -39t79 -4l-24 -136q-134 -15 -187.5 29t-34.5 150l2 9h-55l21 120h55l8 48h-80l26 144h79l17 95l158 45l-25 -140h104z" />
    <glyph glyph-name="Umacron" unicode="&#x16a;" horiz-adv-x="641" 
d="M261 759l21 120h300l-21 -120h-300zM290 -14q-126 0 -194.5 67.5t-49.5 172.5l84 474h160l-81 -460q-17 -98 93 -98t127 98l81 460h160l-84 -474q-21 -119 -101 -179.5t-195 -60.5z" />
    <glyph glyph-name="umacron" unicode="&#x16b;" 
d="M505 679l-21 -120h-300l21 120h300zM419 500h150l-88 -500h-150l8 47q-55 -61 -147 -61q-81 0 -127.5 55.5t-29.5 151.5l54 307h150l-50 -285q-8 -46 12.5 -68.5t59.5 -22.5q40 0 69.5 24t39.5 73z" />
    <glyph glyph-name="Uring" unicode="&#x16e;" horiz-adv-x="641" 
d="M404 705q-57 0 -90 38t-24 91q10 54 52 87.5t100 33.5t91 -37.5t23 -91.5q-9 -54 -50.5 -87.5t-101.5 -33.5zM417 796q37 0 42 33q3 15 -5 25t-25 10q-34 0 -41 -33q-2 -15 5 -25t24 -10zM290 -14q-126 0 -194.5 67.5t-49.5 172.5l84 474h160l-81 -460q-17 -98 93 -98
t127 98l81 460h160l-84 -474q-21 -119 -101 -179.5t-195 -60.5z" />
    <glyph glyph-name="uring" unicode="&#x16f;" 
d="M332 535q-57 0 -90 38t-24 91q10 54 52 87.5t100 33.5t91 -37.5t23 -91.5q-9 -54 -50.5 -87.5t-101.5 -33.5zM316 661q-2 -15 5 -25t24 -10q37 0 42 33q3 15 -5 25t-25 10q-34 0 -41 -33zM419 500h150l-88 -500h-150l8 47q-55 -61 -147 -61q-81 0 -127.5 55.5
t-29.5 151.5l54 307h150l-50 -285q-8 -46 12.5 -68.5t59.5 -22.5q40 0 69.5 24t39.5 73z" />
    <glyph glyph-name="Uhungarumlaut" unicode="&#x170;" horiz-adv-x="641" 
d="M219 750h148l111 140h-154zM402 750h148l121 140h-154zM290 -14q-126 0 -194.5 67.5t-49.5 172.5l84 474h160l-81 -460q-17 -98 93 -98t127 98l81 460h160l-84 -474q-21 -119 -101 -179.5t-195 -60.5z" />
    <glyph glyph-name="uhungarumlaut" unicode="&#x171;" 
d="M401 690l-111 -140h-148l105 140h154zM473 550h-148l115 140h154zM370 221l49 279h150l-88 -500h-150l8 47q-55 -61 -147 -61q-81 0 -127.5 55.5t-29.5 151.5l54 307h150l-50 -285q-8 -46 12.5 -68.5t59.5 -22.5q40 0 69.5 24t39.5 73z" />
    <glyph glyph-name="Uogonek" unicode="&#x172;" horiz-adv-x="641" 
d="M510 700h160l-84 -474q-22 -123 -109 -185q-58 -45 -84.5 -72.5t-32.5 -53.5q-5 -24 17 -26q9 -1 24 4l-16 -90q-45 -17 -84 -17q-53 0 -76.5 29.5t-14.5 71.5q11 55 67 99q-121 4 -185 71t-46 169l84 474h160l-81 -460q-17 -98 93 -98t127 98z" />
    <glyph glyph-name="uogonek" unicode="&#x173;" 
d="M419 500h150l-88 -500h-3q-24 -22 -42 -48.5t-19 -43.5q-2 -19 18 -19q12 0 24 4l-16 -90q-35 -17 -77 -17q-48 0 -77 23t-21 70q10 53 86 121h-23l8 47q-55 -61 -147 -61q-81 0 -127.5 55.5t-29.5 151.5l54 307h150l-50 -285q-8 -46 12.5 -68.5t59.5 -22.5q40 0 69.5 24
t39.5 73z" />
    <glyph glyph-name="Wcircumflex" unicode="&#x174;" horiz-adv-x="998" 
d="M594 805l-47 -55h-145l132 150h148l80 -150h-145zM893 700h174l-316 -700h-182l-42 413l-186 -413h-182l-70 700h160l37 -490l221 490h130l49 -490z" />
    <glyph glyph-name="wcircumflex" unicode="&#x175;" horiz-adv-x="780" 
d="M450 605l-47 -55h-145l132 150h148l80 -150h-145zM649 500h165l-248 -500h-140l-33 263l-117 -263h-150l-72 500h150l31 -268l119 268h145l33 -268z" />
    <glyph glyph-name="Ycircumflex" unicode="&#x176;" horiz-adv-x="610" 
d="M400 805l-47 -55h-145l132 150h148l80 -150h-145zM689 700l-294 -394l-54 -306h-160l54 307l-156 393h173l82 -236l164 236h191z" />
    <glyph glyph-name="ycircumflex" unicode="&#x177;" horiz-adv-x="530" 
d="M311 605l-47 -55h-145l132 150h148l80 -150h-145zM408 500h166l-256 -485q-66 -125 -143.5 -173t-179.5 -42l24 140q54 0 82 17t54 65l-111 478h154l62 -306z" />
    <glyph glyph-name="Ydieresis" unicode="&#x178;" horiz-adv-x="610" 
d="M296 740q-31 0 -49 22t-13 53t31 53t57 22t49 -22t13 -53t-31 -53t-57 -22zM486 740q-31 0 -49 22t-13 53t31 53t57 22t49 -22t13 -53t-31 -53t-57 -22zM689 700l-294 -394l-54 -306h-160l54 307l-156 393h173l82 -236l164 236h191z" />
    <glyph glyph-name="Zacute" unicode="&#x179;" horiz-adv-x="540" 
d="M559 900l-136 -140h-148l100 140h184zM589 700l-21 -124l-340 -422h270l-27 -154h-480l22 124l341 422h-262l27 154h470z" />
    <glyph glyph-name="zacute" unicode="&#x17a;" horiz-adv-x="455" 
d="M479 700l-136 -140h-148l100 140h184zM59 360l25 140h380l-17 -100l-229 -260h193l-25 -140h-400l18 100l228 260h-173z" />
    <glyph glyph-name="Zdotaccent" unicode="&#x17b;" horiz-adv-x="540" 
d="M363 745q-35 0 -56 25.5t-14 59.5q6 35 35.5 60t63.5 25q35 0 56 -25.5t15 -59.5q-7 -35 -36.5 -60t-63.5 -25zM589 700l-21 -124l-340 -422h270l-27 -154h-480l22 124l341 422h-262l27 154h470z" />
    <glyph glyph-name="zdotaccent" unicode="&#x17c;" horiz-adv-x="455" 
d="M283 545q-35 0 -56 25.5t-14 59.5q6 35 35.5 60t63.5 25q35 0 56 -25.5t15 -59.5q-7 -35 -36.5 -60t-63.5 -25zM464 500l-17 -100l-229 -260h193l-25 -140h-400l18 100l228 260h-173l25 140h380z" />
    <glyph glyph-name="Zcaron" unicode="&#x17d;" horiz-adv-x="540" 
d="M284 750l-80 150h140l25 -55l45 55h150l-132 -150h-148zM589 700l-21 -124l-340 -422h270l-27 -154h-480l22 124l341 422h-262l27 154h470z" />
    <glyph glyph-name="zcaron" unicode="&#x17e;" horiz-adv-x="455" 
d="M204 550l-80 150h140l25 -55l45 55h150l-132 -150h-148zM59 360l25 140h380l-17 -100l-229 -260h193l-25 -140h-400l18 100l228 260h-173z" />
    <glyph glyph-name="florin" unicode="&#x192;" horiz-adv-x="442" 
d="M242 536q78 222 280 169l-26 -150q-17 8 -37.5 8.5t-41.5 -15.5t-30 -45l-27 -79h82l-26 -144h-107l-108 -312q-78 -222 -280 -169l26 150q17 -8 37 -8.5t41 15.5t31 45l97 279h-77l26 144h101z" />
    <glyph glyph-name="Scommaaccent" unicode="&#x218;" horiz-adv-x="586" 
d="M270 -14q-110 0 -178.5 46.5t-87.5 126.5l146 75q26 -94 134 -94q92 0 103 59q6 30 -20.5 47.5t-93.5 40.5q-99 33 -147.5 84.5t-32.5 144.5q16 98 90 148t171 50q86 0 149.5 -41t90.5 -117l-140 -74q-37 78 -114 78q-36 0 -57.5 -15t-26.5 -38q-6 -29 19.5 -47.5
t88.5 -41.5q19 -7 31.5 -11.5t30.5 -12t29.5 -14t27 -16t25 -19.5t20 -22.5t16 -27t9.5 -31t3.5 -36.5t-4.5 -43q-17 -96 -92.5 -147.5t-189.5 -51.5zM259 -270l67 210h-140l-47 -210h120z" />
    <glyph glyph-name="scommaaccent" unicode="&#x219;" horiz-adv-x="468" 
d="M206 -14q-155 0 -211 123l135 68q22 -57 89 -57q51 0 55 26q3 16 -22 27t-61 21t-70.5 26t-54.5 52.5t-10 90.5q9 51 43 86t77 50t90 15q66 0 116.5 -28.5t74.5 -78.5l-135 -67q-18 44 -65 44q-45 0 -51 -31q-4 -20 20.5 -31t60.5 -19.5t71 -23t55 -51t10 -93.5
q-14 -76 -73 -112.5t-144 -36.5zM201 -270l67 210h-140l-47 -210h120z" />
    <glyph glyph-name="uni021A" unicode="&#x21a;" horiz-adv-x="540" 
d="M609 700l-27 -154h-180l-96 -546h-160l96 546h-180l27 154h520zM101 -270l47 210h140l-67 -210h-120z" />
    <glyph glyph-name="uni021B" unicode="&#x21b;" horiz-adv-x="389" 
d="M264 356l-31 -177q-6 -31 17 -39t79 -4l-24 -136q-134 -15 -187.5 29t-34.5 150l31 177h-80l26 144h79l17 95l158 45l-25 -140h104l-26 -144h-103zM61 -270l47 210h140l-67 -210h-120z" />
    <glyph glyph-name="circumflex" unicode="&#x2c6;" horiz-adv-x="400" 
d="M433 550h-145l-23 55l-47 -55h-145l132 150h148z" />
    <glyph glyph-name="caron" unicode="&#x2c7;" horiz-adv-x="400" 
d="M309 700h150l-132 -150h-148l-80 150h140l25 -55z" />
    <glyph glyph-name="breve" unicode="&#x2d8;" horiz-adv-x="390" 
d="M254 542q-85 0 -127 40.5t-29 109.5h132q-4 -22 5.5 -34t29.5 -12q43 0 51 46h132q-11 -72 -60.5 -111t-133.5 -39z" />
    <glyph glyph-name="dotaccent" unicode="&#x2d9;" horiz-adv-x="190" 
d="M157 545q-35 0 -56 25.5t-14 59.5q6 35 35.5 60t63.5 25q35 0 56 -25.5t15 -59.5q-7 -35 -36.5 -60t-63.5 -25z" />
    <glyph glyph-name="ring" unicode="&#x2da;" horiz-adv-x="306" 
d="M202 535q-57 0 -90 38t-24 91q10 54 52 87.5t100 33.5t91 -37.5t23 -91.5q-9 -54 -50.5 -87.5t-101.5 -33.5zM215 626q37 0 42 33q3 15 -5 25t-25 10q-34 0 -41 -33q-2 -15 5 -25t24 -10z" />
    <glyph glyph-name="ogonek" unicode="&#x2db;" horiz-adv-x="228" 
d="M38 -214q-44 0 -68 23t-16 68q10 56 86 123h124q-53 -49 -60 -85q-6 -26 17 -26q8 -1 24 4l-16 -90q-45 -17 -91 -17z" />
    <glyph glyph-name="tilde" unicode="&#x2dc;" horiz-adv-x="398" 
d="M84 553q5 59 28 98t54.5 52t66 8.5t65.5 -25.5q22 -16 34.5 -11t17.5 35h120q-5 -59 -28 -98t-54.5 -52t-66 -8.5t-65.5 25.5q-23 16 -35 11t-17 -35h-120z" />
    <glyph glyph-name="hungarumlaut" unicode="&#x2dd;" horiz-adv-x="467" 
d="M73 550h148l111 140h-154zM256 550h148l121 140h-154z" />
    <glyph glyph-name="gravecomb" unicode="&#x300;" horiz-adv-x="0" 
d="M35 560l-63 140h-173l95 -140h141z" />
    <glyph glyph-name="acutecomb" unicode="&#x301;" horiz-adv-x="0" 
d="M-225 560h148l136 140h-184z" />
    <glyph glyph-name="uni0302" unicode="&#x302;" horiz-adv-x="0" 
d="M33 550h-145l-23 55l-47 -55h-145l132 150h148z" />
    <glyph glyph-name="tildecomb" unicode="&#x303;" horiz-adv-x="0" 
d="M-326 553q5 59 28 98t54.5 52t66 8.5t65.5 -25.5q22 -16 34.5 -11t17.5 35h120q-5 -59 -28 -98t-54.5 -52t-66 -8.5t-65.5 25.5q-23 16 -35 11t-17 -35h-120z" />
    <glyph glyph-name="uni0304" unicode="&#x304;" horiz-adv-x="0" 
d="M-265 559l21 120h300l-21 -120h-300z" />
    <glyph glyph-name="uni0306" unicode="&#x306;" horiz-adv-x="0" 
d="M-136 542q-85 0 -127 40.5t-29 109.5h132q-4 -22 5.5 -34t29.5 -12q43 0 51 46h132q-11 -72 -60.5 -111t-133.5 -39z" />
    <glyph glyph-name="uni0307" unicode="&#x307;" horiz-adv-x="0" 
d="M-53 545q-35 0 -56 25.5t-14 59.5q6 35 35.5 60t63.5 25q35 0 56 -25.5t15 -59.5q-7 -35 -36.5 -60t-63.5 -25z" />
    <glyph glyph-name="uni0308" unicode="&#x308;" horiz-adv-x="0" 
d="M-234 540q-31 0 -49 22t-13 53t31 53t57 22t49 -22t13 -53t-31 -53t-57 -22zM-44 540q-31 0 -49 22t-13 53t31 53t57 22t49 -22t13 -53t-31 -53t-57 -22z" />
    <glyph glyph-name="uni030A" unicode="&#x30a;" horiz-adv-x="0" 
d="M-100 535q-57 0 -90 38t-24 91q10 54 52 87.5t100 33.5t91 -37.5t23 -91.5q-9 -54 -50.5 -87.5t-101.5 -33.5zM-87 626q37 0 42 33q3 15 -5 25t-25 10q-34 0 -41 -33q-2 -15 5 -25t24 -10z" />
    <glyph glyph-name="uni030B" unicode="&#x30b;" horiz-adv-x="0" 
d="M-394 550h148l111 140h-154zM-211 550h148l121 140h-154z" />
    <glyph glyph-name="uni030C" unicode="&#x30c;" horiz-adv-x="0" 
d="M-91 700h150l-132 -150h-148l-80 150h140l25 -55z" />
    <glyph glyph-name="uni0312" unicode="&#x312;" horiz-adv-x="0" 
d="M-11 980l-67 -210h140l47 210h-120z" />
    <glyph glyph-name="uni0326" unicode="&#x326;" horiz-adv-x="0" 
d="M-142 -270l67 210h-140l-47 -210h120z" />
    <glyph glyph-name="uni0327" unicode="&#x327;" horiz-adv-x="0" 
d="M-136 -46q60 -22 49 -86q-19 -101 -241 -84l18 104q93 -7 98 14q3 15 -50 20l14 78h120z" />
    <glyph glyph-name="uni0328" unicode="&#x328;" horiz-adv-x="0" 
d="M-200 -214q-44 0 -68 23t-16 68q10 56 86 123h124q-53 -49 -60 -85q-6 -26 17 -26q8 -1 24 4l-16 -90q-45 -17 -91 -17z" />
    <glyph glyph-name="uni0394" unicode="&#x394;" horiz-adv-x="660" 
d="M511 700l105 -700h-660l351 700h204zM208 150h221l-44 375z" />
    <glyph glyph-name="uni03A9" unicode="&#x3a9;" horiz-adv-x="768" 
d="M767 360q-21 -123 -121 -206h71l-27 -154h-278l11 63l16 91q63 21 107.5 72.5t57.5 123.5q16 92 -31.5 150t-134.5 58t-154.5 -58t-83.5 -150q-13 -72 13 -123.5t82 -72.5l-27 -154h-278l27 154h89q-85 95 -63 226q26 147 142 240.5t271 93.5q148 0 242.5 -104.5
t68.5 -249.5z" />
    <glyph glyph-name="pi" unicode="&#x3c0;" horiz-adv-x="670" 
d="M694 500l-25 -140h-78l-63 -360h-150l63 360h-170l-63 -360h-150l63 360h-82l25 140h630z" />
    <glyph glyph-name="uni0401" unicode="&#x401;" horiz-adv-x="530" 
d="M269 740q-31 0 -49 22t-13 53t31 53t57 22t49 -22t13 -53t-31 -53t-57 -22zM459 740q-31 0 -49 22t-13 53t31 53t57 22t49 -22t13 -53t-31 -53t-57 -22zM547 546h-275l-21 -117h251l-27 -150h-250l-22 -125h280l-27 -154h-440l123 700h435z" />
    <glyph glyph-name="uni0402" unicode="&#x402;" horiz-adv-x="695" 
d="M500 464q91 0 135 -54.5t28 -142.5l-11 -63q-22 -123 -85 -172t-183 -42l27 149q39 -2 57 13t24 52l7 45q6 39 -9 55t-51 16q-44 0 -90 -19l-53 -301h-160l96 546h-170l27 154h520l-27 -154h-190l-18 -100q64 18 126 18z" />
    <glyph glyph-name="uni0403" unicode="&#x403;" horiz-adv-x="470" 
d="M550 899l-136 -140h-148l100 140h184zM139 700h400l-27 -154h-240l-96 -546h-160z" />
    <glyph glyph-name="uni0404" unicode="&#x404;" horiz-adv-x="723" 
d="M368 142q115 0 182 89l130 -85q-57 -75 -141 -117.5t-180 -42.5q-160 0 -248 109t-62 265q26 154 142.5 254t272.5 100q100 0 171.5 -43t106.5 -120l-147 -77q-41 84 -148 84q-71 0 -127.5 -35.5t-86.5 -97.5h285l-27 -150h-284q8 -62 51 -97.5t110 -35.5z" />
    <glyph glyph-name="uni0405" unicode="&#x405;" horiz-adv-x="586" 
d="M270 -14q-110 0 -178.5 46.5t-87.5 126.5l146 75q26 -94 134 -94q92 0 103 59q6 30 -20.5 47.5t-93.5 40.5q-99 33 -147.5 84.5t-32.5 144.5q16 98 90 148t171 50q86 0 149.5 -41t90.5 -117l-140 -74q-37 78 -114 78q-36 0 -57.5 -15t-26.5 -38q-6 -29 19.5 -47.5
t88.5 -41.5q19 -7 31.5 -11.5t30.5 -12t29.5 -14t27 -16t25 -19.5t20 -22.5t16 -27t9.5 -31t3.5 -36.5t-4.5 -43q-17 -96 -92.5 -147.5t-189.5 -51.5z" />
    <glyph glyph-name="uni0406" unicode="&#x406;" horiz-adv-x="280" 
d="M139 700h160l-123 -700h-160z" />
    <glyph glyph-name="uni0407" unicode="&#x407;" horiz-adv-x="280" 
d="M131 740q-31 0 -49 22t-13 53t31 53t57 22t49 -22t13 -53t-31 -53t-57 -22zM321 740q-31 0 -49 22t-13 53t31 53t57 22t49 -22t13 -53t-31 -53t-57 -22zM139 700h160l-123 -700h-160z" />
    <glyph glyph-name="uni0408" unicode="&#x408;" horiz-adv-x="570" 
d="M232 -14q-171 0 -224 141l147 80q10 -35 31 -50t60 -15q94 0 109 83l84 475h160l-84 -475q-21 -120 -95 -179.5t-188 -59.5z" />
    <glyph glyph-name="uni0409" unicode="&#x409;" horiz-adv-x="950" 
d="M720 450q98 0 160 -68.5t44 -166.5q-18 -99 -94.5 -157t-188.5 -58h-245l96 546h-154l-46 -262q-11 -65 -31.5 -115.5t-45.5 -81t-56 -52t-62.5 -28.5t-65.5 -10.5t-65 1.5l26 150q58 -7 91 20t48 110l74 422h474l-44 -250h85zM764 225q7 37 -12.5 56t-57.5 19h-85
l-27 -150h85q38 0 64 19t33 56z" />
    <glyph glyph-name="uni040A" unicode="&#x40a;" horiz-adv-x="950" 
d="M720 450q98 0 160 -68.5t44 -166.5q-18 -99 -94.5 -157t-188.5 -58h-245l53 300h-220l-53 -300h-160l123 700h160l-44 -250h220l44 250h160l-44 -250h85zM764 225q7 37 -12.5 56t-57.5 19h-85l-27 -150h85q38 0 64 19t33 56z" />
    <glyph glyph-name="uni040B" unicode="&#x40b;" horiz-adv-x="700" 
d="M491 464q95 0 141 -52.5t30 -144.5l-46 -267h-160l43 249q7 40 -11 55.5t-57 15.5q-45 0 -82 -18l-53 -302h-160l96 546h-170l27 154h520l-27 -154h-190l-17 -99q52 17 116 17z" />
    <glyph glyph-name="uni040C" unicode="&#x40c;" horiz-adv-x="626" 
d="M600 899l-136 -140h-148l100 140h184zM705 700l-318 -344l195 -356h-165l-183 333l-58 -333h-160l123 700h160l-52 -293l269 293h189z" />
    <glyph glyph-name="uni040E" unicode="&#x40e;" horiz-adv-x="610" 
d="M568 888l-22 -130h-300l22 130h300zM513 700h166l-279 -494q-46 -81 -99 -128.5t-108 -64.5t-123 -13l26 150q96 -9 150 72l-147 478h154l90 -306z" />
    <glyph glyph-name="uni040F" unicode="&#x40f;" horiz-adv-x="650" 
d="M509 700h160l-123 -700h-185l-24 -134h-160l24 134h-185l123 700h160l-96 -546h210z" />
    <glyph glyph-name="uni0410" unicode="&#x410;" horiz-adv-x="680" 
d="M461 0l-14 110h-260l-56 -110h-175l361 700h204l115 -700h-175zM262 260h167l-33 265z" />
    <glyph glyph-name="uni0411" unicode="&#x411;" horiz-adv-x="585" 
d="M364 440q101 0 158.5 -65.5t40.5 -164.5q-18 -100 -90.5 -155t-186.5 -55h-270l123 700h450l-27 -154h-290l-19 -106h111zM405 220q6 36 -13 53t-55 17h-110l-25 -140h110q81 0 93 70z" />
    <glyph glyph-name="uni0412" unicode="&#x412;" horiz-adv-x="600" 
d="M598 495q-14 -87 -84 -136q71 -56 57 -159q-12 -90 -81 -145t-190 -55h-284l123 700h264q95 0 152 -57.5t43 -147.5zM382 550h-109l-22 -124h109q30 0 51 17t26 45q5 26 -9 44t-46 18zM414 217q5 30 -10.5 48.5t-48.5 18.5h-129l-24 -134h129q33 0 55.5 18.5t27.5 48.5z
" />
    <glyph glyph-name="uni0413" unicode="&#x413;" horiz-adv-x="470" 
d="M539 700l-27 -154h-240l-96 -546h-160l123 700h400z" />
    <glyph glyph-name="uni0414" unicode="&#x414;" horiz-adv-x="710" 
d="M689 700l-96 -546h75l-51 -288h-160l23 134h-350l-23 -134h-160l51 288h71q69 79 96 232l55 314h469zM244 154h189l70 396h-149l-29 -166q-27 -150 -81 -230z" />
    <glyph glyph-name="uni0415" unicode="&#x415;" horiz-adv-x="530" 
d="M547 546h-275l-21 -117h251l-27 -150h-250l-22 -125h280l-27 -154h-440l123 700h435z" />
    <glyph glyph-name="uni0416" unicode="&#x416;" horiz-adv-x="922" 
d="M986 700l-281 -356l163 -344h-168l-146 312l-55 -312h-160l54 309l-246 -309h-181l293 363l-166 337h168l146 -311l55 311h160l-54 -308l233 308h185z" />
    <glyph glyph-name="uni0417" unicode="&#x417;" horiz-adv-x="557" 
d="M556 497q-16 -94 -95 -142q84 -59 65 -167q-17 -97 -93 -149.5t-195 -52.5q-97 0 -158.5 44t-86.5 122l146 76q13 -44 40.5 -68t81.5 -24q43 0 72 20t36 54q6 35 -16 54.5t-71 19.5h-89l25 142h69q94 0 107 69q5 33 -13 51t-60 18q-71 0 -117 -82l-131 83q91 149 274 149
q101 0 163.5 -61.5t45.5 -155.5z" />
    <glyph glyph-name="uni0418" unicode="&#x418;" horiz-adv-x="670" 
d="M16 0l123 700h160l-65 -369l335 369h120l-123 -700h-160l65 369l-335 -369h-120z" />
    <glyph glyph-name="uni0419" unicode="&#x419;" horiz-adv-x="670" 
d="M265 759l22 130h300l-22 -130h-300zM16 0l123 700h160l-65 -369l335 369h120l-123 -700h-160l65 369l-335 -369h-120z" />
    <glyph glyph-name="uni041A" unicode="&#x41a;" horiz-adv-x="626" 
d="M705 700l-318 -344l195 -356h-165l-183 333l-58 -333h-160l123 700h160l-52 -293l269 293h189z" />
    <glyph glyph-name="uni041B" unicode="&#x41b;" horiz-adv-x="670" 
d="M-34 -2l26 150q58 -7 91 20t48 110l74 422h484l-123 -700h-160l96 546h-164l-46 -262q-11 -65 -31.5 -115.5t-45.5 -81t-56 -52t-62.5 -28.5t-65.5 -10.5t-65 1.5z" />
    <glyph glyph-name="uni041C" unicode="&#x41c;" horiz-adv-x="820" 
d="M839 700l-123 -700h-160l72 410l-239 -300h-18l-123 302l-72 -412h-160l123 700h160l121 -316l245 316h174z" />
    <glyph glyph-name="uni041D" unicode="&#x41d;" horiz-adv-x="660" 
d="M519 700h160l-123 -700h-160l49 278h-220l-49 -278h-160l123 700h160l-47 -268h220z" />
    <glyph glyph-name="uni041E" unicode="&#x41e;" horiz-adv-x="788" 
d="M352 -14q-152 0 -241.5 110t-61.5 264q27 156 143.5 255t279.5 99q150 0 239.5 -110t62.5 -264q-28 -156 -144 -255t-278 -99zM369 142q88 0 158.5 58t86.5 150t-31.5 150t-134.5 58t-155 -58t-84 -150q-16 -93 29 -150.5t131 -57.5z" />
    <glyph glyph-name="uni041F" unicode="&#x41f;" horiz-adv-x="650" 
d="M669 700l-123 -700h-160l96 546h-210l-96 -546h-160l123 700h530z" />
    <glyph glyph-name="uni0420" unicode="&#x420;" horiz-adv-x="590" 
d="M392 700q108 0 168 -71.5t45 -178.5q-15 -103 -91.5 -166.5t-195.5 -63.5h-103l-39 -220h-160l123 700h253zM445 460q8 41 -11.5 65.5t-67.5 24.5h-93l-32 -180h93q45 0 74 24t37 66z" />
    <glyph glyph-name="uni0421" unicode="&#x421;" horiz-adv-x="723" 
d="M359 -14q-160 0 -248 109t-62 265q26 154 142.5 254t272.5 100q100 0 171.5 -43t106.5 -120l-147 -77q-41 84 -148 84q-91 0 -156.5 -57t-81.5 -151q-16 -93 28 -150.5t131 -57.5q115 0 182 89l130 -85q-57 -75 -141 -117.5t-180 -42.5z" />
    <glyph glyph-name="uni0422" unicode="&#x422;" horiz-adv-x="540" 
d="M609 700l-27 -154h-180l-96 -546h-160l96 546h-180l27 154h520z" />
    <glyph glyph-name="uni0423" unicode="&#x423;" horiz-adv-x="610" 
d="M513 700h166l-279 -494q-46 -81 -99 -128.5t-108 -64.5t-123 -13l26 150q96 -9 150 72l-147 478h154l90 -306z" />
    <glyph glyph-name="uni0424" unicode="&#x424;" horiz-adv-x="824" 
d="M558 636q138 -20 210 -100t52 -196q-22 -120 -118 -192.5t-246 -86.5l-14 -81h-156l15 84q-138 20 -210.5 100t-51.5 196q21 120 117.5 192.5t246.5 86.5l14 81h156zM199 350q-23 -120 128 -141l50 282q-157 -21 -178 -141zM660 350q21 121 -128 141l-50 -282
q155 20 178 141z" />
    <glyph glyph-name="uni0425" unicode="&#x425;" horiz-adv-x="620" 
d="M679 700l-260 -348l147 -352h-174l-85 202l-151 -202h-190l273 365l-140 335h174l78 -185l138 185h190z" />
    <glyph glyph-name="uni0426" unicode="&#x426;" horiz-adv-x="690" 
d="M573 154h75l-51 -288h-160l24 134h-445l123 700h160l-96 -546h210l96 546h160z" />
    <glyph glyph-name="uni0427" unicode="&#x427;" horiz-adv-x="635" 
d="M494 700h160l-123 -700h-160l41 233q-45 -11 -98 -11q-124 0 -188.5 60t-45.5 168l44 250h160l-40 -226q-9 -55 12.5 -76.5t77.5 -21.5q55 0 106 18z" />
    <glyph glyph-name="uni0428" unicode="&#x428;" horiz-adv-x="940" 
d="M799 700h160l-123 -700h-820l123 700h160l-96 -546h170l96 546h160l-96 -546h170z" />
    <glyph glyph-name="uni0429" unicode="&#x429;" horiz-adv-x="980" 
d="M863 154h75l-51 -288h-160l24 134h-735l123 700h160l-96 -546h170l96 546h160l-96 -546h170l96 546h160z" />
    <glyph glyph-name="uni042A" unicode="&#x42a;" horiz-adv-x="690" 
d="M116 0l96 546h-160l27 154h320l-38 -220h102q97 0 158.5 -75.5t44.5 -174.5q-19 -107 -95.5 -168.5t-191.5 -61.5h-263zM302 150h103q39 0 66.5 25.5t34.5 64.5q7 38 -12.5 64t-56.5 26h-103z" />
    <glyph glyph-name="uni042B" unicode="&#x42b;" horiz-adv-x="850" 
d="M16 0l123 700h160l-39 -220h103q97 0 158.5 -75.5t44.5 -174.5q-19 -107 -95.5 -168.5t-191.5 -61.5h-263zM586 0l123 700h160l-123 -700h-160zM202 150h103q39 0 66.5 25.5t34.5 64.5q7 38 -12.5 64t-56.5 26h-103z" />
    <glyph glyph-name="uni042C" unicode="&#x42c;" horiz-adv-x="590" 
d="M363 480q97 0 158.5 -75.5t44.5 -174.5q-19 -107 -95.5 -168.5t-191.5 -61.5h-263l123 700h160l-39 -220h103zM406 240q7 38 -12.5 64t-56.5 26h-103l-32 -180h103q39 0 66.5 25.5t34.5 64.5z" />
    <glyph glyph-name="uni042D" unicode="&#x42d;" horiz-adv-x="720" 
d="M401 714q159 0 245 -109t60 -265q-26 -155 -139.5 -254.5t-270.5 -99.5q-97 0 -173 43t-111 120l147 77q39 -84 152 -84q70 0 125.5 35.5t85.5 97.5h-285l27 150h285q-8 62 -51 97.5t-112 35.5q-113 0 -179 -90l-129 84q55 76 140.5 119t182.5 43z" />
    <glyph glyph-name="uni042E" unicode="&#x42e;" horiz-adv-x="1060" 
d="M744 714q150 0 239.5 -110t62.5 -264q-28 -155 -146.5 -254.5t-275.5 -99.5q-131 0 -216 84.5t-88 212.5h-94l-50 -283h-160l123 700h160l-46 -263h94q45 125 153 201t244 76zM886 350q16 92 -31.5 150t-134.5 58t-155 -58t-84 -150q-16 -93 29 -150.5t131 -57.5
q88 0 158.5 58t86.5 150z" />
    <glyph glyph-name="uni042F" unicode="&#x42f;" horiz-adv-x="625" 
d="M644 700l-123 -700h-160l40 230h-39l-186 -230h-195l210 251q-64 29 -91 90t-15 131q16 94 91.5 161t192.5 67h275zM316 370h110l32 180h-110q-39 0 -69 -25.5t-37 -64.5q-7 -38 15 -64t59 -26z" />
    <glyph glyph-name="uni0430" unicode="&#x430;" horiz-adv-x="623" 
d="M462 500h150l-88 -500h-150l6 34q-57 -48 -150 -48q-115 0 -167 83.5t-31 192.5q19 103 94.5 177.5t186.5 74.5q94 0 140 -67zM278 128q52 0 91 33t49 88v1q10 56 -17.5 89t-79.5 33t-90.5 -33t-48.5 -89t17 -89t79 -33z" />
    <glyph glyph-name="uni0431" unicode="&#x431;" horiz-adv-x="566" 
d="M260 -14q-121 0 -185 77t-44 195q11 65 25 108.5t41 84t69 72t107 60.5q14 6 51.5 23t46.5 21t32.5 17t32 21.5t21.5 22.5t24 32l114 -71q-25 -59 -74.5 -93.5t-141.5 -67.5q-66 -23 -97.5 -45.5t-48.5 -51.5q60 47 139 47q35 0 69 -16t60.5 -44.5t39 -72.5t3.5 -95
q-17 -102 -93.5 -163t-190.5 -61zM273 121q46 0 80.5 28t42.5 71t-18 72t-73 29q-42 0 -78.5 -26.5t-44.5 -70.5q-8 -45 18.5 -74t72.5 -29z" />
    <glyph glyph-name="uni0432" unicode="&#x432;" horiz-adv-x="515" 
d="M493 349q-12 -67 -65 -98q59 -42 47 -116q-12 -64 -60.5 -99.5t-133.5 -35.5h-270l88 500h250q74 0 114.5 -44t29.5 -107zM312 380h-94l-12 -70h93q44 0 50 34q7 36 -37 36zM333 161q3 17 -7.5 26t-30.5 9h-110l-12 -72h109q45 0 51 37z" />
    <glyph glyph-name="uni0433" unicode="&#x433;" horiz-adv-x="405" 
d="M449 500l-25 -144h-200l-63 -356h-150l88 500h350z" />
    <glyph glyph-name="uni0434" unicode="&#x434;" horiz-adv-x="600" 
d="M496 140h65l-49 -274h-146l24 134h-278l-24 -134h-146l49 274h62q51 62 70 173l33 187h403zM212 140h138l39 226h-111l-9 -53q-19 -108 -57 -173z" />
    <glyph glyph-name="uni0435" unicode="&#x435;" horiz-adv-x="582" 
d="M331 514q111 0 176.5 -76t44.5 -188q-5 -32 -16 -60h-358q11 -70 103 -70q63 0 105 39l105 -86q-86 -87 -220 -87q-127 0 -192.5 79t-46.5 195q17 109 102 181.5t197 72.5zM199 304h212q-7 77 -90 77t-122 -77z" />
    <glyph glyph-name="uni0436" unicode="&#x436;" horiz-adv-x="770" 
d="M799 500l-209 -254l126 -246h-151l-113 224l-39 -224h-146l39 221l-181 -221h-159l216 265l-116 235h147l105 -212l37 212h146l-38 -216l172 216h164z" />
    <glyph glyph-name="uni0437" unicode="&#x437;" horiz-adv-x="453" 
d="M431 356q-13 -74 -72 -107q65 -43 52 -121q-12 -65 -68.5 -103.5t-155.5 -38.5q-158 0 -198 119l129 66q17 -55 86 -55q58 0 66 39q3 17 -7 26t-34 9h-71l22 126h54q47 0 53 34q3 18 -8 27t-33 9q-55 0 -90 -57l-113 70q82 115 217 115q88 0 135 -48t36 -110z" />
    <glyph glyph-name="uni0438" unicode="&#x438;" 
d="M459 500h110l-88 -500h-146l43 244l-257 -244h-110l88 500h146l-43 -244z" />
    <glyph glyph-name="uni0439" unicode="&#x439;" 
d="M195 559l22 130h300l-22 -130h-300zM459 500h110l-88 -500h-146l43 244l-257 -244h-110l88 500h146l-43 -244z" />
    <glyph glyph-name="uni043A" unicode="&#x43a;" horiz-adv-x="525" 
d="M564 500l-221 -250l138 -250h-160l-120 228l-40 -228h-150l88 500h150l-36 -207l178 207h173z" />
    <glyph glyph-name="uni043B" unicode="&#x43b;" horiz-adv-x="545" 
d="M534 500l-88 -500h-150l63 356h-109l-26 -149q-21 -122 -84.5 -171t-172.5 -36l24 140q69 -16 85 77l50 283h408z" />
    <glyph glyph-name="uni043C" unicode="&#x43c;" horiz-adv-x="640" 
d="M629 500l-88 -500h-144l46 259l-144 -175h-18l-81 174l-45 -258h-144l88 500h144l77 -194l154 194h155z" />
    <glyph glyph-name="uni043D" unicode="&#x43d;" 
d="M419 500h150l-88 -500h-150l32 180h-170l-32 -180h-150l88 500h150l-32 -180h170z" />
    <glyph glyph-name="uni043E" unicode="&#x43e;" horiz-adv-x="590" 
d="M264 -14q-88 0 -146.5 43.5t-78 107t-5.5 133.5q21 103 101 173.5t199 70.5q120 0 181 -86.5t42 -193.5q-18 -101 -101 -174.5t-192 -73.5zM274 132q49 0 87 32.5t47 85.5q10 53 -16.5 85.5t-75.5 32.5t-85.5 -32.5t-46.5 -85.5q-9 -53 16 -85.5t74 -32.5z" />
    <glyph glyph-name="uni043F" unicode="&#x43f;" 
d="M569 500l-88 -500h-150l63 360h-170l-63 -360h-150l88 500h470z" />
    <glyph glyph-name="uni0440" unicode="&#x440;" horiz-adv-x="623" 
d="M391 514q107 0 162 -82.5t38 -191.5q-15 -102 -88.5 -178t-184.5 -76q-100 0 -147 71l-45 -257h-150l123 700h150l-7 -42q61 56 149 56zM441 250q10 56 -16.5 89t-78.5 33q-51 0 -90 -32t-50 -85l-2 -9q-7 -54 20 -86t79 -32t90 33t48 89z" />
    <glyph glyph-name="uni0441" unicode="&#x441;" horiz-adv-x="535" 
d="M265 -14q-119 0 -185 79t-48 195q17 110 101 182t197 72q78 0 133 -35.5t80 -94.5l-137 -72q-23 54 -89 54q-50 0 -88 -31.5t-47 -82.5t18 -84.5t76 -33.5q64 0 104 56l121 -77q-38 -63 -101 -95t-135 -32z" />
    <glyph glyph-name="uni0442" unicode="&#x442;" horiz-adv-x="470" 
d="M504 500l-25 -144h-149l-63 -356h-150l63 356h-151l25 144h450z" />
    <glyph glyph-name="uni0443" unicode="&#x443;" horiz-adv-x="530" 
d="M408 500h166l-256 -485q-66 -125 -143.5 -173t-179.5 -42l24 140q54 0 82 17t54 65l-111 478h154l62 -306z" />
    <glyph glyph-name="uni0444" unicode="&#x444;" horiz-adv-x="690" 
d="M463 504q104 -22 158 -95.5t37 -168.5q-18 -99 -93 -165.5t-192 -82.5l-34 -192h-146l34 196q-104 22 -158 95.5t-37 168.5q18 99 93 165.5t192 82.5l34 192h146zM512 250q16 87 -74 113l-40 -226q98 26 114 113zM178 250q-16 -87 74 -113l40 226q-98 -26 -114 -113z" />
    <glyph glyph-name="uni0445" unicode="&#x445;" horiz-adv-x="530" 
d="M568 500l-219 -251l137 -249h-162l-74 135l-118 -135h-176l226 259l-132 241h162l69 -127l111 127h176z" />
    <glyph glyph-name="uni0446" unicode="&#x446;" horiz-adv-x="610" 
d="M486 140h85l-49 -274h-146l24 134h-389l88 500h150l-63 -360h150l63 360h150z" />
    <glyph glyph-name="uni0447" unicode="&#x447;" horiz-adv-x="545" 
d="M384 500h150l-88 -500h-150l26 147q-60 -13 -106 -13q-89 0 -139 49t-35 132l32 185h150l-29 -165q-5 -29 11.5 -45t54.5 -16t86 17z" />
    <glyph glyph-name="uni0448" unicode="&#x448;" horiz-adv-x="840" 
d="M679 500h150l-88 -500h-730l88 500h150l-63 -360h140l63 360h150l-63 -360h140z" />
    <glyph glyph-name="uni0449" unicode="&#x449;" horiz-adv-x="850" 
d="M746 140h65l-49 -274h-146l24 134h-629l88 500h150l-63 -360h130l63 360h150l-63 -360h130l63 360h150z" />
    <glyph glyph-name="uni044A" unicode="&#x44a;" horiz-adv-x="585" 
d="M387 350q83 0 130 -53t33 -132q-30 -165 -225 -165h-234l63 356h-135l25 144h285l-26 -150h84zM406 175q3 20 -8 32.5t-33 12.5h-85l-16 -90h85q22 0 37.5 12.5t19.5 32.5z" />
    <glyph glyph-name="uni044B" unicode="&#x44b;" horiz-adv-x="740" 
d="M307 350q83 0 130 -53t33 -132q-30 -165 -225 -165h-234l88 500h150l-26 -150h84zM579 500h150l-88 -500h-150zM326 175q3 20 -8 32.5t-33 12.5h-85l-16 -90h85q22 0 37.5 12.5t19.5 32.5z" />
    <glyph glyph-name="uni044C" unicode="&#x44c;" horiz-adv-x="505" 
d="M307 350q83 0 130 -53t33 -132q-30 -165 -225 -165h-234l88 500h150l-26 -150h84zM326 175q3 20 -8 32.5t-33 12.5h-85l-16 -90h85q22 0 37.5 12.5t19.5 32.5z" />
    <glyph glyph-name="uni044D" unicode="&#x44d;" horiz-adv-x="535" 
d="M276 514q114 0 180.5 -81t46.5 -193q-20 -114 -101 -184t-199 -70q-73 0 -130.5 35t-81.5 94l132 70q26 -56 97 -56q67 0 110 54h-139l24 134h139q-22 54 -92 54t-110 -58l-118 74q40 58 104.5 92.5t137.5 34.5z" />
    <glyph glyph-name="uni044E" unicode="&#x44e;" horiz-adv-x="815" 
d="M561 514q80 0 136 -42.5t76.5 -105.5t8.5 -132q-18 -101 -100 -174.5t-191 -73.5q-102 0 -162 55t-70 139h-66l-32 -180h-150l88 500h150l-32 -180h61q33 85 107 139.5t176 54.5zM635 250q10 52 -17 85t-77 33q-49 0 -86.5 -32.5t-47.5 -85.5q-9 -53 17 -85.5t75 -32.5
q50 0 88.5 33t47.5 85z" />
    <glyph glyph-name="uni044F" unicode="&#x44f;" horiz-adv-x="525" 
d="M514 500l-88 -500h-146l25 144h-29l-125 -144h-175l150 168q-42 27 -61.5 72t-11.5 92q12 72 68 120t149 48h244zM198 317q-3 -20 8 -34.5t36 -14.5h85l18 100h-85q-25 0 -42 -15.5t-20 -35.5z" />
    <glyph glyph-name="uni0451" unicode="&#x451;" horiz-adv-x="582" 
d="M259 545q-31 0 -49 22t-13 53t31 53t57 22t49 -22t13 -53t-31 -53t-57 -22zM449 545q-31 0 -49 22t-13 53t31 53t57 22t49 -22t13 -53t-31 -53t-57 -22zM331 514q111 0 176.5 -76t44.5 -188q-5 -32 -16 -60h-358q11 -70 103 -70q63 0 105 39l105 -86q-86 -87 -220 -87
q-127 0 -192.5 79t-46.5 195q17 109 102 181.5t197 72.5zM199 304h212q-7 77 -90 77t-122 -77z" />
    <glyph glyph-name="uni0452" unicode="&#x452;" horiz-adv-x="585" 
d="M393 514q81 0 127.5 -55.5t29.5 -151.5l-54 -307q-22 -123 -85 -172t-183 -42l26 144q41 -2 63 14.5t29 55.5l50 285q8 46 -12.5 68.5t-59.5 22.5q-41 0 -71 -25.5t-39 -77.5l-48 -273h-150l96 546h-60l17 94h59l11 60h150l-11 -60h141l-17 -94h-140l-16 -93
q55 61 147 61z" />
    <glyph glyph-name="uni0453" unicode="&#x453;" horiz-adv-x="405" 
d="M465 700l-136 -140h-148l100 140h184zM99 500h350l-25 -144h-200l-63 -356h-150z" />
    <glyph glyph-name="uni0454" unicode="&#x454;" horiz-adv-x="535" 
d="M267 129q76 0 116 58l118 -74q-40 -58 -104.5 -92.5t-137.5 -34.5q-114 0 -180.5 81t-46.5 193t103 183t197 71q73 0 130.5 -35t81.5 -94l-132 -70q-26 56 -95 56q-66 0 -109 -54h135l-24 -134h-137q23 -54 85 -54z" />
    <glyph glyph-name="uni0455" unicode="&#x455;" horiz-adv-x="468" 
d="M206 -14q-155 0 -211 123l135 68q22 -57 89 -57q51 0 55 26q3 16 -22 27t-61 21t-70.5 26t-54.5 52.5t-10 90.5q9 51 43 86t77 50t90 15q66 0 116.5 -28.5t74.5 -78.5l-135 -67q-18 44 -65 44q-45 0 -51 -31q-4 -20 20.5 -31t60.5 -19.5t71 -23t55 -51t10 -93.5
q-14 -76 -73 -112.5t-144 -36.5z" />
    <glyph glyph-name="uni0456" unicode="&#x456;" horiz-adv-x="260" 
d="M183 544q-38 0 -59.5 26.5t-15.5 63.5q6 36 36.5 63t67.5 27t59.5 -26.5t16.5 -63.5t-36.5 -63.5t-68.5 -26.5zM11 0l88 500h150l-88 -500h-150z" />
    <glyph glyph-name="uni0457" unicode="&#x457;" horiz-adv-x="260" 
d="M86 540q-31 0 -49 22t-13 53t31 53t57 22t49 -22t13 -53t-31 -53t-57 -22zM276 540q-31 0 -49 22t-13 53t31 53t57 22t49 -22t13 -53t-31 -53t-57 -22zM11 0l88 500h150l-88 -500h-150z" />
    <glyph glyph-name="uni0458" unicode="&#x458;" horiz-adv-x="275" 
d="M227 724q37 0 59.5 -26.5t16.5 -63.5t-36.5 -63.5t-68.5 -26.5t-59.5 26.5t-15.5 63.5q6 36 36.5 63t67.5 27zM26 0l88 500h150l-88 -500q-21 -123 -84.5 -172t-183.5 -42l26 144q41 -2 63 14.5t29 55.5z" />
    <glyph glyph-name="uni0459" unicode="&#x459;" horiz-adv-x="765" 
d="M575 340q77 0 122.5 -51.5t31.5 -128.5q-14 -78 -69.5 -119t-144.5 -41h-229l63 356h-99l-26 -149q-21 -122 -84.5 -171t-172.5 -36l24 140q69 -16 85 77l50 283h398l-28 -160h79zM585 170q4 19 -6 29.5t-26 10.5h-80l-14 -80h80q16 0 29 10.5t17 29.5z" />
    <glyph glyph-name="uni045A" unicode="&#x45a;" horiz-adv-x="800" 
d="M610 340q77 0 122.5 -51.5t31.5 -128.5q-14 -78 -69.5 -119t-144.5 -41h-229l35 200h-160l-35 -200h-150l88 500h150l-28 -160h160l28 160h150l-28 -160h79zM620 170q4 19 -6 29.5t-26 10.5h-80l-14 -80h80q16 0 29 10.5t17 29.5z" />
    <glyph glyph-name="uni045B" unicode="&#x45b;" horiz-adv-x="585" 
d="M393 514q81 0 127.5 -55.5t29.5 -151.5l-54 -307h-150l50 285q8 46 -12.5 68.5t-59.5 22.5q-41 0 -71 -25.5t-39 -77.5l-48 -273h-150l96 546h-60l17 94h59l11 60h150l-11 -60h141l-17 -94h-140l-16 -93q55 61 147 61z" />
    <glyph glyph-name="uni045C" unicode="&#x45c;" horiz-adv-x="525" 
d="M525 700l-136 -140h-148l100 140h184zM564 500l-221 -250l138 -250h-160l-120 228l-40 -228h-150l88 500h150l-36 -207l178 207h173z" />
    <glyph glyph-name="uni045E" unicode="&#x45e;" horiz-adv-x="530" 
d="M478 689l-22 -130h-300l22 130h300zM408 500h166l-256 -485q-66 -125 -143.5 -173t-179.5 -42l24 140q54 0 82 17t54 65l-111 478h154l62 -306z" />
    <glyph glyph-name="uni045F" unicode="&#x45f;" 
d="M419 500h150l-88 -500h-162l-24 -134h-146l24 134h-162l88 500h150l-63 -360h170z" />
    <glyph glyph-name="uni0490" unicode="&#x490;" horiz-adv-x="470" 
d="M401 820h160l-49 -274h-240l-96 -546h-160l123 700h241z" />
    <glyph glyph-name="uni0491" unicode="&#x491;" horiz-adv-x="405" 
d="M321 600h146l-43 -244h-200l-63 -356h-150l88 500h204z" />
    <glyph glyph-name="Wgrave" unicode="&#x1e80;" horiz-adv-x="998" 
d="M679 760l-63 140h-173l95 -140h141zM159 0l-70 700h160l37 -490l221 490h130l49 -490l207 490h174l-316 -700h-182l-42 413l-186 -413h-182z" />
    <glyph glyph-name="wgrave" unicode="&#x1e81;" horiz-adv-x="780" 
d="M535 560h-141l-95 140h173zM649 500h165l-248 -500h-140l-33 263l-117 -263h-150l-72 500h150l31 -268l119 268h145l33 -268z" />
    <glyph glyph-name="Wacute" unicode="&#x1e82;" horiz-adv-x="998" 
d="M499 760h148l136 140h-184zM159 0l-70 700h160l37 -490l221 490h130l49 -490l207 490h174l-316 -700h-182l-42 413l-186 -413h-182z" />
    <glyph glyph-name="wacute" unicode="&#x1e83;" horiz-adv-x="780" 
d="M639 700l-136 -140h-148l100 140h184zM649 500h165l-248 -500h-140l-33 263l-117 -263h-150l-72 500h150l31 -268l119 268h145l33 -268z" />
    <glyph glyph-name="Wdieresis" unicode="&#x1e84;" horiz-adv-x="998" 
d="M490 740q-31 0 -49 22t-13 53t31 53t57 22t49 -22t13 -53t-31 -53t-57 -22zM680 740q-31 0 -49 22t-13 53t31 53t57 22t49 -22t13 -53t-31 -53t-57 -22zM159 0l-70 700h160l37 -490l221 490h130l49 -490l207 490h174l-316 -700h-182l-42 413l-186 -413h-182z" />
    <glyph glyph-name="wdieresis" unicode="&#x1e85;" horiz-adv-x="780" 
d="M346 540q-31 0 -49 22t-13 53t31 53t57 22t49 -22t13 -53t-31 -53t-57 -22zM536 540q-31 0 -49 22t-13 53t31 53t57 22t49 -22t13 -53t-31 -53t-57 -22zM649 500h165l-248 -500h-140l-33 263l-117 -263h-150l-72 500h150l31 -268l119 268h145l33 -268z" />
    <glyph glyph-name="Ygrave" unicode="&#x1ef2;" horiz-adv-x="610" 
d="M485 760h-141l-95 140h173zM689 700l-294 -394l-54 -306h-160l54 307l-156 393h173l82 -236l164 236h191z" />
    <glyph glyph-name="ygrave" unicode="&#x1ef3;" horiz-adv-x="530" 
d="M396 560h-141l-95 140h173zM408 500h166l-256 -485q-66 -125 -143.5 -173t-179.5 -42l24 140q54 0 82 17t54 65l-111 478h154l62 -306z" />
    <glyph glyph-name="endash" unicode="&#x2013;" horiz-adv-x="615" 
d="M56 227l25 144h495l-25 -144h-495z" />
    <glyph glyph-name="emdash" unicode="&#x2014;" horiz-adv-x="715" 
d="M56 227l25 144h595l-25 -144h-595z" />
    <glyph glyph-name="quoteleft" unicode="&#x2018;" horiz-adv-x="290" 
d="M72 405l132 295h120l-92 -295h-160z" />
    <glyph glyph-name="quoteright" unicode="&#x2019;" horiz-adv-x="290" 
d="M324 700l-132 -295h-120l92 295h160z" />
    <glyph glyph-name="quotesinglbase" unicode="&#x201a;" horiz-adv-x="290" 
d="M228 155l-132 -295h-120l92 295h160z" />
    <glyph glyph-name="quotedblleft" unicode="&#x201c;" horiz-adv-x="490" 
d="M72 405l132 295h120l-92 -295h-160zM272 405l132 295h120l-92 -295h-160z" />
    <glyph glyph-name="quotedblright" unicode="&#x201d;" horiz-adv-x="490" 
d="M324 700l-132 -295h-120l92 295h160zM524 700l-132 -295h-120l92 295h160z" />
    <glyph glyph-name="quotedblbase" unicode="&#x201e;" horiz-adv-x="490" 
d="M228 155l-132 -295h-120l92 295h160zM428 155l-132 -295h-120l92 295h160z" />
    <glyph glyph-name="dagger" unicode="&#x2020;" horiz-adv-x="480" 
d="M497 575l-25 -144h-125l-76 -431h-150l76 431h-125l25 144h125l22 125h150l-22 -125h125z" />
    <glyph glyph-name="daggerdbl" unicode="&#x2021;" horiz-adv-x="480" 
d="M472 431h-125l-29 -162h125l-25 -144h-125l-22 -125h-150l22 125h-125l25 144h125l29 162h-125l25 144h125l22 125h150l-22 -125h125z" />
    <glyph glyph-name="bullet" unicode="&#x2022;" horiz-adv-x="380" 
d="M181 200q-61 0 -97 46.5t-25 109.5q11 62 61 103t116 41q61 0 96.5 -45t24.5 -107q-11 -64 -60 -106t-116 -42z" />
    <glyph glyph-name="ellipsis" unicode="&#x2026;" horiz-adv-x="760" 
d="M93 -14q-39 0 -61.5 29t-15.5 68q7 40 38.5 66.5t72.5 26.5q39 0 62 -29t16 -68q-7 -40 -38 -66.5t-74 -26.5zM333 -14q-39 0 -61.5 29t-15.5 68q7 40 38.5 66.5t72.5 26.5q39 0 62 -29t16 -68q-7 -40 -38 -66.5t-74 -26.5zM573 -14q-39 0 -61.5 29t-15.5 68
q7 40 38.5 66.5t72.5 26.5q39 0 62 -29t16 -68q-7 -40 -38 -66.5t-74 -26.5z" />
    <glyph glyph-name="perthousand" unicode="&#x2030;" horiz-adv-x="1164" 
d="M241 374q-76 0 -117 50.5t-32 117.5q9 70 62 121t137 51q79 0 120 -57t26 -127q-15 -66 -66.5 -111t-129.5 -45zM97 111l539 501l64 -41l-539 -502zM255 489q23 0 41 16.5t22 38.5q4 24 -7.5 39.5t-35.5 15.5q-23 0 -40.5 -16t-21.5 -39q-5 -23 7 -39t35 -16zM530 -12
q-77 0 -117.5 52.5t-30.5 120.5q11 69 63.5 118t134.5 49q77 0 118.5 -56t27.5 -124q-14 -67 -65.5 -113.5t-130.5 -46.5zM910 -12q-77 0 -117.5 52.5t-30.5 120.5q11 69 63.5 118t134.5 49q77 0 118.5 -56t27.5 -124q-14 -67 -65.5 -113.5t-130.5 -46.5zM544 103
q23 0 41 16.5t22 38.5q4 24 -7.5 39.5t-35.5 15.5q-23 0 -40 -15.5t-22 -39.5q-5 -23 7 -39t35 -16zM924 103q23 0 41 16.5t22 38.5q4 24 -7.5 39.5t-35.5 15.5q-23 0 -40 -15.5t-22 -39.5q-5 -23 7 -39t35 -16z" />
    <glyph glyph-name="guilsinglleft" unicode="&#x2039;" horiz-adv-x="362" 
d="M346 499l-144 -194l75 -186h-130l-77 190l141 190h135z" />
    <glyph glyph-name="guilsinglright" unicode="&#x203a;" horiz-adv-x="363" 
d="M236 499l77 -190l-141 -190h-135l144 194l-75 186h130z" />
    <glyph glyph-name="fraction" unicode="&#x2044;" horiz-adv-x="180" 
d="M-99 0h-105l518 700h105z" />
    <glyph glyph-name="Euro" unicode="&#x20ac;" horiz-adv-x="623" 
d="M341 142q66 0 118 75l125 -77q-89 -154 -264 -154q-110 0 -172 72.5t-64 195.5h-68l15 84h59l3 22q1 2 1 5t1 5h-59l15 84h66q41 123 123.5 191.5t195.5 68.5q75 0 131 -40t80 -108l-139 -73q-27 65 -94 65q-88 0 -132 -104h189l-15 -84h-199q-1 -4 -2.5 -10.5t-1.5 -9.5
q-1 -2 -1 -6t-1 -6h200l-15 -84h-191q5 -112 96 -112z" />
    <glyph glyph-name="uni20BD" unicode="&#x20bd;" horiz-adv-x="605" 
d="M424 700q96 0 157.5 -75.5t43.5 -174.5q-18 -101 -92 -160.5t-191 -59.5h-106l-7 -41h210l-17 -98h-210l-16 -91h-160l16 91h-70l17 98h70l7 41h-69l24 140h70l58 330h265zM467 460q7 38 -12.5 64t-56.5 26h-105l-32 -180h105q37 0 65.5 26t35.5 64z" />
    <glyph glyph-name="uni2116" unicode="&#x2116;" horiz-adv-x="1047" 
d="M867 374q-73 0 -115.5 52.5t-29.5 122.5q12 71 68 118t133 47q73 0 115 -52t30 -123q-13 -71 -68 -118t-133 -47zM16 0l123 700h120l201 -393l69 393h160l-123 -700h-120l-200 393l-70 -393h-160zM886 494q22 0 38 13.5t20 36.5q4 22 -7 36t-33 14t-38 -14t-20 -36t7 -36
t33 -14zM673 184l25 140h322l-25 -140h-322z" />
    <glyph glyph-name="trademark" unicode="&#x2122;" horiz-adv-x="476" 
d="M275 638h-55l-24 -138h-67l24 138h-55l11 62h177zM525 700l-35 -200h-64l17 99l-54 -63h-6l-31 65l-18 -101h-64l35 200h64l29 -69l54 69h73z" />
    <glyph glyph-name="estimated" unicode="&#x212e;" horiz-adv-x="780" 
d="M471 710q161 0 247.5 -104.5t59.5 -255.5q-3 -15 -18 -15h-560q-15 0 -18 -15l-33 -192q-3 -11 3 -19q69 -89 218 -89q143 0 250 97q9 9 19 9h35q10 0 12 -6t-6 -13q-130 -117 -316 -117q-173 0 -262.5 108t-62.5 262q27 152 146.5 251t285.5 99zM668 574q1 11 -4 19
q-67 87 -198 87q-129 0 -229 -89q-9 -9 -10 -19l-34 -192q-3 -15 12 -15h410q15 0 18 15z" />
    <glyph glyph-name="oneeighth" unicode="&#x215b;" horiz-adv-x="807" 
d="M588 700h105l-518 -700h-105zM163 571l-81 -22l-11 107l130 44h107l-71 -400h-122zM781 288q-9 -53 -57 -82q47 -37 38 -100q-8 -57 -53.5 -88.5t-121.5 -31.5q-72 0 -109.5 35.5t-27.5 92.5q11 66 75 98q-39 33 -29 86q10 55 53.5 85.5t107.5 30.5q61 0 97.5 -35
t26.5 -91zM595 280q-3 -16 6.5 -24t29.5 -8q40 0 46 32q3 16 -7 24.5t-28 8.5q-41 0 -47 -33zM652 127q7 38 -36 38t-50 -38q-6 -39 36 -39q44 0 50 39z" />
    <glyph glyph-name="threeeighths" unicode="&#x215c;" horiz-adv-x="879" 
d="M352 415q-23 -129 -175 -129q-117 0 -150 90l107 57q17 -42 56 -42q35 0 40 31q2 15 -7.5 22.5t-27.5 7.5h-25l-31 61l73 77h-129l19 110h281l-15 -85l-79 -83q36 -16 53 -46.5t10 -70.5zM660 700h105l-518 -700h-105zM853 288q-9 -53 -57 -82q47 -37 38 -100
q-8 -57 -53.5 -88.5t-121.5 -31.5q-72 0 -109.5 35.5t-27.5 92.5q11 66 75 98q-39 33 -29 86q10 55 53.5 85.5t107.5 30.5q61 0 97.5 -35t26.5 -91zM667 280q-3 -16 6.5 -24t29.5 -8q40 0 46 32q3 16 -7 24.5t-28 8.5q-41 0 -47 -33zM724 127q7 38 -36 38t-50 -38
q-6 -39 36 -39q44 0 50 39z" />
    <glyph glyph-name="fiveeighths" unicode="&#x215d;" horiz-adv-x="865" 
d="M343 411q-21 -125 -166 -125q-112 0 -145 90l104 54q14 -42 55 -42q38 0 43 32q2 15 -6 23.5t-25 8.5h-135l60 248h245l-19 -110h-141l-11 -41h23q60 0 95 -35.5t23 -102.5zM646 700h105l-518 -700h-105zM839 288q-9 -53 -57 -82q47 -37 38 -100q-8 -57 -53.5 -88.5
t-121.5 -31.5q-72 0 -109.5 35.5t-27.5 92.5q11 66 75 98q-39 33 -29 86q10 55 53.5 85.5t107.5 30.5q61 0 97.5 -35t26.5 -91zM653 280q-3 -16 6.5 -24t29.5 -8q40 0 46 32q3 16 -7 24.5t-28 8.5q-41 0 -47 -33zM710 127q7 38 -36 38t-50 -38q-6 -39 36 -39q44 0 50 39z
" />
    <glyph glyph-name="seveneighths" unicode="&#x215e;" horiz-adv-x="828" 
d="M173 300h-129l161 290h-145l19 110h280l-16 -93zM609 700h105l-518 -700h-105zM802 288q-9 -53 -57 -82q47 -37 38 -100q-8 -57 -53.5 -88.5t-121.5 -31.5q-72 0 -109.5 35.5t-27.5 92.5q11 66 75 98q-39 33 -29 86q10 55 53.5 85.5t107.5 30.5q61 0 97.5 -35t26.5 -91z
M616 280q-3 -16 6.5 -24t29.5 -8q40 0 46 32q3 16 -7 24.5t-28 8.5q-41 0 -47 -33zM673 127q7 38 -36 38t-50 -38q-7 -39 36 -39t50 39z" />
    <glyph glyph-name="arrowleft" unicode="&#x2190;" horiz-adv-x="790" 
d="M780 422l-25 -144h-448l188 -228h-190l-247 300l353 300h210l-268 -228h427z" />
    <glyph glyph-name="arrowup" unicode="&#x2191;" horiz-adv-x="680" 
d="M666 400l-33 -188l-185 225l-77 -437h-150l74 417l-265 -224l36 207l353 300z" />
    <glyph glyph-name="arrowright" unicode="&#x2192;" horiz-adv-x="790" 
d="M521 650l247 -300l-353 -300h-210l268 228h-428l25 144h449l-188 228h190z" />
    <glyph glyph-name="arrowdown" unicode="&#x2193;" horiz-adv-x="680" 
d="M421 283l264 225l-36 -208l-353 -300l-247 300l33 188l185 -225l77 437h150z" />
    <glyph glyph-name="arrowboth" unicode="&#x2194;" horiz-adv-x="1100" 
d="M919 356l159 -6l-330 -280h-203l242 208h-484l171 -208h-186l-230 280l329 280h206l-245 -208h483l-171 208h187l231 -280l-159 7v-1z" />
    <glyph glyph-name="arrowupdn" unicode="&#x2195;" horiz-adv-x="640" 
d="M625 394l-169 205l-84 -482l241 205l-36 -202l-329 -280l-230 280l33 186l168 -205l84 482l-240 -205l36 202l329 280l230 -280z" />
    <glyph glyph-name="uni2196" unicode="&#x2196;" horiz-adv-x="645" 
d="M646 482h-330l269 -328l-111 -93l-270 327l-58 -330l-115 140l75 424h425z" />
    <glyph glyph-name="uni2197" unicode="&#x2197;" horiz-adv-x="645" 
d="M247 622h424l-75 -424l-165 -140l55 311l-374 -317l-93 111l375 319h-312z" />
    <glyph glyph-name="uni2198" unicode="&#x2198;" horiz-adv-x="645" 
d="M532 631l116 -140l-75 -424h-424l-116 140h330l-269 328l110 93l270 -326z" />
    <glyph glyph-name="uni2199" unicode="&#x2199;" horiz-adv-x="645" 
d="M659 527l-376 -320h313l-164 -140h-424l75 424l164 140l-56 -314l376 319z" />
    <glyph glyph-name="partialdiff" unicode="&#x2202;" horiz-adv-x="586" 
d="M324 714q118 0 192 -107t46 -267q-31 -177 -120.5 -265.5t-216.5 -88.5q-101 0 -154.5 66.5t-37.5 157.5q18 102 88 163.5t168 61.5q79 0 130 -35q4 83 -31.5 128t-109.5 46q-53 1 -116 -31l24 135q63 36 138 36zM246 126q103 0 150 148q-38 31 -97 31q-42 0 -75.5 -27
t-41.5 -73q-6 -37 12.5 -58t51.5 -21z" />
    <glyph glyph-name="emptyset" unicode="&#x2205;" horiz-adv-x="804" 
d="M837 720l-117 -122q85 -110 60 -258q-27 -150 -147.5 -251t-270.5 -101q-99 0 -178 54l-59 -62h-123l117 122q-87 112 -60 258q26 149 147 250.5t272 101.5q98 0 177 -53l59 61h123zM158 350q-18 -99 33 -174l392 408q-52 30 -117 30q-109 0 -198.5 -77t-109.5 -187z
M681 350q18 99 -33 174l-392 -408q52 -30 117 -30q109 0 198.5 77t109.5 187z" />
    <glyph glyph-name="product" unicode="&#x220f;" horiz-adv-x="640" 
d="M-19 -200l158 900h520l-158 -900h-150l133 756h-220l-133 -756h-150z" />
    <glyph glyph-name="summation" unicode="&#x2211;" horiz-adv-x="570" 
d="M-49 -200l25 140l264 336l-135 316l19 108h470l-25 -144h-292l126 -296l-248 -316h321l-25 -144h-500z" />
    <glyph glyph-name="minus" unicode="&#x2212;" horiz-adv-x="560" 
d="M55 280l25 140h460l-25 -140h-460z" />
    <glyph glyph-name="radical" unicode="&#x221a;" horiz-adv-x="686" 
d="M219 0l-84 186h-106l25 144h182l64 -157l321 627h162l-420 -800h-144z" />
    <glyph glyph-name="infinity" unicode="&#x221e;" horiz-adv-x="810" 
d="M617 530q81 0 127 -53t32 -135q-15 -81 -72.5 -126.5t-139.5 -45.5q-83 0 -156 81q-96 -81 -178 -81t-129 53.5t-32 134.5q14 81 73 126.5t141 45.5q83 0 155 -81q98 81 179 81zM256 305q35 0 78 45q-28 45 -62 45q-20 0 -35 -13t-18 -32q-4 -19 6.5 -32t30.5 -13z
M626 350q3 19 -6.5 32t-29.5 13q-35 0 -78 -45q28 -45 62 -45q20 0 34 13t18 32z" />
    <glyph glyph-name="integral" unicode="&#x222b;" horiz-adv-x="442" 
d="M-80 -204l26 150q17 -8 37.5 -8.5t41.5 15.5t31 45l185 535q76 222 281 169l-27 -150q-17 8 -37 8.5t-41 -15.5t-31 -45l-185 -535q-76 -222 -281 -169z" />
    <glyph glyph-name="approxequal" unicode="&#x2248;" horiz-adv-x="560" 
d="M312 371q-44 20 -74.5 25t-45 1t-39.5 -16l-85 28q73 201 242 130q55 -27 90.5 -25t54.5 45l109 -58q-37 -98 -107 -132t-145 2zM141 141l-110 58q38 98 107.5 132t144.5 -2q45 -20 75 -25t44.5 -1t39.5 16l85 -28q-73 -201 -242 -130q-55 27 -90 25t-54 -45z" />
    <glyph glyph-name="notequal" unicode="&#x2260;" horiz-adv-x="520" 
d="M503 385h-157l-44 -70h189l-25 -140h-251l-78 -125h-92l78 125h-96l25 140h158l44 70h-190l25 140h252l78 125h92l-78 -125h95z" />
    <glyph glyph-name="lessequal" unicode="&#x2264;" horiz-adv-x="530" 
d="M564 670l-28 -161l-294 -81l265 -81l-26 -147l-420 170l12 65l11 65zM3 40l25 140h450l-25 -140h-450z" />
    <glyph glyph-name="greaterequal" unicode="&#x2265;" horiz-adv-x="530" 
d="M114 670l420 -170l-11 -65l-12 -65l-480 -170l28 160l295 81l-266 81zM3 40l25 140h450l-25 -140h-450z" />
    <glyph glyph-name="lozenge" unicode="&#x25ca;" horiz-adv-x="560" 
d="M182 0l-124 350l247 350h108l125 -350l-248 -350h-108zM266 203l112 159l-48 135l-112 -159z" />
    <glyph glyph-name="i.loclTRK" horiz-adv-x="260" 
d="M183 545q-35 0 -56 25.5t-14 59.5q6 35 35.5 60t63.5 25q35 0 56 -25.5t15 -59.5q-7 -35 -36.5 -60t-63.5 -25zM11 0l88 500h150l-88 -500h-150z" />
    <glyph glyph-name="f_f_j" horiz-adv-x="850" 
d="M839 500l-88 -500q-21 -123 -84.5 -172t-183.5 -42l26 144q41 -2 63 14.5t29 55.5l63 356h-128l-63 -356h-150l63 356h-130l-63 -356h-150l63 356h-67l25 144h67q40 229 281 214l-25 -144q-93 8 -106 -70h130l2 10q19 112 87.5 163t193.5 51q58 0 122 -14l-24 -138
q-44 8 -100 8q-117 0 -129 -70l-2 -10h278z" />
    <glyph glyph-name="f_j" horiz-adv-x="570" 
d="M559 500l-88 -500q-21 -123 -84.5 -172t-183.5 -42l26 144q41 -2 63 14.5t29 55.5l63 356h-128l-63 -356h-150l63 356h-67l25 144h67q19 112 87.5 163t193.5 51q58 0 122 -14l-24 -138q-44 8 -100 8q-117 0 -129 -70h278z" />
    <glyph glyph-name="uni0414.loclBGR" horiz-adv-x="740" 
d="M625 154h83l-51 -288h-160l24 134h-390l-24 -134h-160l51 288h83l266 546h204zM252 154h210l-40 367z" />
    <glyph glyph-name="uni041B.loclBGR" horiz-adv-x="640" 
d="M-44 0l341 700h204l95 -700h-171l-51 515l-239 -515h-179z" />
    <glyph glyph-name="uni0424.loclBGR" horiz-adv-x="864" 
d="M587 705q143 -24 215.5 -123t47.5 -242q-26 -149 -129 -240.5t-260 -108.5l-16 -91h-150l17 95q-143 24 -215.5 123t-47.5 242q26 149 129 240.5t260 108.5l16 91h150zM690 350q31 180 -128 210l-75 -420q170 30 203 210zM209 350q-33 -180 128 -210l75 420
q-172 -30 -203 -210z" />
    <glyph glyph-name="uni0414.ss01" horiz-adv-x="710" 
d="M689 700l-96 -546h75l-28 -154h-668l26 154h71q69 79 96 232l55 314h469zM244 154h189l70 396h-149l-29 -166q-27 -150 -81 -230z" />
    <glyph glyph-name="uni0426.ss01" horiz-adv-x="690" 
d="M573 154h75l-27 -154h-605l123 700h160l-96 -546h210l96 546h160z" />
    <glyph glyph-name="uni0429.ss01" horiz-adv-x="980" 
d="M863 154h75l-27 -154h-895l123 700h160l-96 -546h170l96 546h160l-96 -546h170l96 546h160z" />
    <glyph glyph-name="uni0414.loclBGR.ss01" horiz-adv-x="740" 
d="M625 154h83l-27 -154h-710l27 154h83l266 546h204zM252 154h210l-40 367z" />
    <glyph glyph-name="uni0432.loclBGR" horiz-adv-x="565" 
d="M535 526q-12 -69 -84 -126q47 -27 68 -76.5t9 -115.5q-19 -109 -88 -165.5t-183 -56.5q-105 0 -164.5 69.5t-40.5 176.5l42 239q20 117 88 180t173 63q87 0 140.5 -53t39.5 -135zM342 574q-36 0 -63 -29.5t-36 -77.5l-9 -50l31 6q34 6 51 6q64 44 70 89q5 26 -6.5 41
t-37.5 15zM378 218q9 50 -28 68t-109 3l-30 -6l-10 -55q-8 -44 12.5 -71t60.5 -27q43 0 70 23.5t34 64.5z" />
    <glyph glyph-name="uni0433.loclBGR" horiz-adv-x="472" 
d="M209 -14q-93 0 -150.5 50.5t-42.5 133.5q9 50 40 81t69 42.5t75 18t63.5 15.5t29.5 27q2 13 -7.5 20.5t-29.5 7.5q-43 0 -75 -44l-119 71q67 105 205 105q84 0 138.5 -52.5t40.5 -131.5q-8 -48 -38.5 -78.5t-68.5 -41.5t-75.5 -17t-64 -14t-29.5 -24q-6 -35 49 -35
q64 0 95 59l117 -78q-32 -56 -90 -85.5t-132 -29.5z" />
    <glyph glyph-name="uni0434.loclBGR" horiz-adv-x="624" 
d="M467 500h146l-84 -475q-22 -126 -99.5 -182.5t-189.5 -56.5q-178 0 -233 121l134 70q29 -59 110 -59q54 0 88.5 27.5t43.5 79.5l6 35q-59 -54 -150 -54q-115 0 -169 79.5t-36 186.5q17 98 90.5 170t182.5 72q106 0 150 -73zM283 146q50 0 89 29t51 75l4 21
q4 46 -24.5 74.5t-78.5 28.5q-53 0 -92.5 -32t-48.5 -82t19 -82t81 -32z" />
    <glyph glyph-name="uni0436.loclBGR" horiz-adv-x="770" 
d="M-34 0l216 265l-116 235h147l105 -212l73 412h146l-74 -415l172 215h164l-209 -254l126 -246h-151l-112 224l-40 -224h-146l39 221l-181 -221h-159z" />
    <glyph glyph-name="uni0438.loclBGR" 
d="M419 500h150l-88 -500h-150l8 47q-55 -61 -147 -61q-81 0 -127.5 55.5t-29.5 151.5l54 307h150l-50 -285q-8 -46 12.5 -68.5t59.5 -22.5q40 0 69.5 24t39.5 73z" />
    <glyph glyph-name="uni0439.loclBGR" 
d="M506 689l-22 -130h-300l22 130h300zM419 500h150l-88 -500h-150l8 47q-55 -61 -147 -61q-81 0 -127.5 55.5t-29.5 151.5l54 307h150l-50 -285q-8 -46 12.5 -68.5t59.5 -22.5q40 0 69.5 24t39.5 73z" />
    <glyph glyph-name="uni043A.loclBGR" horiz-adv-x="525" 
d="M564 500l-221 -250l138 -250h-160l-120 228l-40 -228h-150l123 700h150l-72 -407l179 207h173z" />
    <glyph glyph-name="uni043B.loclBGR" horiz-adv-x="510" 
d="M466 0h-154l-42 306l-148 -306h-166l268 500h150z" />
    <glyph glyph-name="uni043F.loclBGR" 
d="M388 514q81 0 127.5 -55.5t29.5 -151.5l-54 -307h-150l50 285q8 46 -12.5 68.5t-59.5 22.5q-40 0 -69.5 -24t-39.5 -73l-49 -279h-150l88 500h150l-8 -47q55 61 147 61z" />
    <glyph glyph-name="uni0442.loclBGR" horiz-adv-x="850" 
d="M656 514q87 0 131 -57.5t28 -149.5l-54 -307h-150l51 294q7 38 -7.5 60t-49.5 22q-74 0 -93 -87l-51 -289h-150l51 294q7 38 -7.5 60t-49.5 22q-74 0 -93 -85l-51 -291h-150l88 500h150l-8 -45q52 59 139 59q89 0 122 -68q62 68 154 68z" />
    <glyph glyph-name="uni0446.loclBGR" horiz-adv-x="620" 
d="M536 140h45l-49 -274h-146l26 147q-30 16 -44 41q-70 -68 -168 -68q-90 0 -135.5 56t-29.5 151l54 307h150l-50 -285q-8 -46 12.5 -68.5t59.5 -22.5t67.5 22.5t39.5 67.5l51 286h150l-58 -330q-5 -30 25 -30z" />
    <glyph glyph-name="uni0448.loclBGR" horiz-adv-x="850" 
d="M689 500h150l-88 -500h-150l8 45q-52 -59 -139 -59q-89 0 -122 68q-62 -68 -154 -68q-87 0 -131 57.5t-28 149.5l54 307h150l-51 -294q-7 -38 7.5 -60t49.5 -22q74 0 93 87l51 289h150l-51 -294q-7 -38 7.5 -60t49.5 -22q74 0 93 85z" />
    <glyph glyph-name="uni0449.loclBGR" horiz-adv-x="890" 
d="M806 140h45l-49 -274h-146l26 147q-27 13 -43 38q-61 -65 -159 -65q-94 0 -130 65q-60 -65 -156 -65q-87 0 -131 57.5t-28 149.5l54 307h150l-51 -294q-7 -38 7.5 -60t49.5 -22q74 0 93 87l51 289h150l-51 -294q-7 -38 7.5 -60t49.5 -22q71 0 91 79l53 297h150l-58 -330
q-5 -30 25 -30z" />
    <glyph glyph-name="uni044C.loclBGR" horiz-adv-x="495" 
d="M291 368q92 0 139 -54.5t31 -141.5q-15 -85 -78 -135.5t-159 -50.5q-98 0 -151.5 59t-37.5 147l54 308h146l-23 -132h79zM317 182q5 24 -7.5 40t-41.5 16h-79l-8 -46q-5 -30 10 -48t47 -18q30 0 53 17t26 39z" />
    <glyph glyph-name="uni044A.loclBGR" horiz-adv-x="585" 
d="M381 368q92 0 139 -54.5t31 -141.5q-15 -85 -78 -135.5t-159 -50.5q-98 0 -151.5 59t-37.5 147l29 168h-135l25 140h281l-23 -132h79zM407 182q5 24 -7.5 40t-41.5 16h-79l-8 -46q-5 -30 10 -48t47 -18q30 0 53 17t26 39z" />
    <glyph glyph-name="uni044E.loclBGR" horiz-adv-x="815" 
d="M561 514q80 0 136 -42.5t76.5 -105.5t8.5 -132q-18 -101 -100 -174.5t-191 -73.5q-102 0 -162 55t-70 139h-66l-32 -180h-150l123 700h150l-67 -380h61q33 85 107 139.5t176 54.5zM635 250q10 52 -17 85t-77 33q-49 0 -86.5 -32.5t-47.5 -85.5q-9 -53 17 -85.5t75 -32.5
q50 0 88.5 33t47.5 85z" />
    <glyph glyph-name="zero.sinf" horiz-adv-x="408" 
d="M134 -174q-81 0 -124 61t-26 159q18 99 75 153.5t141 54.5q80 0 124 -61t26 -159q-17 -99 -74 -153.5t-142 -54.5zM151 -52q58 0 74 92t-42 92t-74 -92t42 -92z" />
    <glyph glyph-name="one.sinf" horiz-adv-x="274" 
d="M120 240h107l-71 -400h-122l48 271l-81 -22l-11 107z" />
    <glyph glyph-name="two.sinf" horiz-adv-x="356" 
d="M-47 -160l13 77l173 151q34 30 39 42l2 8q2 12 -4.5 19t-19.5 7q-34 0 -63 -49l-95 60q60 99 174 99q67 0 104.5 -38t25.5 -105q-5 -30 -26 -55t-62 -59l-55 -47h119l-19 -110h-306z" />
    <glyph glyph-name="three.sinf" horiz-adv-x="343" 
d="M302 240l-15 -85l-79 -83q36 -16 53 -46.5t10 -70.5q-23 -129 -175 -129q-117 0 -150 90l107 57q17 -42 56 -42q35 0 40 31q2 15 -7.5 22.5t-27.5 7.5h-25l-31 61l73 77h-129l19 110h281z" />
    <glyph glyph-name="four.sinf" horiz-adv-x="358" 
d="M300 11l-19 -110h-36l-11 -61h-116l11 61h-180l19 110l156 229h134l-152 -229h42l11 61h116l-11 -61h36z" />
    <glyph glyph-name="five.sinf" horiz-adv-x="335" 
d="M273 130h-141l-11 -41h23q60 0 95 -35.5t23 -102.5q-21 -125 -166 -125q-112 0 -145 90l104 54q14 -42 55 -42q38 0 43 32q2 15 -6 23.5t-25 8.5h-135l60 248h245z" />
    <glyph glyph-name="six.sinf" horiz-adv-x="342" 
d="M174 110q55 -10 83 -50.5t19 -96.5q-11 -64 -57.5 -100.5t-119.5 -36.5q-69 0 -106 43t-26 106q7 45 35 79l146 186h129zM166 -31q7 42 -37 42q-41 0 -51 -42q-5 -21 5.5 -32t30.5 -11q43 0 52 43z" />
    <glyph glyph-name="seven.sinf" horiz-adv-x="295" 
d="M-2 240h280l-16 -93l-170 -307h-129l161 290h-145z" />
    <glyph glyph-name="eight.sinf" horiz-adv-x="354" 
d="M299 128q-9 -53 -57 -82q47 -37 38 -100q-8 -57 -53.5 -88.5t-121.5 -31.5q-72 0 -109.5 35.5t-27.5 92.5q11 66 75 98q-39 33 -29 86q10 55 53.5 85.5t107.5 30.5q61 0 97.5 -35t26.5 -91zM113 120q-3 -16 6.5 -24t29.5 -8q40 0 46 32q3 16 -7 24.5t-28 8.5
q-41 0 -47 -33zM170 -33q7 38 -36 38t-50 -38q-6 -39 36 -39q44 0 50 39z" />
    <glyph glyph-name="nine.sinf" horiz-adv-x="342" 
d="M169 254q69 0 106 -43t26 -106q-7 -45 -35 -79l-146 -186h-129l103 130q-55 10 -83 50.5t-19 96.5q11 64 57.5 100.5t119.5 36.5zM102 111q-7 -42 37 -42q41 0 51 42q5 21 -5.5 32t-30.5 11q-43 0 -52 -43z" />
    <glyph glyph-name="zero.tf" 
d="M252 -14q-131 0 -194 105t-34 269q29 165 117.5 259.5t222.5 94.5q131 0 193.5 -105t33.5 -269q-29 -165 -117 -259.5t-222 -94.5zM271 142q124 0 161 208t-88 208q-124 0 -161 -208t88 -208z" />
    <glyph glyph-name="one.tf" 
d="M363 154h185l-27 -154h-540l27 154h195l65 371l-129 -34l-15 143l195 66h140z" />
    <glyph glyph-name="two.tf" 
d="M-14 0l20 116l297 235q98 76 107 128q5 31 -11 55t-60 24q-72 0 -128 -85l-127 83q48 78 121.5 118t158.5 40q103 0 164 -69.5t44 -165.5q-11 -65 -49.5 -114t-117.5 -111l-126 -100h244l-27 -154h-510z" />
    <glyph glyph-name="three.tf" 
d="M601 700l-22 -130l-152 -149q65 -28 99 -85.5t21 -130.5q-19 -110 -99 -164.5t-195 -54.5q-203 0 -250 165l147 77q27 -86 115 -86q106 0 122 83q6 38 -16.5 60.5t-77.5 22.5h-30l-47 94l150 148h-271l26 150h480z" />
    <glyph glyph-name="four.tf" 
d="M567 260l-26 -148h-70l-20 -112h-162l20 112h-328l26 148l292 440h180l-293 -440h149l26 150h162l-26 -150h70z" />
    <glyph glyph-name="five.tf" 
d="M573 550h-285l-24 -96h72q106 0 169 -66.5t43 -177.5q-19 -111 -98.5 -167.5t-191.5 -56.5q-205 0 -255 165l147 77q27 -86 121 -86q104 0 119 78q6 35 -15.5 56.5t-75.5 21.5h-231l99 402h432z" />
    <glyph glyph-name="six.tf" 
d="M360 488q113 -11 164.5 -86t36.5 -172q-16 -101 -95.5 -172.5t-211.5 -71.5q-69 0 -121 23t-79.5 61t-37.5 84.5t-1 96.5q14 80 73 144l272 305h188zM403 238q9 48 -19 75t-78 27q-53 0 -88.5 -26.5t-44.5 -75.5t18.5 -75.5t78.5 -26.5q52 0 88 26.5t45 75.5z" />
    <glyph glyph-name="seven.tf" 
d="M99 700h530l-23 -134l-350 -566h-178l336 546h-342z" />
    <glyph glyph-name="eight.tf" 
d="M588 502q-16 -92 -102 -141q43 -30 61.5 -74.5t9.5 -95.5q-17 -97 -97 -151t-210 -54t-196 60t-49 157q19 108 129 165q-68 53 -52 142q17 98 97 151t189 53t173 -57t47 -155zM240 496q-5 -30 16 -49t65 -19t72 19t33 49t-16 49t-65 19t-72 -19t-33 -49zM402 220
q7 40 -19 62t-83 22t-91 -22t-41 -62q-8 -40 18.5 -62t83.5 -22q116 0 132 84z" />
    <glyph glyph-name="nine.tf" 
d="M361 714q69 0 121 -23t79.5 -61t37.5 -84.5t1 -96.5q-14 -80 -73 -144l-272 -305h-188l188 212q-113 11 -164.5 86t-36.5 172q16 101 95.5 172.5t211.5 71.5zM212 462q-9 -48 19 -75t78 -27q53 0 88.5 26.5t44.5 75.5t-18.5 75.5t-78.5 26.5q-52 0 -88 -26.5t-45 -75.5z
" />
    <glyph glyph-name="zero.dnom" horiz-adv-x="408" 
d="M162 -14q-81 0 -124 61t-26 159q18 99 75 153.5t141 54.5q80 0 124 -61t26 -159q-17 -99 -74 -153.5t-142 -54.5zM179 108q58 0 74 92t-42 92t-74 -92t42 -92z" />
    <glyph glyph-name="one.dnom" horiz-adv-x="274" 
d="M148 400h107l-71 -400h-122l48 271l-81 -22l-11 107z" />
    <glyph glyph-name="two.dnom" horiz-adv-x="361" 
d="M-19 0l13 77l173 151q2 2 5 4q31 27 35 42l1 4q2 12 -4.5 19t-19.5 7q-34 0 -63 -49l-95 60q60 99 174 99q67 0 104.5 -38t25.5 -105q-5 -30 -26 -55t-62 -59l-55 -47h119l-19 -110h-306z" />
    <glyph glyph-name="three.dnom" horiz-adv-x="346" 
d="M330 400l-15 -85l-79 -83q36 -16 53 -46.5t10 -70.5q-23 -129 -175 -129q-117 0 -150 90l107 57q17 -42 56 -42q35 0 40 31q2 15 -7.5 22.5t-27.5 7.5h-25l-31 61l73 77h-129l19 110h281z" />
    <glyph glyph-name="four.dnom" horiz-adv-x="357" 
d="M328 171l-19 -110h-36l-11 -61h-116l11 61h-180l19 110l156 229h134l-152 -229h42l11 61h116l-11 -61h36z" />
    <glyph glyph-name="five.dnom" horiz-adv-x="332" 
d="M301 290h-141l-11 -41h23q60 0 95 -35.5t23 -102.5q-21 -125 -166 -125q-112 0 -145 90l104 54q14 -42 55 -42q38 0 43 32q2 15 -6 23.5t-25 8.5h-135l60 248h245z" />
    <glyph glyph-name="six.dnom" horiz-adv-x="341" 
d="M202 270q55 -10 83 -50.5t19 -96.5q-11 -64 -57.5 -100.5t-119.5 -36.5q-69 0 -106 43t-26 106q7 45 35 79l146 186h129zM194 129q7 42 -37 42q-41 0 -51 -42q-5 -21 5.5 -32t30.5 -11q43 0 52 43z" />
    <glyph glyph-name="seven.dnom" horiz-adv-x="295" 
d="M26 400h280l-16 -93l-170 -307h-129l161 290h-145z" />
    <glyph glyph-name="eight.dnom" horiz-adv-x="353" 
d="M327 288q-9 -53 -57 -82q47 -37 38 -100q-8 -57 -53.5 -88.5t-121.5 -31.5q-72 0 -109.5 35.5t-27.5 92.5q11 66 75 98q-39 33 -29 86q10 55 53.5 85.5t107.5 30.5q61 0 97.5 -35t26.5 -91zM141 280q-3 -16 6.5 -24t29.5 -8q40 0 46 32q3 16 -7 24.5t-28 8.5
q-41 0 -47 -33zM198 127q7 38 -36 38t-50 -38q-6 -39 36 -39q44 0 50 39z" />
    <glyph glyph-name="nine.dnom" horiz-adv-x="341" 
d="M197 414q69 0 106 -43t26 -106q-7 -45 -35 -79l-146 -186h-129l103 130q-55 10 -83 50.5t-19 96.5q11 64 57.5 100.5t119.5 36.5zM130 271q-7 -42 37 -42q41 0 51 42q5 21 -5.5 32t-30.5 11q-43 0 -52 -43z" />
    <glyph glyph-name="zero.numr" horiz-adv-x="408" 
d="M215 286q-81 0 -124 61t-26 159q18 99 75 153.5t141 54.5q80 0 124 -61t26 -159q-17 -99 -74 -153.5t-142 -54.5zM232 408q58 0 74 92t-42 92t-74 -92t42 -92z" />
    <glyph glyph-name="one.numr" horiz-adv-x="274" 
d="M201 700h107l-71 -400h-122l48 271l-81 -22l-11 107z" />
    <glyph glyph-name="two.numr" horiz-adv-x="361" 
d="M34 300l13 77l173 151q2 2 5 4q31 27 35 42l1 4q2 12 -4.5 19t-19.5 7q-34 0 -63 -49l-95 60q60 99 174 99q67 0 104.5 -38t25.5 -105q-5 -30 -26 -55t-62 -59l-55 -47h119l-19 -110h-306z" />
    <glyph glyph-name="three.numr" horiz-adv-x="346" 
d="M383 700l-15 -85l-79 -83q36 -16 53 -46.5t10 -70.5q-23 -129 -175 -129q-117 0 -150 90l107 57q17 -42 56 -42q35 0 40 31q2 15 -7.5 22.5t-27.5 7.5h-25l-31 61l73 77h-129l19 110h281z" />
    <glyph glyph-name="four.numr" horiz-adv-x="357" 
d="M381 471l-19 -110h-36l-11 -61h-116l11 61h-180l19 110l156 229h134l-152 -229h42l11 61h116l-11 -61h36z" />
    <glyph glyph-name="five.numr" horiz-adv-x="332" 
d="M354 590h-141l-11 -41h23q60 0 95 -35.5t23 -102.5q-21 -125 -166 -125q-112 0 -145 90l104 54q14 -42 55 -42q38 0 43 32q2 15 -6 23.5t-25 8.5h-135l60 248h245z" />
    <glyph glyph-name="six.numr" horiz-adv-x="341" 
d="M255 570q55 -10 83 -50.5t19 -96.5q-11 -64 -57.5 -100.5t-119.5 -36.5q-69 0 -106 43t-26 106q7 45 35 79l146 186h129zM247 429q7 42 -37 42q-41 0 -51 -42q-5 -21 5.5 -32t30.5 -11q43 0 52 43z" />
    <glyph glyph-name="seven.numr" horiz-adv-x="295" 
d="M79 700h280l-16 -93l-170 -307h-129l161 290h-145z" />
    <glyph glyph-name="eight.numr" horiz-adv-x="354" 
d="M380 588q-9 -53 -57 -82q47 -37 38 -100q-8 -57 -53.5 -88.5t-121.5 -31.5q-72 0 -109.5 35.5t-27.5 92.5q11 66 75 98q-39 33 -29 86q10 55 53.5 85.5t107.5 30.5q61 0 97.5 -35t26.5 -91zM194 580q-3 -16 6.5 -24t29.5 -8q40 0 46 32q3 16 -7 24.5t-28 8.5
q-41 0 -47 -33zM251 427q7 38 -36 38t-50 -38q-7 -39 36 -39t50 39z" />
    <glyph glyph-name="nine.numr" horiz-adv-x="341" 
d="M250 714q69 0 106 -43t26 -106q-7 -45 -35 -79l-146 -186h-129l103 130q-55 10 -83 50.5t-19 96.5q11 64 57.5 100.5t119.5 36.5zM183 571q-7 -42 37 -42q41 0 51 42q5 21 -5.5 32t-30.5 11q-43 0 -52 -43z" />
    <glyph glyph-name="zero.sups" horiz-adv-x="408" 
d="M243 446q-81 0 -124 61t-26 159q18 99 75 153.5t141 54.5q80 0 124 -61t26 -159q-17 -99 -74 -153.5t-142 -54.5zM260 568q58 0 74 92t-42 92t-74 -92t42 -92z" />
    <glyph glyph-name="one.sups" horiz-adv-x="274" 
d="M229 860h107l-71 -400h-122l48 271l-81 -22l-11 107z" />
    <glyph glyph-name="two.sups" horiz-adv-x="361" 
d="M62 460l13 77l173 151q2 2 5 4q31 27 35 42l1 4q2 12 -4.5 19t-19.5 7q-34 0 -63 -49l-95 60q60 99 174 99q67 0 104.5 -38t25.5 -105q-5 -30 -26 -55t-62 -59l-55 -47h119l-19 -110h-306z" />
    <glyph glyph-name="three.sups" horiz-adv-x="347" 
d="M412 860l-15 -85l-79 -83q36 -16 53 -46.5t10 -70.5q-23 -129 -175 -129q-117 0 -150 90l107 57q17 -42 56 -42q35 0 40 31q2 15 -7.5 22.5t-27.5 7.5h-25l-31 61l73 77h-129l19 110h281z" />
    <glyph glyph-name="four.sups" horiz-adv-x="357" 
d="M409 631l-19 -110h-36l-11 -61h-116l11 61h-180l19 110l156 229h134l-152 -229h42l11 61h116l-11 -61h36z" />
    <glyph glyph-name="five.sups" horiz-adv-x="331" 
d="M382 750h-141l-11 -41h23q60 0 95 -35.5t23 -102.5q-21 -125 -166 -125q-112 0 -145 90l104 54q14 -42 55 -42q38 0 43 32q2 15 -6 23.5t-25 8.5h-135l60 248h245z" />
    <glyph glyph-name="six.sups" horiz-adv-x="341" 
d="M283 730q55 -10 83 -50.5t19 -96.5q-11 -64 -57.5 -100.5t-119.5 -36.5q-69 0 -106 43t-26 106q7 45 35 79l146 186h129zM275 589q7 42 -37 42q-41 0 -51 -42q-5 -21 5.5 -32t30.5 -11q43 0 52 43z" />
    <glyph glyph-name="seven.sups" horiz-adv-x="296" 
d="M108 860h280l-16 -93l-170 -307h-129l161 290h-145z" />
    <glyph glyph-name="eight.sups" horiz-adv-x="353" 
d="M408 748q-9 -53 -57 -82q47 -37 38 -100q-8 -57 -53.5 -88.5t-121.5 -31.5q-72 0 -109.5 35.5t-27.5 92.5q11 66 75 98q-39 33 -29 86q10 55 53.5 85.5t107.5 30.5q61 0 97.5 -35t26.5 -91zM222 740q-3 -16 6.5 -24t29.5 -8q40 0 46 32q3 16 -7 24.5t-28 8.5
q-41 0 -47 -33zM279 587q7 38 -36 38t-50 -38q-7 -39 36 -39t50 39z" />
    <glyph glyph-name="nine.sups" horiz-adv-x="341" 
d="M278 874q69 0 106 -43t26 -106q-7 -45 -35 -79l-146 -186h-129l103 130q-55 10 -83 50.5t-19 96.5q11 64 57.5 100.5t119.5 36.5zM211 731q-7 -42 37 -42q41 0 51 42q5 21 -5.5 32t-30.5 11q-43 0 -52 -43z" />
    <glyph glyph-name="cent.tf" 
d="M313 234q64 0 104 56l121 -77q-38 -63 -101 -95t-135 -32q-33 0 -67 8l-46 -94h-62l56 113q-65 32 -96 98t-18 149q17 110 101 182t197 72q32 0 61 -6l46 92h62l-55 -111q69 -34 99 -105l-137 -72q-11 25 -31 38l-107 -216h8zM219 352q-12 -66 33 -99l106 213h-4
q-50 0 -88 -31.5t-47 -82.5z" />
    <glyph glyph-name="dollar.tf" 
d="M368 416q17 -6 29.5 -11t29 -12.5t28 -14.5t25.5 -16.5t23.5 -20t19 -23t15 -27t9.5 -31.5t3.5 -37t-4.5 -42q-16 -89 -84 -138.5t-170 -55.5l-15 -87h-70l16 88q-89 9 -145.5 51t-75.5 110l146 75q24 -74 101 -85l26 147q-1 0 -1 0.5t-1 0.5q-47 18 -79.5 36t-60 45
t-38 65t-2.5 87q16 97 89 145t169 49l15 86h70l-16 -92q128 -27 174 -142l-141 -74q-22 46 -60 62zM256 507q-5 -37 47 -63l21 118q-62 -6 -68 -55zM383 199q6 36 -43 60l-20 -118q55 14 63 58z" />
    <glyph glyph-name="Euro.tf" 
d="M311 142q63 0 110 75l124 -79q-40 -72 -104 -112t-147 -40q-97 0 -151 73t-53 195h-69l15 84h60q2 6 4 22q0 2 1 5t1 5h-61l15 84h66q39 124 112 192t179 68q72 0 124.5 -39.5t76.5 -109.5l-139 -73q-21 66 -80 66q-73 0 -110 -104h151l-15 -84h-158q-2 -8 -4 -20
q-1 -2 -1 -6t-1 -6h159l-15 -84h-153q-3 -112 63 -112z" />
    <glyph glyph-name="florin.tf" 
d="M341 536q101 221 299 169l-26 -150q-37 15 -73 2.5t-55 -54.5l-36 -79h111l-26 -144h-152l-143 -312q-101 -221 -299 -169l26 150q37 -15 73 -2.5t55 54.5l128 279h-108l26 144h149z" />
    <glyph glyph-name="uni20BD.tf" 
d="M394 700q96 0 157.5 -75.5t43.5 -174.5q-17 -101 -93 -160.5t-190 -59.5h-76l-7 -41h180l-17 -98h-180l-16 -91h-160l16 91h-70l17 98h70l7 41h-69l24 140h70l58 330h235zM437 460q7 38 -12.5 64t-56.5 26h-75l-32 -180h75q37 0 65.5 26t35.5 64z" />
    <glyph glyph-name="sterling.tf" 
d="M259 269l-20 -115h314l-27 -154h-540l27 154h66l20 115h-55l25 140h55l14 81q20 112 87.5 168t167.5 56q76 0 131.5 -39.5t78.5 -109.5l-144 -76q-24 69 -84 69q-29 0 -50 -18t-27 -50l-14 -81h205l-25 -140h-205z" />
    <glyph glyph-name="yen.tf" 
d="M659 700l-237 -333h124l-16 -88h-155l-7 -40h155l-15 -88h-155l-27 -151h-160l27 151h-155l15 88h155l7 40h-155l16 88h124l-121 333h174l69 -227l147 227h190z" />
    <glyph glyph-name="brevecy" horiz-adv-x="380" 
d="M95 559l22 130h300l-22 -130h-300z" />
    </font>
</defs>
</svg>
