<?xml version="1.0" standalone="no"?>
<!DOCTYPE svg PUBLIC "-//W3C//DTD SVG 1.1//EN" "http://www.w3.org/Graphics/SVG/1.1/DTD/svg11.dtd" >
<svg xmlns="http://www.w3.org/2000/svg" xmlns:xlink="http://www.w3.org/1999/xlink" version="1.1">
<metadata>
Created by FontForge 20201107 at Fri Jul  8 21:54:17 2016
 By 
Copyright (c) 2015 by Radomir Tinkov. All rights reserved.
</metadata>
<defs>
<font id="Gilroy-BlackItalic" horiz-adv-x="578" >
  <font-face 
    font-family="Gilroy-BlackItalic"
    font-weight="400"
    font-style="italic"
    font-stretch="normal"
    units-per-em="1000"
    panose-1="0 0 10 0 0 0 0 0 0 0"
    ascent="773"
    descent="-227"
    x-height="500"
    cap-height="700"
    bbox="-414 -277 1171.78 985"
    underline-thickness="50"
    underline-position="-100"
    slope="-10"
    unicode-range="U+0020-FB02"
  />
<missing-glyph horiz-adv-x="500" 
d="M410 800v-1000h-317v1000h317zM333 733h-165v-33h65v-37h-66v-33h166v33h-66v37h66v33zM267 604h-100v-104h166v34h-66v70zM233 570v-36h-33v36h33zM333 473h-166v-33h66v-37h-66v-33h100v70h66v33zM333 413h-33v-66h-133v-34h166v100zM333 291h-100v-56h34v23h33v-47
h-100v80h-33v-113h166v113zM333 118h-166v-113h166v113zM300 85v-47h-100v47h100zM333 -18h-166v-33h70l-70 -47v-33h166v33h-102l70 47h32v33z" />
    <glyph glyph-name="fi" unicode="fi" horiz-adv-x="572" 
d="M568 500l-88 -500h-166l60 341h-114l-60 -341h-166l60 341h-62l27 159h63q19 111 90 163t200 52q66 0 127 -15l-25 -145q-54 9 -109 9q-105 0 -117 -64h280z" />
    <glyph glyph-name="fl" unicode="fl" horiz-adv-x="572" 
d="M412 715q89 0 191 -20l-123 -695h-166l101 573q-10 1 -30 1q-82 0 -97 -74h66l-28 -159h-66l-60 -341h-166l60 341h-62l27 159h63q19 111 90 163t200 52z" />
    <glyph glyph-name="f_f" unicode="ff" horiz-adv-x="612" 
d="M669 571q-84 6 -96 -61l-2 -10h85l-27 -159h-86l-60 -341h-167l60 341h-116l-60 -341h-166l60 341h-62l27 159h63q40 230 290 215l-27 -154q-84 6 -97 -61h116l2 10q40 230 290 215z" />
    <glyph glyph-name="f_f_i" unicode="ffi" horiz-adv-x="855" 
d="M851 500l-88 -500h-167l60 341h-113l-60 -341h-167l60 341h-116l-60 -341h-166l60 341h-62l27 159h63q20 111 93 166.5t197 48.5l-27 -154q-84 6 -97 -61h116l2 10q38 215 285 215q71 0 132 -15l-25 -145q-54 9 -109 9q-105 0 -116 -64l-2 -10h280z" />
    <glyph glyph-name="f_f_l" unicode="ffl" horiz-adv-x="855" 
d="M696 725q89 0 191 -20l-124 -705h-167l103 583q-10 1 -30 1q-83 0 -96 -74l-2 -10h65l-27 -159h-66l-60 -341h-167l60 341h-116l-60 -341h-166l60 341h-62l27 159h63q40 230 290 215l-27 -154q-84 6 -97 -61h116l2 10q19 111 90 163t200 52z" />
    <glyph glyph-name=".notdef" horiz-adv-x="500" 
d="M410 800v-1000h-317v1000h317zM333 733h-165v-33h65v-37h-66v-33h166v33h-66v37h66v33zM267 604h-100v-104h166v34h-66v70zM233 570v-36h-33v36h33zM333 473h-166v-33h66v-37h-66v-33h100v70h66v33zM333 413h-33v-66h-133v-34h166v100zM333 291h-100v-56h34v23h33v-47
h-100v80h-33v-113h166v113zM333 118h-166v-113h166v113zM300 85v-47h-100v47h100zM333 -18h-166v-33h70l-70 -47v-33h166v33h-102l70 47h32v33z" />
    <glyph glyph-name=".null" horiz-adv-x="0" 
 />
    <glyph glyph-name="nonmarkingreturn" horiz-adv-x="333" 
 />
    <glyph glyph-name="space" unicode=" " horiz-adv-x="227" 
 />
    <glyph glyph-name="exclam" unicode="!" horiz-adv-x="294" 
d="M79 255l10 245l35 200h204l-35 -200l-76 -245h-138zM100 -14q-43 0 -68 31t-17 75q8 43 42.5 72.5t79.5 29.5q43 0 68.5 -31.5t17.5 -74.5q-8 -44 -42 -73t-81 -29z" />
    <glyph glyph-name="quotedbl" unicode="&#x22;" horiz-adv-x="442" 
d="M98 441l26 259h154l-66 -259h-114zM297 441l25 259h154l-65 -259h-114z" />
    <glyph glyph-name="numbersign" unicode="#" horiz-adv-x="631" 
d="M616 385h-101l-24 -70h101l-40 -120h-102l-50 -145h-128l50 145h-82l-50 -145h-128l50 145h-102l40 120h103l24 70h-102l40 120h103l50 145h128l-50 -145h82l50 145h128l-50 -145h100zM363 315l24 70h-82l-24 -70h82z" />
    <glyph glyph-name="dollar" unicode="$" horiz-adv-x="567" 
d="M363 421l28.5 -12t28 -12.5t28 -14.5t25 -16t23.5 -19.5t18.5 -22.5t15.5 -27.5t9 -31.5t3.5 -37t-4.5 -43q-17 -93 -85.5 -144t-172.5 -56l-15 -85h-70l16 88q-83 10 -137 54t-73 112l158 82q25 -66 81 -80l22 121l-14 6q-41 17 -71 36t-56 47t-35.5 66.5t-1.5 86.5
q16 92 88 143.5t167 52.5l15 85h70l-16 -92q123 -28 171 -148l-154 -82q-18 41 -48 58l-20 -113q1 -1 3 -1t3 -1zM260 503q-6 -30 33 -51l16 94q-42 -8 -49 -43zM360 202q5 28 -33 48l-17 -94q43 10 50 46z" />
    <glyph glyph-name="percent" unicode="%" horiz-adv-x="823" 
d="M242 356q-79 0 -123 54.5t-33 126.5q12 75 69.5 126.5t141.5 51.5q80 0 124 -57.5t30 -132.5q-15 -72 -71.5 -120.5t-137.5 -48.5zM115 111l546 500l63 -41l-546 -501zM259 483q23 0 40 15.5t21 37.5t-8 37t-34 15t-38.5 -15t-20.5 -37q-5 -23 6.5 -38t33.5 -15zM564 -14
q-80 0 -124 55.5t-32 128.5t69.5 124t140.5 51q79 0 123.5 -57t30.5 -131q-14 -72 -70.5 -121.5t-137.5 -49.5zM580 113q23 0 40 15.5t21 36.5q4 23 -7.5 38t-34.5 15q-22 0 -38.5 -15t-20.5 -38q-5 -22 6.5 -37t33.5 -15z" />
    <glyph glyph-name="ampersand" unicode="&#x26;" horiz-adv-x="696" 
d="M658 287q-43 -87 -90 -146l76 -104l-148 -75l-53 71q-83 -48 -188 -48q-121 0 -182 64.5t-45 159.5q22 125 152 190q-27 62 -17 124q14 88 83.5 140t168.5 52q174 0 233 -159l-162 -85q-26 74 -81 74q-25 0 -43 -14t-22 -38q-2 -16 4 -34t13.5 -29t24.5 -35l92 -125
q30 51 49 103zM289 140q34 0 65 14l-94 127q-2 2 -2 3q-42 -26 -49 -69q-6 -32 15 -53.5t65 -21.5z" />
    <glyph glyph-name="quotesingle" unicode="'" horiz-adv-x="243" 
d="M98 441l26 259h154l-66 -259h-114z" />
    <glyph glyph-name="parenleft" unicode="(" horiz-adv-x="327" 
d="M96 -100q-34 103 -42.5 223t11.5 242q40 229 187 435h167q-149 -219 -189 -450t30 -450h-164z" />
    <glyph glyph-name="parenright" unicode=")" horiz-adv-x="326" 
d="M266 800q34 -103 42.5 -223t-11.5 -242q-40 -229 -187 -435h-167q149 219 189 450t-30 450h164z" />
    <glyph glyph-name="asterisk" unicode="*" horiz-adv-x="405" 
d="M422 605l-17 -96l-89 10l44 -70l-85 -50l-28 82l-57 -82l-75 50l68 70l-92 -10l17 96l89 -10l-44 70l85 50l28 -82l57 82l75 -50l-69 -70z" />
    <glyph glyph-name="plus" unicode="+" horiz-adv-x="560" 
d="M551 429l-28 -158h-160l-28 -160h-159l28 160h-160l29 158h160l28 160h158l-28 -160h160z" />
    <glyph glyph-name="comma" unicode="," horiz-adv-x="302" 
d="M248 174l-140 -314h-134l90 314h184z" />
    <glyph glyph-name="hyphen" unicode="-" horiz-adv-x="500" 
d="M50 222l28 158h390l-28 -158h-390z" />
    <glyph glyph-name="period" unicode="." horiz-adv-x="289" 
d="M98 -14q-43 0 -68 31t-17 75q8 43 42.5 72.5t79.5 29.5q43 0 68 -31.5t17 -74.5q-8 -44 -41.5 -73t-80.5 -29z" />
    <glyph glyph-name="slash" unicode="/" horiz-adv-x="520" 
d="M38 -100h-75l554 900h75z" />
    <glyph glyph-name="zero" unicode="0" horiz-adv-x="630" 
d="M276 -15q-137 0 -199 104.5t-33 270.5t118.5 260.5t226.5 94.5t199 -104.5t33 -270.5q-30 -166 -119 -260.5t-226 -94.5zM299 159q109 0 144 191q33 191 -77 191t-143 -191q-35 -191 76 -191z" />
    <glyph glyph-name="one" unicode="1" horiz-adv-x="415" 
d="M275 700h154l-123 -700h-179l89 504l-127 -31l-16 159z" />
    <glyph glyph-name="two" unicode="2" horiz-adv-x="540" 
d="M-22 0l22 130l278 245q77 67 84 109q5 25 -8 41t-39 16q-59 0 -106 -76l-145 89q48 80 120 120.5t154 40.5q97 0 159.5 -66.5t44.5 -169.5q-11 -61 -42.5 -107t-93.5 -100l-116 -99h208l-30 -173h-490z" />
    <glyph glyph-name="three" unicode="3" horiz-adv-x="548" 
d="M569 700l-25 -141l-141 -149q60 -25 92 -78t20 -124q-20 -111 -98.5 -167t-187.5 -56q-88 0 -149.5 39.5t-85.5 118.5l164 85q21 -69 90 -69q78 0 90 66q5 30 -12.5 47.5t-54.5 17.5h-37l-51 102l130 137h-229l30 171h455z" />
    <glyph glyph-name="four" unicode="4" 
d="M574 270l-29 -163h-70l-19 -107h-178l19 107h-307l29 163l278 430h204l-280 -430h105l22 126h178l-22 -126h70z" />
    <glyph glyph-name="five" unicode="5" horiz-adv-x="549" 
d="M541 529h-245l-19 -75h43q101 0 161.5 -65t40.5 -179q-19 -110 -98.5 -167.5t-186.5 -57.5q-190 0 -243 158l165 86q22 -70 97 -70q37 0 60.5 17.5t28.5 46.5q5 30 -11.5 48t-51.5 18h-225l101 411h413z" />
    <glyph glyph-name="six" unicode="6" horiz-adv-x="560" 
d="M365 474q92 -17 141.5 -87.5t33.5 -164.5q-20 -109 -99 -173t-197 -64q-122 0 -186 73.5t-44 183.5q15 86 70 146l259 312h209zM362 232q7 40 -13 62t-57 22q-38 0 -65.5 -22t-34.5 -62t12.5 -61.5t57.5 -21.5q37 0 65 22t35 61z" />
    <glyph glyph-name="seven" unicode="7" horiz-adv-x="490" 
d="M80 700h473l-25 -148l-309 -552h-200l296 527h-266z" />
    <glyph glyph-name="eight" unicode="8" horiz-adv-x="569" 
d="M567 501q-16 -90 -97 -140q40 -30 57 -75.5t8 -97.5q-17 -97 -90.5 -149.5t-196.5 -52.5q-126 0 -188.5 61t-44.5 159q20 110 125 165q-62 56 -47 143q17 95 90 147.5t176 52.5q101 0 163 -58t45 -155zM259 492q-5 -28 10.5 -44t47.5 -16q30 0 52.5 16.5t26.5 43.5
q5 27 -11 43.5t-47 16.5q-32 0 -53 -16.5t-26 -43.5zM363 222q5 34 -14 53.5t-56 19.5q-38 0 -64 -19.5t-32 -53.5q-7 -33 12.5 -52.5t57.5 -19.5q37 0 63 19.5t33 52.5z" />
    <glyph glyph-name="nine" unicode="9" horiz-adv-x="560" 
d="M351 715q122 0 186 -73.5t44 -183.5q-15 -86 -70 -146l-259 -312h-209l187 226q-92 17 -141.5 87.5t-33.5 164.5q20 109 99 173t197 64zM233 468q-7 -40 13 -62t57 -22q38 0 65.5 22t34.5 62t-12.5 61.5t-57.5 21.5q-37 0 -65 -22t-35 -61z" />
    <glyph glyph-name="colon" unicode=":" horiz-adv-x="289" 
d="M155 307q-43 0 -68 31t-17 75q8 43 42.5 72.5t79.5 29.5q43 0 68 -31.5t17 -74.5q-8 -44 -41.5 -73t-80.5 -29zM98 -14q-43 0 -68 31t-17 75q8 43 42.5 72.5t79.5 29.5q43 0 68 -31.5t17 -74.5q-8 -44 -41.5 -73t-80.5 -29z" />
    <glyph glyph-name="semicolon" unicode=";" horiz-adv-x="302" 
d="M167 307q-43 0 -68 31t-17 75q8 43 42.5 72.5t79.5 29.5q43 0 68 -31.5t17 -74.5q-8 -44 -41.5 -73t-80.5 -29zM246 174l-140 -314h-134l90 314h184z" />
    <glyph glyph-name="less" unicode="&#x3c;" horiz-adv-x="521" 
d="M551 619l-33 -181l-287 -97l254 -97l-30 -163l-415 195l26 148z" />
    <glyph glyph-name="equal" unicode="=" horiz-adv-x="511" 
d="M58 380l29 159h439l-29 -159h-439zM20 161l28 159h439l-28 -159h-439z" />
    <glyph glyph-name="greater" unicode="&#x3e;" horiz-adv-x="521" 
d="M101 619l415 -195l-26 -148l-485 -195l33 181l288 97l-254 97z" />
    <glyph glyph-name="question" unicode="?" horiz-adv-x="548" 
d="M179 255q6 39 26.5 71t46.5 52.5t51 38t44 37t23 40.5q4 22 -8.5 35t-36.5 13q-66 0 -108 -83l-144 91q41 81 115.5 123t163.5 42q98 0 157.5 -59t42.5 -152q-7 -42 -30 -76.5t-50 -56.5t-54 -41t-47 -37.5t-23 -37.5h-169zM216 -14q-43 0 -68 31t-17 75q8 43 42.5 72.5
t79.5 29.5q43 0 68.5 -31.5t17.5 -74.5q-8 -44 -42 -73t-81 -29z" />
    <glyph glyph-name="at" unicode="@" horiz-adv-x="769" 
d="M449 612q63 0 117 -20.5t89.5 -55.5t60 -80.5t30 -95t-1.5 -99.5q-19 -106 -71.5 -160.5t-132.5 -54.5q-47 0 -80 21t-44 57q-42 -39 -101 -39q-65 0 -99.5 51t-21.5 123q13 70 58.5 113t105.5 43q56 0 89 -43l6 31h136l-42 -236q-11 -63 40 -63q85 0 113 161
q23 128 -51.5 217t-204.5 89q-135 0 -241 -90t-130 -226q-24 -139 56.5 -232.5t223.5 -93.5q86 0 156 22l-8 -43q-68 -20 -154 -20q-161 0 -253.5 107t-64.5 264q27 152 145 252.5t275 100.5zM369 198q21 0 36 14.5t20 37.5t-5.5 37.5t-32.5 14.5t-37 -14.5t-20 -37.5
q-4 -23 7 -37.5t32 -14.5z" />
    <glyph glyph-name="A" unicode="A" horiz-adv-x="671" 
d="M440 0l-11 101h-233l-48 -101h-197l354 700h218l108 -700h-191zM270 255h142l-26 242z" />
    <glyph glyph-name="B" unicode="B" horiz-adv-x="602" 
d="M605 494q-16 -90 -90 -137q74 -56 60 -159q-12 -89 -83.5 -143.5t-190.5 -54.5h-290l123 700h266q104 0 162 -58t43 -148zM374 540h-89l-19 -110h88q27 0 46.5 14.5t23.5 40.5q4 25 -9.5 40t-40.5 15zM400 219q5 27 -8.5 43t-43.5 16h-109l-21 -118h108q29 0 49 16.5
t25 42.5z" />
    <glyph glyph-name="C" unicode="C" horiz-adv-x="722" 
d="M359 -15q-161 0 -249.5 108t-62.5 267q25 155 141.5 255t271.5 100q103 0 175.5 -44.5t110.5 -122.5l-164 -87q-40 79 -139 79q-82 0 -142.5 -52.5t-75.5 -137.5q-14 -83 26 -136.5t120 -53.5q101 0 164 84l147 -95q-56 -78 -140.5 -121t-182.5 -43z" />
    <glyph glyph-name="D" unicode="D" horiz-adv-x="709" 
d="M419 700q138 0 221 -106t57 -254q-27 -150 -137 -245t-264 -95h-285l123 700h285zM523 353q13 79 -24 126.5t-110 47.5h-101l-63 -354h96q76 0 131.5 49.5t70.5 130.5z" />
    <glyph glyph-name="E" unicode="E" horiz-adv-x="535" 
d="M549 533h-265l-18 -98h242l-30 -164h-240l-18 -103h270l-29 -168h-450l123 700h445z" />
    <glyph glyph-name="F" unicode="F" horiz-adv-x="518" 
d="M534 527h-251l-20 -114h245l-30 -173h-246l-42 -240h-179l123 700h430z" />
    <glyph glyph-name="G" unicode="G" horiz-adv-x="779" 
d="M777 401l-12 -71q-26 -159 -135 -252t-268 -93q-163 0 -252 108.5t-63 266.5q26 155 142 255t272 100q103 0 178 -44t115 -121l-164 -88q-44 78 -147 78q-82 0 -142.5 -52.5t-75.5 -137.5q-15 -84 27 -139.5t126 -55.5q129 0 181 92h-162l27 154h353z" />
    <glyph glyph-name="H" unicode="H" horiz-adv-x="665" 
d="M510 700h178l-123 -700h-178l47 269h-197l-47 -269h-179l123 700h179l-46 -259h197z" />
    <glyph glyph-name="I" unicode="I" horiz-adv-x="289" 
d="M134 700h179l-123 -700h-179z" />
    <glyph glyph-name="J" unicode="J" horiz-adv-x="569" 
d="M234 -15q-174 0 -230 145l162 87q10 -31 29 -44.5t52 -13.5q82 0 94 71l83 470h179l-84 -473q-21 -122 -94.5 -182t-190.5 -60z" />
    <glyph glyph-name="K" unicode="K" horiz-adv-x="631" 
d="M711 700l-298 -348l178 -352h-185l-160 319l-56 -319h-179l123 700h179l-50 -284l239 284h209z" />
    <glyph glyph-name="L" unicode="L" horiz-adv-x="485" 
d="M220 173h241l-30 -173h-420l123 700h179z" />
    <glyph glyph-name="M" unicode="M" horiz-adv-x="825" 
d="M848 700l-123 -700h-178l66 378l-219 -282h-18l-119 287l-67 -383h-179l123 700h179l114 -302l231 302h190z" />
    <glyph glyph-name="N" unicode="N" horiz-adv-x="675" 
d="M11 0l123 700h139l182 -366l65 366h178l-123 -700h-138l-182 366l-65 -366h-179z" />
    <glyph glyph-name="O" unicode="O" horiz-adv-x="790" 
d="M360 -15q-106 0 -185 53t-112 139t-16 184q26 150 141 252t279 102q159 0 247.5 -111.5t63.5 -262.5q-26 -152 -139.5 -254t-278.5 -102zM376 160q81 0 145.5 53.5t78.5 136.5q15 83 -29 136.5t-125 53.5t-143.5 -53.5t-77.5 -136.5q-15 -84 27.5 -137t123.5 -53z" />
    <glyph glyph-name="P" unicode="P" horiz-adv-x="592" 
d="M398 700q105 0 167 -71.5t46 -183.5q-15 -106 -92.5 -170.5t-199.5 -64.5h-92l-37 -210h-179l123 700h264zM433 455q7 34 -11 54t-54 20h-85l-26 -149h87q35 0 59 20.5t30 54.5z" />
    <glyph glyph-name="Q" unicode="Q" horiz-adv-x="795" 
d="M467 715q159 0 247.5 -111.5t63.5 -262.5q-21 -129 -112 -226l51 -67l-132 -100l-55 72q-78 -35 -170 -35q-104 0 -182.5 53t-113 139.5t-17.5 183.5q25 150 142 252t278 102zM471 368l88 -115q32 45 41 97q15 83 -29 136.5t-125 53.5t-143.5 -53.5t-77.5 -136.5
q-15 -84 27.5 -137t123.5 -53q23 0 42 4l-80 104z" />
    <glyph glyph-name="R" unicode="R" horiz-adv-x="620" 
d="M624 448q-12 -67 -51.5 -117t-100.5 -77l96 -254h-180l-82 226h-76l-40 -226h-179l124 700h274q104 0 169 -74t46 -178zM284 535l-28 -157h103q33 -1 56.5 21t29.5 57t-11.5 57t-53.5 22h-96z" />
    <glyph glyph-name="S" unicode="S" horiz-adv-x="588" 
d="M269 -15q-112 0 -181 46.5t-91 127.5l159 82q28 -87 128 -87q82 0 91 48q6 33 -46 55q-8 4 -73 26q-92 31 -139 84t-31 145q17 96 91.5 149.5t176.5 53.5q88 0 151.5 -41.5t93.5 -118.5l-153 -82q-33 73 -106 73q-63 0 -72 -45q-6 -25 18 -41.5t90 -39.5q46 -16 75 -30
t60.5 -40.5t42.5 -67t2 -95.5q-18 -99 -94 -150.5t-193 -51.5z" />
    <glyph glyph-name="T" unicode="T" horiz-adv-x="545" 
d="M614 700l-31 -173h-172l-93 -527h-179l93 527h-173l30 173h525z" />
    <glyph glyph-name="U" unicode="U" horiz-adv-x="645" 
d="M290 -15q-128 0 -197.5 69t-50.5 176l83 470h179l-80 -453q-16 -88 83 -88q98 0 114 88l79 453h179l-83 -470q-21 -118 -104 -181.5t-202 -63.5z" />
    <glyph glyph-name="V" unicode="V" horiz-adv-x="640" 
d="M169 0l-95 700h186l45 -492l217 492h202l-341 -700h-214z" />
    <glyph glyph-name="W" unicode="W" horiz-adv-x="1004" 
d="M157 0l-73 700h181l35 -441l202 441h143l48 -441l188 441h196l-318 -700h-189l-43 395l-181 -395h-189z" />
    <glyph glyph-name="X" unicode="X" horiz-adv-x="632" 
d="M698 700l-264 -350l148 -350h-193l-79 186l-141 -186h-208l274 363l-143 337h194l73 -173l131 173h208z" />
    <glyph glyph-name="Y" unicode="Y" horiz-adv-x="631" 
d="M710 700l-295 -395l-54 -305h-179l54 305l-157 395h190l75 -225l154 225h212z" />
    <glyph glyph-name="Z" unicode="Z" horiz-adv-x="542" 
d="M591 700l-23 -138l-312 -389h250l-30 -173h-487l24 138l313 389h-240l31 173h474z" />
    <glyph glyph-name="bracketleft" unicode="[" horiz-adv-x="329" 
d="M379 641h-98l-103 -582h98l-29 -159h-264l159 900h264z" />
    <glyph glyph-name="backslash" unicode="\" horiz-adv-x="520" 
d="M365 -100l-243 900h68l243 -900h-68z" />
    <glyph glyph-name="bracketright" unicode="]" horiz-adv-x="329" 
d="M381 800l-159 -900h-264l28 159h98l103 582h-98l28 159h264z" />
    <glyph glyph-name="asciicircum" unicode="^" horiz-adv-x="580" 
d="M428 700l138 -354h-174l-51 158l-110 -158h-184l263 354h118z" />
    <glyph glyph-name="underscore" unicode="_" horiz-adv-x="515" 
d="M-52 -186l28 158h465l-28 -158h-465z" />
    <glyph glyph-name="grave" unicode="`" horiz-adv-x="314" 
d="M348 555l-61 145h-188l95 -145h154z" />
    <glyph glyph-name="a" unicode="a" horiz-adv-x="615" 
d="M445 500h166l-88 -500h-166l7 39q-58 -53 -146 -53q-107 0 -158.5 81t-33.5 190q17 106 90 181.5t181 75.5q96 0 138 -69zM277 141q47 0 81 29t43 77v3q8 49 -15 79t-71 30q-47 0 -81 -30t-42 -79t15 -79t70 -30z" />
    <glyph glyph-name="b" unicode="b" horiz-adv-x="615" 
d="M392 514q104 0 159.5 -81t37.5 -193q-19 -109 -90.5 -181.5t-175.5 -72.5q-99 0 -143 71l-10 -57h-166l123 700h166l-42 -241q57 55 141 55zM423 250q9 50 -15 79.5t-70 29.5t-80.5 -29.5t-43.5 -79.5q-8 -50 16 -79.5t71 -29.5q46 0 80 29.5t42 79.5z" />
    <glyph glyph-name="c" unicode="c" horiz-adv-x="532" 
d="M260 -14q-120 0 -186 79t-48 195q18 111 102 182.5t196 71.5q79 0 133.5 -35.5t81.5 -95.5l-151 -79q-22 48 -78 48q-44 0 -77.5 -28t-40.5 -73q-8 -45 15.5 -74t65.5 -29q58 0 93 50l132 -84q-38 -63 -101 -95.5t-137 -32.5z" />
    <glyph glyph-name="d" unicode="d" horiz-adv-x="616" 
d="M481 700h166l-123 -700h-166l7 40q-59 -54 -147 -54q-107 0 -158.5 81t-33.5 190q17 106 90 181.5t181 75.5q96 0 139 -70zM278 141q46 0 79.5 28t43.5 75l2 10q7 48 -16.5 76.5t-70.5 28.5t-81.5 -30t-42.5 -79t15.5 -79t70.5 -30z" />
    <glyph glyph-name="e" unicode="e" horiz-adv-x="568" 
d="M324 514q113 0 177 -76.5t44 -186.5q-4 -30 -17 -62h-343q14 -61 96 -61q60 0 99 36l106 -97q-87 -81 -218 -81q-130 0 -195.5 79t-46.5 195q18 110 102 182t196 72zM205 305h189q-5 69 -79 69t-110 -69z" />
    <glyph glyph-name="f" unicode="f" horiz-adv-x="331" 
d="M385 561q-84 6 -97 -61h86l-28 -159h-86l-60 -341h-166l60 341h-62l27 159h63q20 111 93 166.5t197 48.5z" />
    <glyph glyph-name="g" unicode="g" horiz-adv-x="619" 
d="M451 500h164l-85 -480q-21 -121 -101.5 -178t-193.5 -57q-84 0 -146 31t-88 91l147 77q28 -54 102 -54q46 0 77 22.5t39 67.5l7 38q-59 -52 -142 -52q-75 0 -125 38.5t-67.5 96.5t-7.5 126q15 100 87.5 173.5t181.5 73.5q97 0 141 -73zM284 157q44 0 78 26t45 67l3 20
q4 41 -20.5 67t-68.5 26q-47 0 -81.5 -29t-42.5 -74t16 -74t71 -29z" />
    <glyph glyph-name="h" unicode="h" 
d="M395 514q81 0 124.5 -56.5t26.5 -158.5l-53 -299h-166l49 278q6 40 -11 59.5t-51 19.5q-38 0 -63.5 -23t-33.5 -68v1l-47 -267h-166l123 700h166l-44 -251q57 65 146 65z" />
    <glyph glyph-name="i" unicode="i" horiz-adv-x="262" 
d="M184 541q-39 0 -63 28.5t-17 67.5q6 38 38 66.5t73 28.5q40 0 63.5 -28t16.5 -67q-6 -40 -38 -68t-73 -28zM4 0l88 500h166l-88 -500h-166z" />
    <glyph glyph-name="j" unicode="j" horiz-adv-x="277" 
d="M230 732q40 0 63.5 -28t16.5 -67q-6 -40 -38 -68t-73 -28q-39 0 -63 28.5t-17 67.5q6 38 38 66.5t73 28.5zM19 0l88 500h166l-88 -500q-21 -123 -87 -172.5t-190 -42.5l27 154q73 -4 84 61z" />
    <glyph glyph-name="k" unicode="k" horiz-adv-x="537" 
d="M573 500l-210 -251l130 -249h-178l-106 220l-39 -220h-166l123 700h166l-70 -398l159 198h191z" />
    <glyph glyph-name="l" unicode="l" horiz-adv-x="263" 
d="M5 0l56 321l72 409h166l-72 -414l-56 -316h-166z" />
    <glyph glyph-name="m" unicode="m" horiz-adv-x="850" 
d="M662 514q85 0 129.5 -56t27.5 -152l-53 -306h-167l50 287q13 70 -49 70q-63 0 -81 -68l-51 -289h-166l50 287q11 70 -50 70q-65 0 -83 -77l-49 -280h-166l88 500h166l-8 -46q56 60 139 60q87 0 120 -67q65 67 153 67z" />
    <glyph glyph-name="n" unicode="n" 
d="M395 514q81 0 124.5 -56.5t26.5 -158.5l-53 -299h-166l49 278q6 40 -11 59.5t-51 19.5q-38 0 -63.5 -23t-33.5 -68v1l-47 -267h-166l88 500h166l-9 -51q57 65 146 65z" />
    <glyph glyph-name="o" unicode="o" horiz-adv-x="583" 
d="M258 -14q-85 0 -143.5 42.5t-79.5 105.5t-8 132q20 104 100.5 176t201.5 72q120 0 183 -85.5t44 -192.5q-18 -102 -100 -176t-198 -74zM271 146q44 0 77 29t41 75t-14.5 75t-66.5 29q-43 0 -76 -29t-41 -75t14.5 -75t65.5 -29z" />
    <glyph glyph-name="p" unicode="p" horiz-adv-x="615" 
d="M393 514q103 0 158.5 -81.5t37.5 -192.5q-18 -108 -89.5 -181t-176.5 -73q-98 0 -143 71l-45 -257h-166l123 700h166l-7 -41q57 55 142 55zM423 250q9 50 -14 79.5t-70 29.5q-46 0 -80 -28.5t-44 -76.5l-2 -7q-7 -48 17 -77t70 -29q47 0 81 29.5t42 79.5z" />
    <glyph glyph-name="q" unicode="q" horiz-adv-x="615" 
d="M445 500h166l-123 -700h-166l42 239q-58 -53 -146 -53q-107 0 -158.5 81t-33.5 190q17 106 90 181.5t181 75.5q96 0 138 -69zM192 250q-8 -49 15 -79t70 -30t81.5 30t42.5 79t-15 79t-71 30q-47 0 -81 -30t-42 -79z" />
    <glyph glyph-name="r" unicode="r" horiz-adv-x="380" 
d="M241 406q23 51 68 77.5t101 26.5l-31 -184q-57 8 -108.5 -20t-63.5 -99l2 16l-39 -223h-166l88 500h166z" />
    <glyph glyph-name="s" unicode="s" horiz-adv-x="473" 
d="M210 -14q-166 0 -220 123l146 71q22 -57 83 -57q44 0 48 24q3 15 -21.5 25.5t-60 20.5t-69.5 26.5t-53.5 53t-10.5 90.5q13 75 76 113t139 38q69 0 121.5 -28.5t76.5 -82.5l-141 -68q-18 45 -62 46q-38 2 -44 -27q-3 -16 14 -26.5t44 -15.5t58 -16.5t56.5 -27.5t38 -50.5
t4.5 -82.5q-14 -77 -76 -113t-147 -36z" />
    <glyph glyph-name="t" unicode="t" horiz-adv-x="394" 
d="M270 341l-25 -145q-6 -34 16 -42t80 -4l-26 -150q-141 -19 -199 28.5t-38 163.5l26 149h-75l28 159h75l16 90l175 50l-25 -140h105l-29 -159h-104z" />
    <glyph glyph-name="u" unicode="u" 
d="M408 500h166l-88 -500h-166l9 51q-57 -65 -146 -65q-81 0 -124.5 56.5t-26.5 158.5l53 299h166l-49 -278q-6 -40 11 -59.5t51 -19.5q38 0 63.5 23t33.5 68v-1z" />
    <glyph glyph-name="v" unicode="v" horiz-adv-x="533" 
d="M394 500h183l-270 -500h-169l-94 500h169l41 -284z" />
    <glyph glyph-name="w" unicode="w" horiz-adv-x="790" 
d="M647 500h181l-241 -500h-162l-27 251l-109 -251h-170l-65 500h166l23 -272l118 272h145l29 -267z" />
    <glyph glyph-name="x" unicode="x" horiz-adv-x="549" 
d="M586 500l-220 -250l139 -250h-176l-71 127l-111 -127h-191l228 260l-133 240h176l65 -117l102 117h192z" />
    <glyph glyph-name="y" unicode="y" horiz-adv-x="549" 
d="M402 500h191l-254 -485q-65 -125 -148 -174.5t-194 -40.5l28 156q54 0 81 13.5t50 50.5l-112 480h176l52 -289z" />
    <glyph glyph-name="z" unicode="z" horiz-adv-x="455" 
d="M469 500l-20 -114l-212 -232h181l-27 -154h-410l21 114l211 232h-161l27 154h390z" />
    <glyph glyph-name="braceleft" unicode="{" horiz-adv-x="363" 
d="M279 -107q-110 -7 -161 46t-34 149l24 134q6 31 -10.5 42.5t-52.5 7.5l28 159q36 -4 55.5 6t25.5 44l24 134q19 108 82.5 155.5t180.5 39.5l-27 -154q-62 9 -70 -41l-24 -134q-9 -52 -30 -81t-60 -48q61 -37 44 -130l-23 -134q-4 -26 9.5 -35.5t46.5 -5.5z" />
    <glyph glyph-name="bar" unicode="|" horiz-adv-x="277" 
d="M-24 -200l162 920h167l-162 -920h-167z" />
    <glyph glyph-name="braceright" unicode="}" horiz-adv-x="363" 
d="M119 809q110 7 161 -46t34 -149l-24 -134q-6 -31 10.5 -42.5t52.5 -7.5l-28 -159q-36 4 -55.5 -6t-25.5 -44l-24 -134q-19 -108 -82.5 -155.5t-180.5 -39.5l27 154q62 -9 70 41l24 134q9 52 30 81t60 48q-61 37 -44 130l23 134q4 26 -9.5 35.5t-46.5 5.5z" />
    <glyph glyph-name="asciitilde" unicode="~" horiz-adv-x="606" 
d="M164 235l-121 61q25 74 71 116.5t98 48t109 -19.5q66 -33 98 -30t57 50l121 -61q-25 -73 -71 -116t-98 -48.5t-108 19.5q-67 33 -99 30t-57 -50z" />
    <glyph glyph-name="exclamdown" unicode="&#xa1;" horiz-adv-x="294" 
d="M194 514q43 0 68 -31t17 -75q-8 -43 -42.5 -72.5t-79.5 -29.5q-43 0 -68.5 31.5t-17.5 74.5q8 44 42 73t81 29zM215 245l-10 -245l-35 -200h-204l35 200l76 245h138z" />
    <glyph glyph-name="cent" unicode="&#xa2;" horiz-adv-x="532" 
d="M290 248q58 0 93 50l132 -84q-38 -63 -101 -95.5t-137 -32.5q-29 0 -66 7l-46 -93h-65l56 113q-65 33 -95.5 99t-17.5 148q18 111 102 182.5t196 71.5q33 0 60 -6l46 92h65l-55 -112q66 -33 99 -105l-151 -79q-10 20 -24 31l-93 -187h2zM209 351q-9 -54 24 -83l91 184
q-43 -1 -75.5 -28.5t-39.5 -72.5z" />
    <glyph glyph-name="sterling" unicode="&#xa3;" horiz-adv-x="575" 
d="M270 272l-18 -99h304l-30 -173h-545l31 173h62l17 99h-51l25 140h51l14 79q20 114 89 169t167 55q164 0 223 -156l-162 -82q-22 67 -75 67q-54 0 -65 -58l-13 -74h190l-25 -140h-189z" />
    <glyph glyph-name="currency" unicode="&#xa4;" horiz-adv-x="533" 
d="M558 546l-81 -68q36 -57 23 -131q-13 -73 -65 -128l56 -68l-48 -39l-56 68q-62 -40 -136 -40q-72 0 -120 39l-82 -70l-39 44l82 69q-36 57 -23 131q13 73 65 128l-56 68l46 40l58 -70q63 41 137 41q69 0 118 -38l81 69zM275 294q25 0 43 15t23 41q4 26 -8.5 41t-38.5 15
q-25 0 -42.5 -15t-22.5 -41t7.5 -41t38.5 -15z" />
    <glyph glyph-name="yen" unicode="&#xa5;" horiz-adv-x="631" 
d="M710 700l-245 -328h114l-17 -94h-152l-7 -41h152l-16 -93h-153l-25 -144h-179l25 144h-152l16 93h153l7 41h-153l17 94h114l-130 328h190l75 -225l154 225h212z" />
    <glyph glyph-name="brokenbar" unicode="&#xa6;" horiz-adv-x="277" 
d="M73 350l65 370h167l-65 -370h-167zM-24 -200l65 370h167l-65 -370h-167z" />
    <glyph glyph-name="section" unicode="&#xa7;" horiz-adv-x="549" 
d="M410 463q59 -25 93.5 -71t22.5 -113q-13 -74 -79 -119q26 -44 15 -107q-16 -84 -81 -124.5t-158 -40.5q-165 0 -216 125l142 74q29 -61 89 -61q52 0 57 33q2 11 -3 19.5t-19.5 17t-26.5 14t-36 15t-37 15.5q-61 27 -96.5 74.5t-23.5 117.5q14 77 80 117q-21 44 -10 103
q15 83 76.5 123t144.5 40q149 0 204 -130l-139 -64q-26 59 -73 59q-42 0 -47 -33q-1 -8 1 -15t8.5 -13.5t13.5 -11.5t20 -11t23 -10.5t27 -11t28 -11.5zM275 268q7 -3 28 -11t34 -14q19 13 23 35q2 15 -6 26t-18.5 16t-33.5 15l-64 26q-16 -11 -20 -33q-4 -21 10.5 -34
t46.5 -26z" />
    <glyph glyph-name="dieresis" unicode="&#xa8;" horiz-adv-x="369" 
d="M150 535q-33 0 -52 23.5t-14 56.5t33 56.5t61 23.5q32 0 51.5 -23.5t13.5 -56.5q-5 -33 -32.5 -56.5t-60.5 -23.5zM344 535q-32 0 -51.5 23.5t-13.5 56.5q5 33 32.5 56.5t60.5 23.5t52 -23.5t14 -56.5t-33 -56.5t-61 -23.5z" />
    <glyph glyph-name="copyright" unicode="&#xa9;" horiz-adv-x="779" 
d="M358 -12q-98 0 -176 50.5t-115.5 136t-19.5 183.5q26 151 143 252.5t268 101.5q149 0 242.5 -110.5t67.5 -259.5q-27 -151 -143.5 -252.5t-266.5 -101.5zM358 29q133 0 238 91.5t128 224.5t-57.5 229.5t-210.5 96.5q-132 0 -237 -91.5t-128 -224.5q-24 -133 56 -229.5
t211 -96.5zM380 153q-89 0 -135.5 62.5t-32.5 144.5q14 79 74 133t145 54q51 0 93 -27.5t67 -72.5l-125 -65q-12 29 -48 29q-27 0 -47 -18t-24 -43q-5 -24 8 -42.5t39 -18.5q35 0 59 30l111 -70q-32 -46 -81.5 -71t-102.5 -25z" />
    <glyph glyph-name="guillemotleft" unicode="&#xab;" horiz-adv-x="569" 
d="M351 504l-144 -200l74 -190h-139l-77 195l141 195h145zM559 504l-149 -206l73 -184h-139l-75 190l144 200h146z" />
    <glyph glyph-name="logicalnot" unicode="&#xac;" horiz-adv-x="569" 
d="M566 429l-49 -278h-169l21 120h-330l28 158h499z" />
    <glyph glyph-name="registered" unicode="&#xae;" horiz-adv-x="779" 
d="M458 712q149 0 242.5 -110.5t67.5 -259.5q-27 -151 -143.5 -252.5t-266.5 -101.5q-98 0 -176 50.5t-115.5 136t-19.5 183.5q26 151 143 252.5t268 101.5zM724 345q23 133 -57.5 229.5t-210.5 96.5q-132 0 -237 -91.5t-128 -224.5q-24 -133 56 -229.5t211 -96.5
q133 0 238 91.5t128 224.5zM467 535q56 0 92.5 -42t26.5 -99q-13 -71 -67 -106l48 -123h-136l-31 97h-26l-17 -97h-131l65 370h176zM426 420h-24l-10 -53h24q31 0 37 27q2 14 -5 20t-22 6z" />
    <glyph glyph-name="macron" unicode="&#xaf;" horiz-adv-x="350" 
d="M74 554l22 130h310l-23 -130h-309z" />
    <glyph glyph-name="degree" unicode="&#xb0;" horiz-adv-x="415" 
d="M248 461q-75 0 -118.5 53.5t-30.5 125.5q12 74 69 122t135 48q76 0 119.5 -53.5t30.5 -126.5t-69.5 -121t-135.5 -48zM268 590q20 0 34.5 12.5t17.5 32.5q4 20 -6 33t-30 13t-34.5 -13t-18.5 -33q-3 -20 7 -32.5t30 -12.5z" />
    <glyph glyph-name="plusminus" unicode="&#xb1;" horiz-adv-x="560" 
d="M408 529h161l-29 -158h-159l-24 -136h-159l24 136h-160l28 158h160l24 136h158zM0 21l29 159h478l-28 -159h-479z" />
    <glyph glyph-name="acute" unicode="&#xb4;" horiz-adv-x="314" 
d="M74 555h163l136 145h-198z" />
    <glyph glyph-name="uni00B5" unicode="&#xb5;" horiz-adv-x="608" 
d="M525 179q-5 -30 25 -30h25l-26 -149h-72q-72 0 -106 47q-58 -61 -143 -61q-33 0 -59 10l-34 -196h-166l123 700h166l-49 -276h1q-7 -41 10 -61t51 -20q77 0 95 82l49 275h166z" />
    <glyph glyph-name="paragraph" unicode="&#xb6;" horiz-adv-x="727" 
d="M770 700l-27 -160h-67l-130 -740h-158l130 740h-64l-130 -740h-158l79 451q-93 1 -146.5 71t-36.5 163q16 93 91.5 154t170.5 61h446z" />
    <glyph glyph-name="periodcentered" unicode="&#xb7;" horiz-adv-x="289" 
d="M144 246q-43 0 -68 31t-17 75q8 43 42.5 72.5t79.5 29.5q43 0 68 -31.5t17 -74.5q-8 -44 -41.5 -73t-80.5 -29z" />
    <glyph glyph-name="cedilla" unicode="&#xb8;" horiz-adv-x="274" 
d="M144 -46q54 -25 43 -86q-19 -105 -250 -89l19 109q93 -7 98 14q3 17 -50 20l14 78h134z" />
    <glyph glyph-name="guillemotright" unicode="&#xbb;" horiz-adv-x="570" 
d="M246 504l75 -190l-144 -200h-146l149 206l-73 184h139zM448 504l77 -195l-141 -195h-145l144 200l-74 190h139z" />
    <glyph glyph-name="onequarter" unicode="&#xbc;" horiz-adv-x="817" 
d="M585 700h119l-522 -700h-119zM163 556l-81 -20l-11 118l135 46h114l-71 -400h-132zM791 171l-20 -115h-35l-10 -56h-122l10 56h-184l20 115l152 229h141l-147 -229h39l11 63h121l-11 -63h35z" />
    <glyph glyph-name="onehalf" unicode="&#xbd;" horiz-adv-x="812" 
d="M585 700h119l-522 -700h-119zM163 556l-81 -20l-11 118l135 46h114l-71 -400h-132zM788 275q-6 -32 -26.5 -59t-60.5 -59l-49 -40h111l-20 -117h-306l15 89l168 141q36 31 38 46q5 22 -20 22q-28 0 -56 -45l-100 63q63 98 177 98q62 0 101.5 -38t27.5 -101z" />
    <glyph glyph-name="threequarters" unicode="&#xbe;" horiz-adv-x="876" 
d="M356 417q-23 -131 -178 -131q-122 0 -152 94l111 59q14 -40 54 -40q33 0 36 26q4 25 -27 25h-29l-33 68l66 66h-123l21 116h286l-16 -87l-78 -79q35 -15 52 -46t10 -71zM644 700h119l-522 -700h-119zM850 171l-20 -115h-35l-10 -56h-122l10 56h-184l20 115l152 229h141
l-147 -229h39l11 63h121l-11 -63h35z" />
    <glyph glyph-name="questiondown" unicode="&#xbf;" horiz-adv-x="548" 
d="M332 514q43 0 68 -31t17 -75q-8 -43 -42.5 -72.5t-79.5 -29.5q-43 0 -68.5 31.5t-17.5 74.5q8 44 42 73t81 29zM369 245q-6 -39 -26.5 -71t-46.5 -52.5t-51 -38t-44 -37t-23 -40.5q-4 -22 8.5 -35t36.5 -13q66 0 108 83l144 -91q-41 -81 -115.5 -123t-163.5 -42
q-98 0 -157.5 59t-42.5 152q7 42 30 76.5t50 56.5t54 41t47 37.5t23 37.5h169z" />
    <glyph glyph-name="Agrave" unicode="&#xc0;" horiz-adv-x="671" 
d="M514 755h-154l-95 145h188zM440 0l-11 101h-233l-48 -101h-197l354 700h218l108 -700h-191zM270 255h142l-26 242z" />
    <glyph glyph-name="Aacute" unicode="&#xc1;" horiz-adv-x="671" 
d="M633 900l-136 -145h-163l101 145h198zM305 700h218l108 -700h-191l-11 101h-233l-48 -101h-197zM270 255h142l-26 242z" />
    <glyph glyph-name="Acircumflex" unicode="&#xc2;" horiz-adv-x="671" 
d="M429 801l-50 -56h-151l133 155h167l79 -155h-149zM440 0l-11 101h-233l-48 -101h-197l354 700h218l108 -700h-191zM270 255h142l-26 242z" />
    <glyph glyph-name="Atilde" unicode="&#xc3;" horiz-adv-x="671" 
d="M422 768q-21 16 -36.5 13.5t-20.5 -33.5h-121q6 60 28 99t53 52.5t64 11.5t63 -20q17 -10 26.5 -13.5t18 4t12.5 28.5h122q-6 -60 -29 -99t-53.5 -52.5t-63.5 -11t-63 20.5zM305 700h218l108 -700h-191l-11 101h-233l-48 -101h-197zM270 255h142l-26 242z" />
    <glyph glyph-name="Adieresis" unicode="&#xc4;" horiz-adv-x="671" 
d="M323 735q-33 0 -52 23.5t-14 56.5t33 56.5t61 23.5q32 0 51.5 -23.5t13.5 -56.5q-5 -33 -32.5 -56.5t-60.5 -23.5zM517 735q-32 0 -51.5 23.5t-13.5 56.5q5 33 32.5 56.5t60.5 23.5t52 -23.5t14 -56.5t-33 -56.5t-61 -23.5zM440 0l-11 101h-233l-48 -101h-197l354 700
h218l108 -700h-191zM270 255h142l-26 242z" />
    <glyph glyph-name="Aring" unicode="&#xc5;" horiz-adv-x="671" 
d="M440 0l-11 101h-233l-48 -101h-197l350 691q-22 35 -14 82q10 57 54.5 93t106.5 36q61 0 95.5 -39.5t23.5 -96.5q-9 -49 -42 -82l106 -684h-191zM394 770q-5 -32 27 -32q35 0 40 31q3 14 -4.5 23.5t-24.5 9.5q-15 0 -25.5 -9t-12.5 -23zM270 255h142l-26 242z" />
    <glyph glyph-name="AE" unicode="&#xc6;" horiz-adv-x="885" 
d="M899 532h-231l-17 -97h207l-30 -164h-205l-18 -103h235l-29 -168h-410l18 101h-192l-75 -101h-201l523 700h455zM342 255h104l32 182z" />
    <glyph glyph-name="Ccedilla" unicode="&#xc7;" horiz-adv-x="722" 
d="M371 160q101 0 164 84l147 -95q-98 -135 -263 -160l-6 -35q54 -25 43 -86q-19 -105 -250 -89l19 109q93 -7 98 14q3 17 -50 20l13 70q-129 25 -195.5 127t-43.5 241q25 155 141.5 255t271.5 100q103 0 175.5 -44.5t110.5 -122.5l-164 -87q-40 79 -139 79
q-82 0 -142.5 -52.5t-75.5 -137.5q-14 -83 26 -136.5t120 -53.5z" />
    <glyph glyph-name="Egrave" unicode="&#xc8;" horiz-adv-x="535" 
d="M457 755h-154l-95 145h188zM549 533h-265l-18 -98h242l-30 -164h-240l-18 -103h270l-29 -168h-450l123 700h445z" />
    <glyph glyph-name="Eacute" unicode="&#xc9;" horiz-adv-x="535" 
d="M576 900l-136 -145h-163l101 145h198zM549 533h-265l-18 -98h242l-30 -164h-240l-18 -103h270l-29 -168h-450l123 700h445z" />
    <glyph glyph-name="Ecircumflex" unicode="&#xca;" horiz-adv-x="535" 
d="M372 801l-50 -56h-151l133 155h167l79 -155h-149zM549 533h-265l-18 -98h242l-30 -164h-240l-18 -103h270l-29 -168h-450l123 700h445z" />
    <glyph glyph-name="Edieresis" unicode="&#xcb;" horiz-adv-x="535" 
d="M266 735q-33 0 -52 23.5t-14 56.5t33 56.5t61 23.5q32 0 51.5 -23.5t13.5 -56.5q-5 -33 -32.5 -56.5t-60.5 -23.5zM460 735q-32 0 -51.5 23.5t-13.5 56.5q5 33 32.5 56.5t60.5 23.5t52 -23.5t14 -56.5t-33 -56.5t-61 -23.5zM549 533h-265l-18 -98h242l-30 -164h-240
l-18 -103h270l-29 -168h-450l123 700h445z" />
    <glyph glyph-name="Igrave" unicode="&#xcc;" horiz-adv-x="289" 
d="M324 755l-61 145h-188l95 -145h154zM134 700h179l-123 -700h-179z" />
    <glyph glyph-name="Iacute" unicode="&#xcd;" horiz-adv-x="289" 
d="M144 755h163l136 145h-198zM134 700h179l-123 -700h-179z" />
    <glyph glyph-name="Icircumflex" unicode="&#xce;" horiz-adv-x="289" 
d="M239 801l-50 -56h-151l133 155h167l79 -155h-149zM11 0l123 700h179l-123 -700h-179z" />
    <glyph glyph-name="Idieresis" unicode="&#xcf;" horiz-adv-x="289" 
d="M133 735q-33 0 -52 23.5t-14 56.5t33 56.5t61 23.5q32 0 51.5 -23.5t13.5 -56.5q-5 -33 -32.5 -56.5t-60.5 -23.5zM327 735q-32 0 -51.5 23.5t-13.5 56.5q5 33 32.5 56.5t60.5 23.5t52 -23.5t14 -56.5t-33 -56.5t-61 -23.5zM134 700h179l-123 -700h-179z" />
    <glyph glyph-name="Eth" unicode="&#xd0;" horiz-adv-x="739" 
d="M449 700q138 0 221 -106t57 -254q-27 -150 -137 -245t-264 -95h-285l46 263h-74l28 158h74l49 279h285zM553 353q13 79 -24 126.5t-110 47.5h-101l-19 -106h132l-28 -158h-132l-16 -90h96q76 0 131.5 49.5t70.5 130.5z" />
    <glyph glyph-name="Ntilde" unicode="&#xd1;" horiz-adv-x="675" 
d="M246 748q6 60 28 99t53 52.5t64 11.5t63 -20q17 -10 26.5 -13.5t18 4t12.5 28.5h122q-6 -60 -29 -99t-53.5 -52.5t-63.5 -11t-63 20.5q-21 16 -36.5 13.5t-20.5 -33.5h-121zM11 0l123 700h139l182 -366l65 366h178l-123 -700h-138l-182 366l-65 -366h-179z" />
    <glyph glyph-name="Ograve" unicode="&#xd2;" horiz-adv-x="790" 
d="M576 765l-61 145h-188l95 -145h154zM360 -15q-106 0 -185 53t-112 139t-16 184q26 150 141 252t279 102q159 0 247.5 -111.5t63.5 -262.5q-26 -152 -139.5 -254t-278.5 -102zM376 160q81 0 145.5 53.5t78.5 136.5q15 83 -29 136.5t-125 53.5t-143.5 -53.5t-77.5 -136.5
q-15 -84 27.5 -137t123.5 -53z" />
    <glyph glyph-name="Oacute" unicode="&#xd3;" horiz-adv-x="790" 
d="M396 765h163l136 145h-198zM360 -15q-106 0 -185 53t-112 139t-16 184q26 150 141 252t279 102q159 0 247.5 -111.5t63.5 -262.5q-26 -152 -139.5 -254t-278.5 -102zM376 160q81 0 145.5 53.5t78.5 136.5q15 83 -29 136.5t-125 53.5t-143.5 -53.5t-77.5 -136.5
q-15 -84 27.5 -137t123.5 -53z" />
    <glyph glyph-name="Ocircumflex" unicode="&#xd4;" horiz-adv-x="790" 
d="M491 811l-50 -56h-151l133 155h167l79 -155h-149zM467 715q159 0 247.5 -111.5t63.5 -262.5q-26 -152 -139.5 -254t-278.5 -102q-106 0 -185 53t-112 139t-16 184q26 150 141 252t279 102zM600 350q15 83 -29 136.5t-125 53.5t-143.5 -53.5t-77.5 -136.5
q-15 -84 27.5 -137t123.5 -53t145.5 53.5t78.5 136.5z" />
    <glyph glyph-name="Otilde" unicode="&#xd5;" horiz-adv-x="790" 
d="M306 758q6 60 28 99t53 52.5t64 11.5t63 -20q17 -10 26.5 -13.5t18 4t12.5 28.5h122q-6 -60 -29 -99t-53.5 -52.5t-63.5 -11t-63 20.5q-21 16 -36.5 13.5t-20.5 -33.5h-121zM360 -15q-106 0 -185 53t-112 139t-16 184q26 150 141 252t279 102q159 0 247.5 -111.5
t63.5 -262.5q-26 -152 -139.5 -254t-278.5 -102zM376 160q81 0 145.5 53.5t78.5 136.5q15 83 -29 136.5t-125 53.5t-143.5 -53.5t-77.5 -136.5q-15 -84 27.5 -137t123.5 -53z" />
    <glyph glyph-name="Odieresis" unicode="&#xd6;" horiz-adv-x="790" 
d="M385 745q-33 0 -52 23.5t-14 56.5t33 56.5t61 23.5q32 0 51.5 -23.5t13.5 -56.5q-5 -33 -32.5 -56.5t-60.5 -23.5zM579 745q-32 0 -51.5 23.5t-13.5 56.5q5 33 32.5 56.5t60.5 23.5t52 -23.5t14 -56.5t-33 -56.5t-61 -23.5zM360 -15q-106 0 -185 53t-112 139t-16 184
q26 150 141 252t279 102q159 0 247.5 -111.5t63.5 -262.5q-26 -152 -139.5 -254t-278.5 -102zM376 160q81 0 145.5 53.5t78.5 136.5q15 83 -29 136.5t-125 53.5t-143.5 -53.5t-77.5 -136.5q-15 -84 27.5 -137t123.5 -53z" />
    <glyph glyph-name="multiply" unicode="&#xd7;" horiz-adv-x="538" 
d="M536 466l-137 -119l96 -113l-124 -112l-99 116l-134 -116l-100 112l137 119l-96 113l124 112l98 -116l134 116z" />
    <glyph glyph-name="Oslash" unicode="&#xd8;" horiz-adv-x="795" 
d="M719 605q90 -111 64 -264q-26 -152 -139.5 -254t-278.5 -102q-116 0 -198 63l-62 -63l-73 46l76 77q-81 108 -56 253q26 150 141 252t279 102q105 0 184 -53l53 53l73 -46zM230 350q-10 -62 10 -108l282 284q-33 14 -71 14q-81 0 -143.5 -53.5t-77.5 -136.5zM605 350
q13 70 -18 122l-289 -292q35 -20 83 -20q81 0 145.5 53.5t78.5 136.5z" />
    <glyph glyph-name="Ugrave" unicode="&#xd9;" horiz-adv-x="645" 
d="M502 755l-61 145h-188l95 -145h154zM290 -15q-128 0 -197.5 69t-50.5 176l83 470h179l-80 -453q-16 -88 83 -88q98 0 114 88l79 453h179l-83 -470q-21 -118 -104 -181.5t-202 -63.5z" />
    <glyph glyph-name="Uacute" unicode="&#xda;" horiz-adv-x="645" 
d="M322 755h163l136 145h-198zM290 -15q-128 0 -197.5 69t-50.5 176l83 470h179l-80 -453q-16 -88 83 -88q98 0 114 88l79 453h179l-83 -470q-21 -118 -104 -181.5t-202 -63.5z" />
    <glyph glyph-name="Ucircumflex" unicode="&#xdb;" horiz-adv-x="645" 
d="M417 801l-50 -56h-151l133 155h167l79 -155h-149zM500 700h179l-83 -470q-21 -118 -104 -181.5t-202 -63.5q-128 0 -197.5 69t-50.5 176l83 470h179l-80 -453q-16 -88 83 -88q98 0 114 88z" />
    <glyph glyph-name="Udieresis" unicode="&#xdc;" horiz-adv-x="645" 
d="M311 735q-33 0 -52 23.5t-14 56.5t33 56.5t61 23.5q32 0 51.5 -23.5t13.5 -56.5q-5 -33 -32.5 -56.5t-60.5 -23.5zM505 735q-32 0 -51.5 23.5t-13.5 56.5q5 33 32.5 56.5t60.5 23.5t52 -23.5t14 -56.5t-33 -56.5t-61 -23.5zM290 -15q-128 0 -197.5 69t-50.5 176l83 470
h179l-80 -453q-16 -88 83 -88q98 0 114 88l79 453h179l-83 -470q-21 -118 -104 -181.5t-202 -63.5z" />
    <glyph glyph-name="Yacute" unicode="&#xdd;" horiz-adv-x="631" 
d="M613 900l-136 -145h-163l101 145h198zM710 700l-295 -395l-54 -305h-179l54 305l-157 395h190l75 -225l154 225h212z" />
    <glyph glyph-name="Thorn" unicode="&#xde;" horiz-adv-x="592" 
d="M380 596q105 0 167 -72t46 -184q-15 -106 -92.5 -170.5t-199.5 -64.5h-93l-18 -105h-179l124 700h178l-18 -104h85zM415 350q7 35 -11 55t-54 20h-85l-27 -149h88q35 0 59 20t30 54z" />
    <glyph glyph-name="germandbls" unicode="&#xdf;" horiz-adv-x="552" 
d="M229 -5l25 148q100 -14 109 44q6 29 -30.5 102t-31.5 101q4 25 33.5 66t33.5 61q5 24 -7 37.5t-36 13.5q-54 0 -65 -59l-90 -509h-166l90 508q35 207 256 207q92 0 148 -53.5t44 -123.5q-7 -39 -38 -83t-35 -62q-5 -25 12.5 -63.5t33.5 -87.5t8 -99q-7 -39 -25 -69
t-53 -53.5t-87.5 -29t-128.5 3.5z" />
    <glyph glyph-name="agrave" unicode="&#xe0;" horiz-adv-x="615" 
d="M442 555h-154l-95 145h188zM445 500h166l-88 -500h-166l7 39q-58 -53 -146 -53q-107 0 -158.5 81t-33.5 190q17 106 90 181.5t181 75.5q96 0 138 -69zM277 141q47 0 81 29t43 77v3q8 49 -15 79t-71 30q-47 0 -81 -30t-42 -79t15 -79t70 -30z" />
    <glyph glyph-name="aacute" unicode="&#xe1;" horiz-adv-x="615" 
d="M561 700l-136 -145h-163l101 145h198zM445 500h166l-88 -500h-166l7 39q-58 -53 -146 -53q-107 0 -158.5 81t-33.5 190q17 106 90 181.5t181 75.5q96 0 138 -69zM277 141q47 0 81 29t43 77v3q8 49 -15 79t-71 30q-47 0 -81 -30t-42 -79t15 -79t70 -30z" />
    <glyph glyph-name="acircumflex" unicode="&#xe2;" horiz-adv-x="615" 
d="M357 601l-50 -56h-151l133 155h167l79 -155h-149zM445 500h166l-88 -500h-166l7 39q-58 -53 -146 -53q-107 0 -158.5 81t-33.5 190q17 106 90 181.5t181 75.5q96 0 138 -69zM277 141q47 0 81 29t43 77v3q8 49 -15 79t-71 30q-47 0 -81 -30t-42 -79t15 -79t70 -30z" />
    <glyph glyph-name="atilde" unicode="&#xe3;" horiz-adv-x="615" 
d="M350 568q-21 16 -36.5 13.5t-20.5 -33.5h-121q6 60 28 99t53 52.5t64 11.5t63 -20q17 -10 26.5 -13.5t18 4t12.5 28.5h122q-6 -60 -29 -99t-53.5 -52.5t-63.5 -11t-63 20.5zM445 500h166l-88 -500h-166l7 39q-58 -53 -146 -53q-107 0 -158.5 81t-33.5 190
q17 106 90 181.5t181 75.5q96 0 138 -69zM277 141q47 0 81 29t43 77v3q8 49 -15 79t-71 30q-47 0 -81 -30t-42 -79t15 -79t70 -30z" />
    <glyph glyph-name="adieresis" unicode="&#xe4;" horiz-adv-x="615" 
d="M251 535q-33 0 -52 23.5t-14 56.5t33 56.5t61 23.5q32 0 51.5 -23.5t13.5 -56.5q-5 -33 -32.5 -56.5t-60.5 -23.5zM445 535q-32 0 -51.5 23.5t-13.5 56.5q5 33 32.5 56.5t60.5 23.5t52 -23.5t14 -56.5t-33 -56.5t-61 -23.5zM445 500h166l-88 -500h-166l7 39
q-58 -53 -146 -53q-107 0 -158.5 81t-33.5 190q17 106 90 181.5t181 75.5q96 0 138 -69zM277 141q47 0 81 29t43 77v3q8 49 -15 79t-71 30q-47 0 -81 -30t-42 -79t15 -79t70 -30z" />
    <glyph glyph-name="aring" unicode="&#xe5;" horiz-adv-x="615" 
d="M350 533q-61 0 -95 39t-24 96t54.5 93t106.5 36q61 0 95.5 -39.5t23.5 -96.5q-10 -57 -53.5 -92.5t-107.5 -35.5zM338 665q-5 -32 27 -32q35 0 40 31q3 14 -4.5 23.5t-24.5 9.5q-15 0 -25.5 -9t-12.5 -23zM445 500h166l-88 -500h-166l7 39q-58 -53 -146 -53
q-107 0 -158.5 81t-33.5 190q17 106 90 181.5t181 75.5q96 0 138 -69zM277 141q47 0 81 29t43 77v3q8 49 -15 79t-71 30q-47 0 -81 -30t-42 -79t15 -79t70 -30z" />
    <glyph glyph-name="ae" unicode="&#xe6;" horiz-adv-x="945" 
d="M735 514q102 0 153.5 -75.5t33.5 -187.5q-7 -35 -18 -62h-343q14 -61 97 -61q60 0 99 36l106 -97q-87 -81 -189 -81q-107 0 -157 63l-9 -49h-151l7 42q-61 -56 -143 -56q-75 0 -124.5 40.5t-66 101.5t-4.5 130q17 104 92 180t186 76q90 0 133 -58l8 44h151l-6 -34
q62 48 145 48zM581 305h190q-5 69 -79 69q-75 0 -111 -69zM277 143q46 0 80.5 28.5t43.5 76.5v2q8 49 -15.5 78t-70.5 29t-81.5 -29.5t-42.5 -77.5q-8 -49 15.5 -78t70.5 -29z" />
    <glyph glyph-name="ccedilla" unicode="&#xe7;" horiz-adv-x="532" 
d="M273 148q58 0 93 50l132 -84q-59 -100 -179 -123l-7 -37q54 -25 43 -86q-19 -105 -250 -89l19 109q93 -7 98 14q3 17 -50 20l13 74q-87 23 -130.5 95.5t-28.5 168.5q18 111 102 182.5t196 71.5q79 0 133.5 -35.5t81.5 -95.5l-151 -79q-22 48 -78 48q-44 0 -77.5 -28
t-40.5 -73q-8 -45 15.5 -74t65.5 -29z" />
    <glyph glyph-name="egrave" unicode="&#xe8;" horiz-adv-x="568" 
d="M439 562h-154l-95 145h188zM324 514q113 0 177 -76.5t44 -186.5q-4 -30 -17 -62h-343q14 -61 96 -61q60 0 99 36l106 -97q-87 -81 -218 -81q-130 0 -195.5 79t-46.5 195q18 110 102 182t196 72zM205 305h189q-5 69 -79 69t-110 -69z" />
    <glyph glyph-name="eacute" unicode="&#xe9;" horiz-adv-x="568" 
d="M558 707l-136 -145h-163l101 145h198zM324 514q113 0 177 -76.5t44 -186.5q-4 -30 -17 -62h-343q14 -61 96 -61q60 0 99 36l106 -97q-87 -81 -218 -81q-130 0 -195.5 79t-46.5 195q18 110 102 182t196 72zM205 305h189q-5 69 -79 69t-110 -69z" />
    <glyph glyph-name="ecircumflex" unicode="&#xea;" horiz-adv-x="568" 
d="M354 608l-50 -56h-151l133 155h167l79 -155h-149zM324 514q113 0 177 -76.5t44 -186.5q-4 -30 -17 -62h-343q14 -61 96 -61q60 0 99 36l106 -97q-87 -81 -218 -81q-130 0 -195.5 79t-46.5 195q18 110 102 182t196 72zM205 305h189q-5 69 -79 69t-110 -69z" />
    <glyph glyph-name="edieresis" unicode="&#xeb;" horiz-adv-x="568" 
d="M248 542q-33 0 -52 23.5t-14 56.5t33 56.5t61 23.5q32 0 51.5 -23.5t13.5 -56.5q-5 -33 -32.5 -56.5t-60.5 -23.5zM442 542q-32 0 -51.5 23.5t-13.5 56.5q5 33 32.5 56.5t60.5 23.5t52 -23.5t14 -56.5t-33 -56.5t-61 -23.5zM324 514q113 0 177 -76.5t44 -186.5
q-4 -30 -17 -62h-343q14 -61 96 -61q60 0 99 36l106 -97q-87 -81 -218 -81q-130 0 -195.5 79t-46.5 195q18 110 102 182t196 72zM205 305h189q-5 69 -79 69t-110 -69z" />
    <glyph glyph-name="igrave" unicode="&#xec;" horiz-adv-x="262" 
d="M262 550l-21 150h-181l47 -150h155zM170 0h-166l88 500h166z" />
    <glyph glyph-name="iacute" unicode="&#xed;" horiz-adv-x="262" 
d="M101 550h158l97 150h-189zM4 0l88 500h166l-88 -500h-166z" />
    <glyph glyph-name="icircumflex" unicode="&#xee;" horiz-adv-x="262" 
d="M195 593l-37 -48h-150l119 155h166l65 -155h-141zM4 0l88 500h166l-88 -500h-166z" />
    <glyph glyph-name="idieresis" unicode="&#xef;" horiz-adv-x="262" 
d="M93 543q-32 0 -50.5 23t-12.5 54q5 31 31.5 54t58.5 23t51 -22.5t13 -54.5q-5 -32 -32 -54.5t-59 -22.5zM272 543q-31 0 -50 22.5t-14 54.5q6 32 33 54.5t58 22.5t50 -22.5t14 -54.5q-6 -32 -33 -54.5t-58 -22.5zM4 0l88 500h166l-88 -500h-166z" />
    <glyph glyph-name="eth" unicode="&#xf0;" horiz-adv-x="566" 
d="M509 365q40 -68 27 -145q-18 -109 -98.5 -171.5t-189.5 -62.5q-111 0 -178.5 70.5t-47.5 183.5q16 90 85.5 150t160.5 65l-29 55l-141 -50l21 121l68 24l-51 95h180l23 -40l145 52l-21 -122l-69 -25zM370 228q5 30 -7 52q-22 34 -69 34q-41 0 -70.5 -23t-36.5 -63
q-7 -42 13.5 -66t62.5 -24q41 0 70.5 24t36.5 66z" />
    <glyph glyph-name="ntilde" unicode="&#xf1;" 
d="M339 578q-21 16 -36.5 13.5t-20.5 -33.5h-121q6 60 28 99t53 52.5t64 11.5t63 -20q17 -10 26.5 -13.5t18 4t12.5 28.5h122q-6 -60 -29 -99t-53.5 -52.5t-63.5 -11t-63 20.5zM395 514q81 0 124.5 -56.5t26.5 -158.5l-53 -299h-166l49 278q6 40 -11 59.5t-51 19.5
q-38 0 -63.5 -23t-33.5 -68v1l-47 -267h-166l88 500h166l-9 -51q57 65 146 65z" />
    <glyph glyph-name="ograve" unicode="&#xf2;" horiz-adv-x="583" 
d="M437 565l-61 145h-188l95 -145h154zM258 -14q-85 0 -143.5 42.5t-79.5 105.5t-8 132q20 104 100.5 176t201.5 72q120 0 183 -85.5t44 -192.5q-18 -102 -100 -176t-198 -74zM271 146q44 0 77 29t41 75t-14.5 75t-66.5 29q-43 0 -76 -29t-41 -75t14.5 -75t65.5 -29z" />
    <glyph glyph-name="oacute" unicode="&#xf3;" horiz-adv-x="583" 
d="M257 565h163l136 145h-198zM258 -14q-85 0 -143.5 42.5t-79.5 105.5t-8 132q20 104 100.5 176t201.5 72q120 0 183 -85.5t44 -192.5q-18 -102 -100 -176t-198 -74zM271 146q44 0 77 29t41 75t-14.5 75t-66.5 29q-43 0 -76 -29t-41 -75t14.5 -75t65.5 -29z" />
    <glyph glyph-name="ocircumflex" unicode="&#xf4;" horiz-adv-x="583" 
d="M352 611l-50 -56h-151l133 155h167l79 -155h-149zM329 514q120 0 183 -85.5t44 -192.5q-18 -102 -100 -176t-198 -74q-85 0 -143.5 42.5t-79.5 105.5t-8 132q20 104 100.5 176t201.5 72zM389 250q8 46 -14.5 75t-66.5 29q-43 0 -76 -29t-41 -75t14.5 -75t65.5 -29
q44 0 77 29t41 75z" />
    <glyph glyph-name="otilde" unicode="&#xf5;" horiz-adv-x="583" 
d="M167 558q6 60 28 99t53 52.5t64 11.5t63 -20q17 -10 26.5 -13.5t18 4t12.5 28.5h122q-6 -60 -29 -99t-53.5 -52.5t-63.5 -11t-63 20.5q-21 16 -36.5 13.5t-20.5 -33.5h-121zM258 -14q-85 0 -143.5 42.5t-79.5 105.5t-8 132q20 104 100.5 176t201.5 72q120 0 183 -85.5
t44 -192.5q-18 -102 -100 -176t-198 -74zM271 146q44 0 77 29t41 75t-14.5 75t-66.5 29q-43 0 -76 -29t-41 -75t14.5 -75t65.5 -29z" />
    <glyph glyph-name="odieresis" unicode="&#xf6;" horiz-adv-x="583" 
d="M246 545q-33 0 -52 23.5t-14 56.5t33 56.5t61 23.5q32 0 51.5 -23.5t13.5 -56.5q-5 -33 -32.5 -56.5t-60.5 -23.5zM440 545q-32 0 -51.5 23.5t-13.5 56.5q5 33 32.5 56.5t60.5 23.5t52 -23.5t14 -56.5t-33 -56.5t-61 -23.5zM258 -14q-85 0 -143.5 42.5t-79.5 105.5
t-8 132q20 104 100.5 176t201.5 72q120 0 183 -85.5t44 -192.5q-18 -102 -100 -176t-198 -74zM271 146q44 0 77 29t41 75t-14.5 75t-66.5 29q-43 0 -76 -29t-41 -75t14.5 -75t65.5 -29z" />
    <glyph glyph-name="divide" unicode="&#xf7;" horiz-adv-x="551" 
d="M314 459q-40 0 -63.5 28.5t-16.5 68.5q8 41 39 67t71 26t63.5 -28.5t15.5 -68.5q-7 -40 -37.5 -66.5t-71.5 -26.5zM39 271l28 158h480l-28 -158h-480zM242 51q-40 0 -63.5 28.5t-16.5 68.5t38.5 66.5t71.5 26.5t63.5 -28.5t16.5 -68.5q-8 -41 -39 -67t-71 -26z" />
    <glyph glyph-name="oslash" unicode="&#xf8;" horiz-adv-x="583" 
d="M562 477l-49 -50q62 -82 43 -191q-18 -103 -98.5 -176.5t-199.5 -73.5q-80 0 -139 39l-36 -37l-63 34l49 50q-63 83 -42 194q20 104 100.5 176t201.5 72q75 0 134 -39l36 37zM193 250q-5 -30 2 -49l145 149q-18 4 -30 4q-44 0 -76.5 -29t-40.5 -75zM391 250q4 28 -2 50
l-147 -149q17 -5 31 -5q44 0 77 29t41 75z" />
    <glyph glyph-name="ugrave" unicode="&#xf9;" 
d="M425 555h-154l-95 145h188zM408 500h166l-88 -500h-166l9 51q-57 -65 -146 -65q-81 0 -124.5 56.5t-26.5 158.5l53 299h166l-49 -278q-6 -40 11 -59.5t51 -19.5q38 0 63.5 23t33.5 68v-1z" />
    <glyph glyph-name="uacute" unicode="&#xfa;" 
d="M544 700l-136 -145h-163l101 145h198zM408 500h166l-88 -500h-166l9 51q-57 -65 -146 -65q-81 0 -124.5 56.5t-26.5 158.5l53 299h166l-49 -278q-6 -40 11 -59.5t51 -19.5q38 0 63.5 23t33.5 68v-1z" />
    <glyph glyph-name="ucircumflex" unicode="&#xfb;" 
d="M340 601l-50 -56h-151l133 155h167l79 -155h-149zM408 500h166l-88 -500h-166l9 51q-57 -65 -146 -65q-81 0 -124.5 56.5t-26.5 158.5l53 299h166l-49 -278q-6 -40 11 -59.5t51 -19.5q38 0 63.5 23t33.5 68v-1z" />
    <glyph glyph-name="udieresis" unicode="&#xfc;" 
d="M234 535q-33 0 -52 23.5t-14 56.5t33 56.5t61 23.5q32 0 51.5 -23.5t13.5 -56.5q-5 -33 -32.5 -56.5t-60.5 -23.5zM428 535q-32 0 -51.5 23.5t-13.5 56.5q5 33 32.5 56.5t60.5 23.5t52 -23.5t14 -56.5t-33 -56.5t-61 -23.5zM408 500h166l-88 -500h-166l9 51
q-57 -65 -146 -65q-81 0 -124.5 56.5t-26.5 158.5l53 299h166l-49 -278q-6 -40 11 -59.5t51 -19.5q38 0 63.5 23t33.5 68v-1z" />
    <glyph glyph-name="yacute" unicode="&#xfd;" horiz-adv-x="549" 
d="M526 700l-136 -145h-163l101 145h198zM402 500h191l-254 -485q-65 -125 -148 -174.5t-194 -40.5l28 156q54 0 81 13.5t50 50.5l-112 480h176l52 -289z" />
    <glyph glyph-name="thorn" unicode="&#xfe;" horiz-adv-x="615" 
d="M393 514q103 0 158.5 -81.5t37.5 -192.5q-18 -108 -89.5 -181t-176.5 -73q-98 0 -143 71l-45 -257h-166l158 900h166l-42 -241q57 55 142 55zM423 250q9 50 -14 79.5t-70 29.5t-81.5 -29.5t-43.5 -79.5q-8 -50 15.5 -79.5t70.5 -29.5t81 29.5t42 79.5z" />
    <glyph glyph-name="ydieresis" unicode="&#xff;" horiz-adv-x="549" 
d="M216 535q-33 0 -52 23.5t-14 56.5t33 56.5t61 23.5q32 0 51.5 -23.5t13.5 -56.5q-5 -33 -32.5 -56.5t-60.5 -23.5zM410 535q-32 0 -51.5 23.5t-13.5 56.5q5 33 32.5 56.5t60.5 23.5t52 -23.5t14 -56.5t-33 -56.5t-61 -23.5zM402 500h191l-254 -485q-65 -125 -148 -174.5
t-194 -40.5l28 156q54 0 81 13.5t50 50.5l-112 480h176l52 -289z" />
    <glyph glyph-name="Amacron" unicode="&#x100;" horiz-adv-x="671" 
d="M601 884l-23 -130h-309l22 130h310zM440 0l-11 101h-233l-48 -101h-197l354 700h218l108 -700h-191zM270 255h142l-26 242z" />
    <glyph glyph-name="amacron" unicode="&#x101;" horiz-adv-x="615" 
d="M529 684l-23 -130h-309l22 130h310zM445 500h166l-88 -500h-166l7 39q-58 -53 -146 -53q-107 0 -158.5 81t-33.5 190q17 106 90 181.5t181 75.5q96 0 138 -69zM277 141q47 0 81 29t43 77v3q8 49 -15 79t-71 30q-47 0 -81 -30t-42 -79t15 -79t70 -30z" />
    <glyph glyph-name="Abreve" unicode="&#x102;" horiz-adv-x="671" 
d="M430 737q-85 0 -129.5 44t-30.5 116h140q-8 -44 32 -44q39 0 47 44h140q-25 -160 -199 -160zM440 0l-11 101h-233l-48 -101h-197l354 700h218l108 -700h-191zM270 255h142l-26 242z" />
    <glyph glyph-name="abreve" unicode="&#x103;" horiz-adv-x="615" 
d="M358 537q-85 0 -129.5 44t-30.5 116h140q-8 -44 32 -44q39 0 47 44h140q-25 -160 -199 -160zM445 500h166l-88 -500h-166l7 39q-58 -53 -146 -53q-107 0 -158.5 81t-33.5 190q17 106 90 181.5t181 75.5q96 0 138 -69zM277 141q47 0 81 29t43 77v3q8 49 -15 79t-71 30
q-47 0 -81 -30t-42 -79t15 -79t70 -30z" />
    <glyph glyph-name="Aogonek" unicode="&#x104;" horiz-adv-x="671" 
d="M575 -75q-5 -24 18 -24q10 0 22 3l-19 -101q-45 -17 -91 -17q-45 0 -71 26.5t-17 71.5q11 61 80 116h-57l-11 101h-233l-48 -101h-197l354 700h218l108 -700q-49 -44 -56 -75zM270 255h142l-26 242z" />
    <glyph glyph-name="aogonek" unicode="&#x105;" horiz-adv-x="615" 
d="M445 500h166l-88 -500q-54 -49 -57 -82q-3 -19 18 -19q10 0 22 3l-18 -99q-38 -17 -85 -17q-46 0 -72.5 22.5t-22.5 62.5q3 64 84 129h-35l7 39q-58 -53 -146 -53q-107 0 -158.5 81t-33.5 190q17 106 90 181.5t181 75.5q96 0 138 -69zM277 141q47 0 81 29t43 77v3
q8 49 -15 79t-71 30q-47 0 -81 -30t-42 -79t15 -79t70 -30z" />
    <glyph glyph-name="Cacute" unicode="&#x106;" horiz-adv-x="722" 
d="M394 765h163l136 145h-198zM359 -15q-161 0 -249.5 108t-62.5 267q25 155 141.5 255t271.5 100q103 0 175.5 -44.5t110.5 -122.5l-164 -87q-40 79 -139 79q-82 0 -142.5 -52.5t-75.5 -137.5q-14 -83 26 -136.5t120 -53.5q101 0 164 84l147 -95q-56 -78 -140.5 -121
t-182.5 -43z" />
    <glyph glyph-name="cacute" unicode="&#x107;" horiz-adv-x="532" 
d="M244 560h163l136 145h-198zM260 -14q-120 0 -186 79t-48 195q18 111 102 182.5t196 71.5q79 0 133.5 -35.5t81.5 -95.5l-151 -79q-22 48 -78 48q-44 0 -77.5 -28t-40.5 -73q-8 -45 15.5 -74t65.5 -29q58 0 93 50l132 -84q-38 -63 -101 -95.5t-137 -32.5z" />
    <glyph glyph-name="Cdotaccent" unicode="&#x10a;" horiz-adv-x="722" 
d="M482 753q-37 0 -59 26.5t-15 62.5q7 37 37.5 63.5t67.5 26.5t59 -26.5t16 -63.5q-8 -36 -39 -62.5t-67 -26.5zM359 -15q-161 0 -249.5 108t-62.5 267q25 155 141.5 255t271.5 100q103 0 175.5 -44.5t110.5 -122.5l-164 -87q-40 79 -139 79q-82 0 -142.5 -52.5
t-75.5 -137.5q-14 -83 26 -136.5t120 -53.5q101 0 164 84l147 -95q-56 -78 -140.5 -121t-182.5 -43z" />
    <glyph glyph-name="cdotaccent" unicode="&#x10b;" horiz-adv-x="532" 
d="M332 548q-37 0 -59 26.5t-15 62.5q7 37 37.5 63.5t67.5 26.5t59 -26.5t16 -63.5q-8 -36 -39 -62.5t-67 -26.5zM260 -14q-120 0 -186 79t-48 195q18 111 102 182.5t196 71.5q79 0 133.5 -35.5t81.5 -95.5l-151 -79q-22 48 -78 48q-44 0 -77.5 -28t-40.5 -73
q-8 -45 15.5 -74t65.5 -29q58 0 93 50l132 -84q-38 -63 -101 -95.5t-137 -32.5z" />
    <glyph glyph-name="Ccaron" unicode="&#x10c;" horiz-adv-x="722" 
d="M394 755l-79 155h145l30 -56l49 56h155l-133 -155h-167zM371 160q101 0 164 84l147 -95q-56 -78 -140.5 -121t-182.5 -43q-161 0 -249.5 108t-62.5 267q25 155 141.5 255t271.5 100q103 0 175.5 -44.5t110.5 -122.5l-164 -87q-40 79 -139 79q-82 0 -142.5 -52.5
t-75.5 -137.5q-14 -83 26 -136.5t120 -53.5z" />
    <glyph glyph-name="ccaron" unicode="&#x10d;" horiz-adv-x="532" 
d="M244 550l-79 155h145l30 -56l49 56h155l-133 -155h-167zM310 352q-44 0 -77.5 -28t-40.5 -73q-8 -45 15.5 -74t65.5 -29q58 0 93 50l132 -84q-38 -63 -101 -95.5t-137 -32.5q-120 0 -186 79t-48 195q18 111 102 182.5t196 71.5q79 0 133.5 -35.5t81.5 -95.5l-151 -79
q-22 48 -78 48z" />
    <glyph glyph-name="Dcaron" unicode="&#x10e;" horiz-adv-x="709" 
d="M319 745l-79 155h145l30 -56l49 56h155l-133 -155h-167zM419 700q138 0 221 -106t57 -254q-27 -150 -137 -245t-264 -95h-285l123 700h285zM523 353q13 79 -24 126.5t-110 47.5h-101l-63 -354h96q76 0 131.5 49.5t70.5 130.5z" />
    <glyph glyph-name="dcaron" unicode="&#x10f;" horiz-adv-x="758" 
d="M436 444l45 256h166l-123 -700h-166l7 40q-59 -54 -147 -54q-107 0 -158.5 81t-33.5 190q17 106 90 181.5t181 75.5q96 0 139 -70zM698 700h154l-73 -219h-130zM278 141q46 0 79.5 28t43.5 75l2 10q7 48 -16.5 76.5t-70.5 28.5t-81.5 -30t-42.5 -79t15.5 -79t70.5 -30z
" />
    <glyph glyph-name="Dcroat" unicode="&#x110;" horiz-adv-x="739" 
d="M449 700q138 0 221 -106t57 -254q-27 -150 -137 -245t-264 -95h-285l46 263h-74l28 158h74l49 279h285zM553 353q13 79 -24 126.5t-110 47.5h-101l-19 -106h132l-28 -158h-132l-16 -90h96q76 0 131.5 49.5t70.5 130.5z" />
    <glyph glyph-name="dcroat" unicode="&#x111;" horiz-adv-x="625" 
d="M695 645l-19 -106h-57l-95 -539h-166l7 37q-57 -51 -146 -51q-109 0 -161.5 80t-32.5 190q18 104 92 176.5t179 72.5q96 0 139 -69l18 103h-137l19 106h136l10 55h166l-10 -55h58zM191 245q-9 -48 15 -77t71 -29t81 29t43 77q8 49 -15.5 78t-70.5 29t-81.5 -29.5
t-42.5 -77.5z" />
    <glyph glyph-name="Emacron" unicode="&#x112;" horiz-adv-x="535" 
d="M544 884l-23 -130h-309l22 130h310zM549 533h-265l-18 -98h242l-30 -164h-240l-18 -103h270l-29 -168h-450l123 700h445z" />
    <glyph glyph-name="emacron" unicode="&#x113;" horiz-adv-x="568" 
d="M526 691l-23 -130h-309l22 130h310zM324 514q113 0 177 -76.5t44 -186.5q-4 -30 -17 -62h-343q14 -61 96 -61q60 0 99 36l106 -97q-87 -81 -218 -81q-130 0 -195.5 79t-46.5 195q18 110 102 182t196 72zM205 305h189q-5 69 -79 69t-110 -69z" />
    <glyph glyph-name="Edotaccent" unicode="&#x116;" horiz-adv-x="535" 
d="M365 743q-37 0 -59 26.5t-15 62.5q7 37 37.5 63.5t67.5 26.5t59 -26.5t16 -63.5q-8 -36 -39 -62.5t-67 -26.5zM549 533h-265l-18 -98h242l-30 -164h-240l-18 -103h270l-29 -168h-450l123 700h445z" />
    <glyph glyph-name="edotaccent" unicode="&#x117;" horiz-adv-x="568" 
d="M347 550q-37 0 -59 26.5t-15 62.5q7 37 37.5 63.5t67.5 26.5t59 -26.5t16 -63.5q-8 -36 -39 -62.5t-67 -26.5zM324 514q113 0 177 -76.5t44 -186.5q-4 -30 -17 -62h-343q14 -61 96 -61q60 0 99 36l106 -97q-87 -81 -218 -81q-130 0 -195.5 79t-46.5 195q18 110 102 182
t196 72zM205 305h189q-5 69 -79 69t-110 -69z" />
    <glyph glyph-name="Eogonek" unicode="&#x118;" horiz-adv-x="535" 
d="M549 533h-265l-18 -98h242l-30 -164h-240l-18 -103h270l-29 -168q-52 -48 -57 -78q-5 -23 17 -23q6 -1 23 3l-18 -99q-45 -17 -91 -17t-71.5 23t-17.5 68q11 58 84 123h-319l123 700h445z" />
    <glyph glyph-name="eogonek" unicode="&#x119;" horiz-adv-x="568" 
d="M324 514q113 0 177 -76.5t44 -186.5q-4 -30 -17 -62h-343q14 -61 96 -61q60 0 99 36l106 -97q-20 -18 -31 -26q-43 -32 -70 -63t-33 -51q-9 -28 19 -28q9 0 20 3l-18 -99q-40 -17 -84 -17q-54 0 -79 26.5t-17 67.5q9 51 76 106h-1q-130 0 -195.5 79t-46.5 195
q18 110 102 182t196 72zM205 305h189q-5 69 -79 69t-110 -69z" />
    <glyph glyph-name="Ecaron" unicode="&#x11a;" horiz-adv-x="535" 
d="M277 745l-79 155h145l30 -56l49 56h155l-133 -155h-167zM549 533h-265l-18 -98h242l-30 -164h-240l-18 -103h270l-29 -168h-450l123 700h445z" />
    <glyph glyph-name="ecaron" unicode="&#x11b;" horiz-adv-x="568" 
d="M259 552l-79 155h145l30 -56l49 56h155l-133 -155h-167zM324 514q113 0 177 -76.5t44 -186.5q-4 -30 -17 -62h-343q14 -61 96 -61q60 0 99 36l106 -97q-87 -81 -218 -81q-130 0 -195.5 79t-46.5 195q18 110 102 182t196 72zM205 305h189q-5 69 -79 69t-110 -69z" />
    <glyph glyph-name="Gbreve" unicode="&#x11e;" horiz-adv-x="779" 
d="M490 747q-85 0 -129.5 44t-30.5 116h140q-8 -44 32 -44q39 0 47 44h140q-25 -160 -199 -160zM777 401l-12 -71q-26 -159 -135 -252t-268 -93q-163 0 -252 108.5t-63 266.5q26 155 142 255t272 100q103 0 178 -44t115 -121l-164 -88q-44 78 -147 78q-82 0 -142.5 -52.5
t-75.5 -137.5q-15 -84 27 -139.5t126 -55.5q129 0 181 92h-162l27 154h353z" />
    <glyph glyph-name="gbreve" unicode="&#x11f;" horiz-adv-x="619" 
d="M361 547q-85 0 -129.5 44t-30.5 116h140q-8 -44 32 -44q39 0 47 44h140q-25 -160 -199 -160zM451 500h164l-85 -480q-21 -121 -101.5 -178t-193.5 -57q-84 0 -146 31t-88 91l147 77q28 -54 102 -54q46 0 77 22.5t39 67.5l7 38q-59 -52 -142 -52q-75 0 -125 38.5
t-67.5 96.5t-7.5 126q15 100 87.5 173.5t181.5 73.5q97 0 141 -73zM284 157q44 0 78 26t45 67l3 20q4 41 -20.5 67t-68.5 26q-47 0 -81.5 -29t-42.5 -74t16 -74t71 -29z" />
    <glyph glyph-name="Gdotaccent" unicode="&#x120;" horiz-adv-x="779" 
d="M482 753q-37 0 -59 26.5t-15 62.5q7 37 37.5 63.5t67.5 26.5t59 -26.5t16 -63.5q-8 -36 -39 -62.5t-67 -26.5zM777 401l-12 -71q-26 -159 -135 -252t-268 -93q-163 0 -252 108.5t-63 266.5q26 155 142 255t272 100q103 0 178 -44t115 -121l-164 -88q-44 78 -147 78
q-82 0 -142.5 -52.5t-75.5 -137.5q-15 -84 27 -139.5t126 -55.5q129 0 181 92h-162l27 154h353z" />
    <glyph glyph-name="gdotaccent" unicode="&#x121;" horiz-adv-x="619" 
d="M353 553q-37 0 -59 26.5t-15 62.5q7 37 37.5 63.5t67.5 26.5t59 -26.5t16 -63.5q-8 -36 -39 -62.5t-67 -26.5zM451 500h164l-85 -480q-21 -121 -101.5 -178t-193.5 -57q-84 0 -146 31t-88 91l147 77q28 -54 102 -54q46 0 77 22.5t39 67.5l7 38q-59 -52 -142 -52
q-75 0 -125 38.5t-67.5 96.5t-7.5 126q15 100 87.5 173.5t181.5 73.5q97 0 141 -73zM284 157q44 0 78 26t45 67l3 20q4 41 -20.5 67t-68.5 26q-47 0 -81.5 -29t-42.5 -74t16 -74t71 -29z" />
    <glyph glyph-name="Gcommaaccent" unicode="&#x122;" horiz-adv-x="779" 
d="M777 401l-12 -71q-26 -159 -135 -252t-268 -93q-163 0 -252 108.5t-63 266.5q26 155 142 255t272 100q103 0 178 -44t115 -121l-164 -88q-44 78 -147 78q-82 0 -142.5 -52.5t-75.5 -137.5q-15 -84 27 -139.5t126 -55.5q129 0 181 92h-162l27 154h353zM224 -277l48 220
h154l-73 -220h-129z" />
    <glyph glyph-name="gcommaaccent" unicode="&#x123;" horiz-adv-x="619" 
d="M471 795l-49 -220h-154l74 220h129zM451 500h164l-85 -480q-21 -121 -101.5 -178t-193.5 -57q-84 0 -146 31t-88 91l147 77q28 -54 102 -54q46 0 77 22.5t39 67.5l7 38q-59 -52 -142 -52q-75 0 -125 38.5t-67.5 96.5t-7.5 126q15 100 87.5 173.5t181.5 73.5q97 0 141 -73
zM284 157q44 0 78 26t45 67l3 20q4 41 -20.5 67t-68.5 26q-47 0 -81.5 -29t-42.5 -74t16 -74t71 -29z" />
    <glyph glyph-name="Hbar" unicode="&#x126;" horiz-adv-x="705" 
d="M752 608l-22 -130h-61l-84 -478h-178l39 220h-197l-39 -220h-179l84 478h-59l22 130h60l16 92h179l-16 -92h197l16 92h178l-16 -92h60zM476 393l15 85h-197l-15 -85h197z" />
    <glyph glyph-name="hbar" unicode="&#x127;" horiz-adv-x="587" 
d="M402 502q81 0 125 -56.5t26 -158.5l-50 -287h-166l46 266q7 40 -10 60t-52 20q-73 0 -94 -78l-47 -268h-166l95 539h-58l19 106h57l10 55h166l-10 -55h136l-19 -106h-135l-18 -101q58 64 145 64z" />
    <glyph glyph-name="Imacron" unicode="&#x12a;" horiz-adv-x="289" 
d="M79 754l22 130h310l-23 -130h-309zM134 700h179l-123 -700h-179z" />
    <glyph glyph-name="imacron" unicode="&#x12b;" horiz-adv-x="262" 
d="M56 554l23 135h259l-23 -135h-259zM4 0l88 500h166l-88 -500h-166z" />
    <glyph glyph-name="Iogonek" unicode="&#x12e;" horiz-adv-x="289" 
d="M190 0q-47 -49 -50 -79q-3 -22 19 -22q6 -1 22 3l-18 -99q-45 -17 -91 -17t-70.5 26.5t-18.5 68.5q9 59 75 119h-47l123 700h179z" />
    <glyph glyph-name="iogonek" unicode="&#x12f;" horiz-adv-x="262" 
d="M215 732q40 0 63.5 -28t16.5 -67q-6 -40 -38 -68t-73 -28q-39 0 -63 28.5t-17 67.5q6 38 38 66.5t73 28.5zM4 0l88 500h166l-88 -500q-42 -48 -46 -79q-3 -22 18 -22q6 -1 22 3l-18 -99q-43 -17 -91 -17q-45 0 -69.5 26t-19.5 66q5 52 66 122h-28z" />
    <glyph glyph-name="Idotaccent" unicode="&#x130;" horiz-adv-x="289" 
d="M232 743q-37 0 -59 26.5t-15 62.5q7 37 37.5 63.5t67.5 26.5t59 -26.5t16 -63.5q-8 -36 -39 -62.5t-67 -26.5zM134 700h179l-123 -700h-179z" />
    <glyph glyph-name="dotlessi" unicode="&#x131;" horiz-adv-x="262" 
d="M4 0l88 500h166l-88 -500h-166z" />
    <glyph glyph-name="Kcommaaccent" unicode="&#x136;" horiz-adv-x="631" 
d="M711 700l-298 -348l178 -352h-185l-160 319l-56 -319h-179l123 700h179l-50 -284l239 284h209zM138 -277l48 220h154l-73 -220h-129z" />
    <glyph glyph-name="kcommaaccent" unicode="&#x137;" horiz-adv-x="537" 
d="M573 500l-210 -251l130 -249h-178l-106 220l-39 -220h-166l123 700h166l-70 -398l159 198h191zM111 -277l48 220h154l-73 -220h-129z" />
    <glyph glyph-name="Lacute" unicode="&#x139;" horiz-adv-x="485" 
d="M450 900l-136 -145h-163l101 145h198zM220 173h241l-30 -173h-420l123 700h179z" />
    <glyph glyph-name="lacute" unicode="&#x13a;" horiz-adv-x="263" 
d="M138 760h163l136 145h-198zM5 0l56 321l72 409h166l-72 -414l-56 -316h-166z" />
    <glyph glyph-name="Lcommaaccent" unicode="&#x13b;" horiz-adv-x="485" 
d="M220 173h241l-30 -173h-420l123 700h179zM89 -277l48 220h154l-73 -220h-129z" />
    <glyph glyph-name="lcommaaccent" unicode="&#x13c;" horiz-adv-x="263" 
d="M5 0l56 321l72 409h166l-72 -414l-56 -316h-166zM81 -277l73 220h-154l-48 -220h129z" />
    <glyph glyph-name="Lcaron" unicode="&#x13d;" horiz-adv-x="485" 
d="M313 700l-93 -527h241l-30 -173h-420l123 700h179zM371 700h164l-69 -199h-139z" />
    <glyph glyph-name="lcaron" unicode="&#x13e;" horiz-adv-x="397" 
d="M5 0l56 321l72 409h166l-72 -414l-56 -316h-166zM423 511l74 219h-154l-49 -219h129z" />
    <glyph glyph-name="Lslash" unicode="&#x141;" horiz-adv-x="515" 
d="M250 173h241l-30 -173h-420l35 199l-66 -36l31 177l66 36l57 324h179l-38 -215l133 73l-31 -177l-133 -73z" />
    <glyph glyph-name="lslash" unicode="&#x142;" horiz-adv-x="279" 
d="M319 507l-27 -157l-57 -32v-2l-56 -316h-166l37 212l-57 -33l28 157l56 32l64 362h166l-44 -255z" />
    <glyph glyph-name="Nacute" unicode="&#x143;" horiz-adv-x="675" 
d="M336 755h163l136 145h-198zM11 0l123 700h139l182 -366l65 366h178l-123 -700h-138l-182 366l-65 -366h-179z" />
    <glyph glyph-name="nacute" unicode="&#x144;" 
d="M550 710l-136 -145h-163l101 145h198zM395 514q81 0 124.5 -56.5t26.5 -158.5l-53 -299h-166l49 278q6 40 -11 59.5t-51 19.5q-38 0 -63.5 -23t-33.5 -68v1l-47 -267h-166l88 500h166l-9 -51q57 65 146 65z" />
    <glyph glyph-name="Ncommaaccent" unicode="&#x145;" horiz-adv-x="675" 
d="M11 0l123 700h139l182 -366l65 366h178l-123 -700h-138l-182 366l-65 -366h-179zM297 -277l73 220h-154l-48 -220h129z" />
    <glyph glyph-name="ncommaaccent" unicode="&#x146;" 
d="M395 514q81 0 124.5 -56.5t26.5 -158.5l-53 -299h-166l49 278q6 40 -11 59.5t-51 19.5q-38 0 -63.5 -23t-33.5 -68v1l-47 -267h-166l88 500h166l-9 -51q57 65 146 65zM124 -277l48 220h154l-73 -220h-129z" />
    <glyph glyph-name="Ncaron" unicode="&#x147;" horiz-adv-x="675" 
d="M336 745l-79 155h145l30 -56l49 56h155l-133 -155h-167zM520 700h178l-123 -700h-138l-182 366l-65 -366h-179l123 700h139l182 -366z" />
    <glyph glyph-name="ncaron" unicode="&#x148;" 
d="M251 555l-79 155h145l30 -56l49 56h155l-133 -155h-167zM395 514q81 0 124.5 -56.5t26.5 -158.5l-53 -299h-166l49 278q6 40 -11 59.5t-51 19.5q-38 0 -63.5 -23t-33.5 -68v1l-47 -267h-166l88 500h166l-9 -51q57 65 146 65z" />
    <glyph glyph-name="Eng" unicode="&#x14a;" horiz-adv-x="675" 
d="M520 700h178l-123 -700q-20 -113 -88 -165t-193 -42l28 154q72 -3 83 60l8 42l-158 317l-65 -366h-179l123 700h139l182 -366z" />
    <glyph glyph-name="eng" unicode="&#x14b;" 
d="M395 514q81 0 124.5 -56.5t26.5 -158.5l-53 -299q-20 -117 -83 -167t-178 -42l27 150q57 -5 68 59l49 278q6 40 -11 59.5t-51 19.5q-38 0 -63.5 -23t-33.5 -68v1l-47 -267h-166l88 500h166l-9 -51q57 65 146 65z" />
    <glyph glyph-name="Omacron" unicode="&#x14c;" horiz-adv-x="790" 
d="M331 764l22 130h310l-23 -130h-309zM360 -15q-106 0 -185 53t-112 139t-16 184q26 150 141 252t279 102q159 0 247.5 -111.5t63.5 -262.5q-26 -152 -139.5 -254t-278.5 -102zM376 160q81 0 145.5 53.5t78.5 136.5q15 83 -29 136.5t-125 53.5t-143.5 -53.5t-77.5 -136.5
q-15 -84 27.5 -137t123.5 -53z" />
    <glyph glyph-name="omacron" unicode="&#x14d;" horiz-adv-x="583" 
d="M192 564l22 130h310l-23 -130h-309zM258 -14q-85 0 -143.5 42.5t-79.5 105.5t-8 132q20 104 100.5 176t201.5 72q120 0 183 -85.5t44 -192.5q-18 -102 -100 -176t-198 -74zM271 146q44 0 77 29t41 75t-14.5 75t-66.5 29q-43 0 -76 -29t-41 -75t14.5 -75t65.5 -29z" />
    <glyph glyph-name="Ohungarumlaut" unicode="&#x150;" horiz-adv-x="790" 
d="M285 755h157l113 150h-164zM477 755h158l122 150h-163zM360 -15q-106 0 -185 53t-112 139t-16 184q26 150 141 252t279 102q159 0 247.5 -111.5t63.5 -262.5q-26 -152 -139.5 -254t-278.5 -102zM376 160q81 0 145.5 53.5t78.5 136.5q15 83 -29 136.5t-125 53.5
t-143.5 -53.5t-77.5 -136.5q-15 -84 27.5 -137t123.5 -53z" />
    <glyph glyph-name="ohungarumlaut" unicode="&#x151;" horiz-adv-x="583" 
d="M146 555h157l113 150h-164zM338 555h158l122 150h-163zM258 -14q-85 0 -143.5 42.5t-79.5 105.5t-8 132q20 104 100.5 176t201.5 72q120 0 183 -85.5t44 -192.5q-18 -102 -100 -176t-198 -74zM271 146q44 0 77 29t41 75t-14.5 75t-66.5 29q-43 0 -76 -29t-41 -75
t14.5 -75t65.5 -29z" />
    <glyph glyph-name="OE" unicode="&#x152;" horiz-adv-x="934" 
d="M949 532h-226l-17 -97h201l-29 -164h-200l-18 -103h230l-30 -168h-409q-54 -15 -108 -15q-156 0 -239 109t-58 262q24 149 141 254t275 105q64 0 112 -15l-31 -176q-39 16 -102 16q-80 0 -140.5 -53t-75.5 -137t25.5 -137t120.5 -53q64 0 111 16l92 524h404z" />
    <glyph glyph-name="oe" unicode="&#x153;" horiz-adv-x="933" 
d="M699 514q106 0 168 -76.5t43 -186.5q-4 -30 -17 -62h-343q14 -61 96 -61q60 0 99 36l106 -97q-87 -81 -210 -81q-134 0 -192 86q-80 -86 -201 -86q-84 0 -139.5 41t-74.5 102t-8 131q18 105 96.5 179.5t198.5 74.5q117 0 175 -86q81 86 203 86zM570 305h189q-5 69 -79 69
t-110 -69zM392 250q8 46 -15.5 75t-66.5 29q-44 0 -77 -29t-41 -75t15 -75t66 -29q44 0 77.5 29t41.5 75z" />
    <glyph glyph-name="Racute" unicode="&#x154;" horiz-adv-x="620" 
d="M578 900l-136 -145h-163l101 145h198zM624 448q-12 -67 -51.5 -117t-100.5 -77l96 -254h-180l-82 226h-76l-40 -226h-179l124 700h274q104 0 169 -74t46 -178zM284 535l-28 -157h103q33 -1 56.5 21t29.5 57t-11.5 57t-53.5 22h-96z" />
    <glyph glyph-name="racute" unicode="&#x155;" horiz-adv-x="380" 
d="M458 700l-136 -145h-163l101 145h198zM241 406q23 51 68 77.5t101 26.5l-31 -184q-57 8 -108.5 -20t-63.5 -99l2 16l-39 -223h-166l88 500h166z" />
    <glyph glyph-name="Rcommaaccent" unicode="&#x156;" horiz-adv-x="620" 
d="M624 448q-12 -67 -51.5 -117t-100.5 -77l96 -254h-180l-82 226h-76l-40 -226h-179l124 700h274q104 0 169 -74t46 -178zM284 535l-28 -157h103q33 -1 56.5 21t29.5 57t-11.5 57t-53.5 22h-96zM166 -277l48 220h154l-73 -220h-129z" />
    <glyph glyph-name="rcommaaccent" unicode="&#x157;" horiz-adv-x="380" 
d="M241 406q23 51 68 77.5t101 26.5l-31 -184q-57 8 -108.5 -20t-63.5 -99l2 16l-39 -223h-166l88 500h166zM-49 -277l48 220h154l-73 -220h-129z" />
    <glyph glyph-name="Rcaron" unicode="&#x158;" horiz-adv-x="620" 
d="M279 745l-79 155h145l30 -56l49 56h155l-133 -155h-167zM624 448q-12 -67 -51.5 -117t-100.5 -77l96 -254h-180l-82 226h-76l-40 -226h-179l124 700h274q104 0 169 -74t46 -178zM284 535l-28 -157h103q33 -1 56.5 21t29.5 57t-11.5 57t-53.5 22h-96z" />
    <glyph glyph-name="rcaron" unicode="&#x159;" horiz-adv-x="380" 
d="M159 545l-79 155h145l30 -56l49 56h155l-133 -155h-167zM241 406q23 51 68 77.5t101 26.5l-31 -184q-57 8 -108.5 -20t-63.5 -99l2 16l-39 -223h-166l88 500h166z" />
    <glyph glyph-name="Sacute" unicode="&#x15a;" horiz-adv-x="588" 
d="M287 765h163l136 145h-198zM269 -15q-112 0 -181 46.5t-91 127.5l159 82q28 -87 128 -87q82 0 91 48q6 33 -46 55q-8 4 -73 26q-92 31 -139 84t-31 145q17 96 91.5 149.5t176.5 53.5q88 0 151.5 -41.5t93.5 -118.5l-153 -82q-33 73 -106 73q-63 0 -72 -45
q-6 -25 18 -41.5t90 -39.5q46 -16 75 -30t60.5 -40.5t42.5 -67t2 -95.5q-18 -99 -94 -150.5t-193 -51.5z" />
    <glyph glyph-name="sacute" unicode="&#x15b;" horiz-adv-x="473" 
d="M201 565h163l136 145h-198zM210 -14q-166 0 -220 123l146 71q22 -57 83 -57q44 0 48 24q3 15 -21.5 25.5t-60 20.5t-69.5 26.5t-53.5 53t-10.5 90.5q13 75 76 113t139 38q69 0 121.5 -28.5t76.5 -82.5l-141 -68q-18 45 -62 46q-38 2 -44 -27q-3 -16 14 -26.5t44 -15.5
t58 -16.5t56.5 -27.5t38 -50.5t4.5 -82.5q-14 -77 -76 -113t-147 -36z" />
    <glyph glyph-name="Scedilla" unicode="&#x15e;" horiz-adv-x="588" 
d="M376 420q46 -16 75 -30t60.5 -40.5t42.5 -67t2 -95.5q-15 -85 -74 -135t-151 -63l-6 -35q54 -25 43 -86q-19 -105 -250 -89l19 109q93 -7 98 14q3 17 -50 20l12 69q-81 13 -131.5 57t-68.5 111l159 82q28 -87 128 -87q82 0 91 48q6 33 -46 55q-8 4 -73 26q-92 31 -139 84
t-31 145q17 96 91.5 149.5t176.5 53.5q88 0 151.5 -41.5t93.5 -118.5l-153 -82q-33 73 -106 73q-63 0 -72 -45q-6 -25 18 -41.5t90 -39.5z" />
    <glyph glyph-name="scedilla" unicode="&#x15f;" horiz-adv-x="473" 
d="M218 354q-3 -16 14 -26.5t44 -15.5t58 -16.5t56.5 -27.5t38 -50.5t4.5 -82.5q-22 -119 -159 -144l-7 -37q54 -25 43 -86q-19 -105 -250 -89l19 109q93 -7 98 14q3 17 -50 20l13 70q-109 21 -150 117l146 71q22 -57 83 -57q44 0 48 24q3 15 -21.5 25.5t-60 20.5
t-69.5 26.5t-53.5 53t-10.5 90.5q13 75 76 113t139 38q69 0 121.5 -28.5t76.5 -82.5l-141 -68q-18 45 -62 46q-38 2 -44 -27z" />
    <glyph glyph-name="Scaron" unicode="&#x160;" horiz-adv-x="588" 
d="M287 755l-79 155h145l30 -56l49 56h155l-133 -155h-167zM376 420q46 -16 75 -30t60.5 -40.5t42.5 -67t2 -95.5q-18 -99 -94 -150.5t-193 -51.5q-112 0 -181 46.5t-91 127.5l159 82q28 -87 128 -87q82 0 91 48q6 33 -46 55q-8 4 -73 26q-92 31 -139 84t-31 145
q17 96 91.5 149.5t176.5 53.5q88 0 151.5 -41.5t93.5 -118.5l-153 -82q-33 73 -106 73q-63 0 -72 -45q-6 -25 18 -41.5t90 -39.5z" />
    <glyph glyph-name="scaron" unicode="&#x161;" horiz-adv-x="473" 
d="M201 555l-79 155h145l30 -56l49 56h155l-133 -155h-167zM262 381q-38 2 -44 -27q-3 -16 14 -26.5t44 -15.5t58 -16.5t56.5 -27.5t38 -50.5t4.5 -82.5q-14 -77 -76 -113t-147 -36q-166 0 -220 123l146 71q22 -57 83 -57q44 0 48 24q3 15 -21.5 25.5t-60 20.5t-69.5 26.5
t-53.5 53t-10.5 90.5q13 75 76 113t139 38q69 0 121.5 -28.5t76.5 -82.5l-141 -68q-18 45 -62 46z" />
    <glyph glyph-name="uni0162" unicode="&#x162;" horiz-adv-x="545" 
d="M614 700l-31 -173h-172l-93 -527h-179l93 527h-173l30 173h525zM95 -277l48 220h154l-73 -220h-129z" />
    <glyph glyph-name="uni0163" unicode="&#x163;" horiz-adv-x="394" 
d="M270 341l-25 -145q-6 -34 16 -42t80 -4l-26 -150q-141 -19 -199 28.5t-38 163.5l26 149h-75l28 159h75l16 90l175 50l-25 -140h105l-29 -159h-104zM54 -272l48 220h154l-73 -220h-129z" />
    <glyph glyph-name="Tcaron" unicode="&#x164;" horiz-adv-x="545" 
d="M271 745l-79 155h145l30 -56l49 56h155l-133 -155h-167zM614 700l-31 -173h-172l-93 -527h-179l93 527h-173l30 173h525z" />
    <glyph glyph-name="tcaron" unicode="&#x165;" horiz-adv-x="430" 
d="M385 726h150l-69 -190h-124zM323 640l-25 -140h105l-29 -159h-104l-25 -145q-6 -34 16 -42t80 -4l-26 -150q-141 -19 -199 28.5t-38 163.5l26 149h-75l28 159h75l16 90z" />
    <glyph glyph-name="Tbar" unicode="&#x166;" horiz-adv-x="545" 
d="M583 527h-172l-21 -115h105l-28 -158h-104l-45 -254h-179l45 254h-107l28 158h106l21 115h-173l30 173h525z" />
    <glyph glyph-name="tbar" unicode="&#x167;" horiz-adv-x="394" 
d="M377 355h-104l-7 -41h72l-21 -120h-72q-5 -32 17 -40t79 -4l-26 -150q-141 -19 -199 28.5t-38 163.5v2h-50l21 120h50l8 41h-76l26 145h75l16 90l175 50l-25 -140h105z" />
    <glyph glyph-name="Umacron" unicode="&#x16a;" horiz-adv-x="645" 
d="M257 754l22 130h310l-23 -130h-309zM290 -15q-128 0 -197.5 69t-50.5 176l83 470h179l-80 -453q-16 -88 83 -88q98 0 114 88l79 453h179l-83 -470q-21 -118 -104 -181.5t-202 -63.5z" />
    <glyph glyph-name="umacron" unicode="&#x16b;" 
d="M512 684l-23 -130h-309l22 130h310zM408 500h166l-88 -500h-166l9 51q-57 -65 -146 -65q-81 0 -124.5 56.5t-26.5 158.5l53 299h166l-49 -278q-6 -40 11 -59.5t51 -19.5q38 0 63.5 23t33.5 68v-1z" />
    <glyph glyph-name="Uring" unicode="&#x16e;" horiz-adv-x="645" 
d="M405 708q-61 0 -95 39t-24 96t54.5 93t106.5 36q61 0 95.5 -39.5t23.5 -96.5q-10 -57 -53.5 -92.5t-107.5 -35.5zM420 808q35 0 40 31q3 14 -4.5 23.5t-24.5 9.5q-15 0 -25.5 -9t-12.5 -23q-5 -32 27 -32zM290 -15q-128 0 -197.5 69t-50.5 176l83 470h179l-80 -453
q-16 -88 83 -88q98 0 114 88l79 453h179l-83 -470q-21 -118 -104 -181.5t-202 -63.5z" />
    <glyph glyph-name="uring" unicode="&#x16f;" 
d="M333 533q-61 0 -95 39t-24 96t54.5 93t106.5 36q61 0 95.5 -39.5t23.5 -96.5q-10 -57 -53.5 -92.5t-107.5 -35.5zM321 665q-5 -32 27 -32q35 0 40 31q3 14 -4.5 23.5t-24.5 9.5q-15 0 -25.5 -9t-12.5 -23zM408 500h166l-88 -500h-166l9 51q-57 -65 -146 -65
q-81 0 -124.5 56.5t-26.5 158.5l53 299h166l-49 -278q-6 -40 11 -59.5t51 -19.5q38 0 63.5 23t33.5 68v-1z" />
    <glyph glyph-name="Uhungarumlaut" unicode="&#x170;" horiz-adv-x="645" 
d="M211 745h157l113 150h-164zM403 745h158l122 150h-163zM290 -15q-128 0 -197.5 69t-50.5 176l83 470h179l-80 -453q-16 -88 83 -88q98 0 114 88l79 453h179l-83 -470q-21 -118 -104 -181.5t-202 -63.5z" />
    <glyph glyph-name="uhungarumlaut" unicode="&#x171;" 
d="M404 695l-113 -150h-157l106 150h164zM484 545h-158l117 150h163zM361 233l47 267h166l-88 -500h-166l9 51q-57 -65 -146 -65q-81 0 -124.5 56.5t-26.5 158.5l53 299h166l-49 -278q-6 -40 11 -59.5t51 -19.5q38 0 63.5 23t33.5 68v-1z" />
    <glyph glyph-name="Uogonek" unicode="&#x172;" horiz-adv-x="645" 
d="M500 700h179l-83 -470q-23 -127 -118 -192q-100 -77 -110 -116q-6 -22 17 -23q6 -1 23 3l-18 -99q-45 -17 -85 -17q-52 0 -77.5 28t-17.5 73q11 56 64 98q-121 5 -185.5 73.5t-46.5 171.5l83 470h179l-80 -453q-16 -88 83 -88q98 0 114 88z" />
    <glyph glyph-name="uogonek" unicode="&#x173;" 
d="M408 500h166l-88 -500h-2q-54 -49 -57 -82q-3 -19 18 -19q10 0 22 3l-18 -99q-38 -17 -81 -17q-49 0 -78 24.5t-21 70.5q11 58 82 119h-31l9 51q-57 -65 -146 -65q-81 0 -124.5 56.5t-26.5 158.5l53 299h166l-49 -278q-6 -40 11 -59.5t51 -19.5q38 0 63.5 23t33.5 68v-1z
" />
    <glyph glyph-name="Wcircumflex" unicode="&#x174;" horiz-adv-x="1004" 
d="M595 801l-50 -56h-151l133 155h167l79 -155h-149zM881 700h196l-318 -700h-189l-43 395l-181 -395h-189l-73 700h181l35 -441l202 441h143l48 -441z" />
    <glyph glyph-name="wcircumflex" unicode="&#x175;" horiz-adv-x="790" 
d="M456 601l-50 -56h-151l133 155h167l79 -155h-149zM647 500h181l-241 -500h-162l-27 251l-109 -251h-170l-65 500h166l23 -272l118 272h145l29 -267z" />
    <glyph glyph-name="Ycircumflex" unicode="&#x176;" horiz-adv-x="631" 
d="M409 801l-50 -56h-151l133 155h167l79 -155h-149zM710 700l-295 -395l-54 -305h-179l54 305l-157 395h190l75 -225l154 225h212z" />
    <glyph glyph-name="ycircumflex" unicode="&#x177;" horiz-adv-x="549" 
d="M322 601l-50 -56h-151l133 155h167l79 -155h-149zM402 500h191l-254 -485q-65 -125 -148 -174.5t-194 -40.5l28 156q54 0 81 13.5t50 50.5l-112 480h176l52 -289z" />
    <glyph glyph-name="Ydieresis" unicode="&#x178;" horiz-adv-x="631" 
d="M303 735q-33 0 -52 23.5t-14 56.5t33 56.5t61 23.5q32 0 51.5 -23.5t13.5 -56.5q-5 -33 -32.5 -56.5t-60.5 -23.5zM497 735q-32 0 -51.5 23.5t-13.5 56.5q5 33 32.5 56.5t60.5 23.5t52 -23.5t14 -56.5t-33 -56.5t-61 -23.5zM710 700l-295 -395l-54 -305h-179l54 305
l-157 395h190l75 -225l154 225h212z" />
    <glyph glyph-name="Zacute" unicode="&#x179;" horiz-adv-x="542" 
d="M576 900l-136 -145h-163l101 145h198zM591 700l-23 -138l-312 -389h250l-30 -173h-487l24 138l313 389h-240l31 173h474z" />
    <glyph glyph-name="zacute" unicode="&#x17a;" horiz-adv-x="455" 
d="M493 700l-136 -145h-163l101 145h198zM52 346l27 154h390l-20 -114l-212 -232h181l-27 -154h-410l21 114l211 232h-161z" />
    <glyph glyph-name="Zdotaccent" unicode="&#x17b;" horiz-adv-x="542" 
d="M365 743q-37 0 -59 26.5t-15 62.5q7 37 37.5 63.5t67.5 26.5t59 -26.5t16 -63.5q-8 -36 -39 -62.5t-67 -26.5zM591 700l-23 -138l-312 -389h250l-30 -173h-487l24 138l313 389h-240l31 173h474z" />
    <glyph glyph-name="zdotaccent" unicode="&#x17c;" horiz-adv-x="455" 
d="M282 543q-37 0 -59 26.5t-15 62.5q7 37 37.5 63.5t67.5 26.5t59 -26.5t16 -63.5q-8 -36 -39 -62.5t-67 -26.5zM469 500l-20 -114l-212 -232h181l-27 -154h-410l21 114l211 232h-161l27 154h390z" />
    <glyph glyph-name="Zcaron" unicode="&#x17d;" horiz-adv-x="542" 
d="M277 745l-79 155h145l30 -56l49 56h155l-133 -155h-167zM591 700l-23 -138l-312 -389h250l-30 -173h-487l24 138l313 389h-240l31 173h474z" />
    <glyph glyph-name="zcaron" unicode="&#x17e;" horiz-adv-x="455" 
d="M194 545l-79 155h145l30 -56l49 56h155l-133 -155h-167zM52 346l27 154h390l-20 -114l-212 -232h181l-27 -154h-410l21 114l211 232h-161z" />
    <glyph glyph-name="florin" unicode="&#x192;" horiz-adv-x="461" 
d="M240 537q27 80 75.5 124.5t105 51t120.5 -6.5l-29 -164q-25 16 -60 2.5t-49 -54.5l-20 -59h74l-28 -159h-102l-105 -303q-27 -80 -75.5 -124.5t-105 -51t-120.5 6.5l29 164q25 -16 60 -2.5t49 54.5l89 256h-69l29 159h95z" />
    <glyph glyph-name="Scommaaccent" unicode="&#x218;" horiz-adv-x="588" 
d="M269 -15q-112 0 -181 46.5t-91 127.5l159 82q28 -87 128 -87q82 0 91 48q6 33 -46 55q-8 4 -73 26q-92 31 -139 84t-31 145q17 96 91.5 149.5t176.5 53.5q88 0 151.5 -41.5t93.5 -118.5l-153 -82q-33 73 -106 73q-63 0 -72 -45q-6 -25 18 -41.5t90 -39.5q46 -16 75 -30
t60.5 -40.5t42.5 -67t2 -95.5q-18 -99 -94 -150.5t-193 -51.5zM265 -277l73 220h-154l-48 -220h129z" />
    <glyph glyph-name="scommaaccent" unicode="&#x219;" horiz-adv-x="473" 
d="M210 -14q-166 0 -220 123l146 71q22 -57 83 -57q44 0 48 24q3 15 -21.5 25.5t-60 20.5t-69.5 26.5t-53.5 53t-10.5 90.5q13 75 76 113t139 38q69 0 121.5 -28.5t76.5 -82.5l-141 -68q-18 45 -62 46q-38 2 -44 -27q-3 -16 14 -26.5t44 -15.5t58 -16.5t56.5 -27.5t38 -50.5
t4.5 -82.5q-14 -77 -76 -113t-147 -36zM207 -277l73 220h-154l-48 -220h129z" />
    <glyph glyph-name="uni021A" unicode="&#x21a;" horiz-adv-x="545" 
d="M614 700l-31 -173h-172l-93 -527h-179l93 527h-173l30 173h525zM95 -277l48 220h154l-73 -220h-129z" />
    <glyph glyph-name="uni021B" unicode="&#x21b;" horiz-adv-x="394" 
d="M270 341l-25 -145q-6 -34 16 -42t80 -4l-26 -150q-141 -19 -199 28.5t-38 163.5l26 149h-75l28 159h75l16 90l175 50l-25 -140h105l-29 -159h-104zM54 -272l48 220h154l-73 -220h-129z" />
    <glyph glyph-name="circumflex" unicode="&#x2c6;" horiz-adv-x="419" 
d="M451 545h-149l-29 56l-50 -56h-151l133 155h167z" />
    <glyph glyph-name="caron" unicode="&#x2c7;" horiz-adv-x="419" 
d="M323 700h155l-133 -155h-167l-79 155h145l30 -56z" />
    <glyph glyph-name="breve" unicode="&#x2d8;" horiz-adv-x="399" 
d="M259 537q-85 0 -129.5 44t-30.5 116h140q-8 -44 32 -44q39 0 47 44h140q-25 -160 -199 -160z" />
    <glyph glyph-name="dotaccent" unicode="&#x2d9;" horiz-adv-x="199" 
d="M161 543q-37 0 -59 26.5t-15 62.5q7 37 37.5 63.5t67.5 26.5t59 -26.5t16 -63.5q-8 -36 -39 -62.5t-67 -26.5z" />
    <glyph glyph-name="ring" unicode="&#x2da;" horiz-adv-x="321" 
d="M210 533q-61 0 -95 39t-24 96t54.5 93t106.5 36q61 0 95.5 -39.5t23.5 -96.5q-10 -57 -53.5 -92.5t-107.5 -35.5zM225 633q35 0 40 31q3 14 -4.5 23.5t-24.5 9.5q-15 0 -25.5 -9t-12.5 -23q-5 -32 27 -32z" />
    <glyph glyph-name="ogonek" unicode="&#x2db;" horiz-adv-x="233" 
d="M43 -214q-46 0 -71.5 23t-17.5 68q11 58 84 123h131q-52 -48 -57 -78q-5 -23 17 -23q6 -1 23 3l-18 -99q-45 -17 -91 -17z" />
    <glyph glyph-name="tilde" unicode="&#x2dc;" horiz-adv-x="398" 
d="M79 548q6 60 28 99t53 52.5t64 11.5t63 -20q17 -10 26.5 -13.5t18 4t12.5 28.5h122q-6 -60 -29 -99t-53.5 -52.5t-63.5 -11t-63 20.5q-21 16 -36.5 13.5t-20.5 -33.5h-121z" />
    <glyph glyph-name="hungarumlaut" unicode="&#x2dd;" horiz-adv-x="486" 
d="M72 545h157l113 150h-164zM264 545h158l122 150h-163z" />
    <glyph glyph-name="gravecomb" unicode="&#x300;" horiz-adv-x="0" 
d="M34 555l-61 145h-188l95 -145h154z" />
    <glyph glyph-name="acutecomb" unicode="&#x301;" horiz-adv-x="0" 
d="M-226 555h163l136 145h-198z" />
    <glyph glyph-name="uni0302" unicode="&#x302;" horiz-adv-x="0" 
d="M32 545h-149l-29 56l-50 -56h-151l133 155h167z" />
    <glyph glyph-name="tildecomb" unicode="&#x303;" horiz-adv-x="0" 
d="M-326 548q6 60 28 99t53 52.5t64 11.5t63 -20q17 -10 26.5 -13.5t18 4t12.5 28.5h122q-6 -60 -29 -99t-53.5 -52.5t-63.5 -11t-63 20.5q-21 16 -36.5 13.5t-20.5 -33.5h-121z" />
    <glyph glyph-name="uni0304" unicode="&#x304;" horiz-adv-x="0" 
d="M-275 554l22 130h310l-23 -130h-309z" />
    <glyph glyph-name="uni0306" unicode="&#x306;" horiz-adv-x="0" 
d="M-145 537q-85 0 -129.5 44t-30.5 116h140q-8 -44 32 -44q39 0 47 44h140q-25 -160 -199 -160z" />
    <glyph glyph-name="uni0307" unicode="&#x307;" horiz-adv-x="0" 
d="M-58 543q-37 0 -59 26.5t-15 62.5q7 37 37.5 63.5t67.5 26.5t59 -26.5t16 -63.5q-8 -36 -39 -62.5t-67 -26.5z" />
    <glyph glyph-name="uni0308" unicode="&#x308;" horiz-adv-x="0" 
d="M-244 535q-33 0 -52 23.5t-14 56.5t33 56.5t61 23.5q32 0 51.5 -23.5t13.5 -56.5q-5 -33 -32.5 -56.5t-60.5 -23.5zM-50 535q-32 0 -51.5 23.5t-13.5 56.5q5 33 32.5 56.5t60.5 23.5t52 -23.5t14 -56.5t-33 -56.5t-61 -23.5z" />
    <glyph glyph-name="uni030A" unicode="&#x30a;" horiz-adv-x="0" 
d="M-108 533q-61 0 -95 39t-24 96t54.5 93t106.5 36q61 0 95.5 -39.5t23.5 -96.5q-10 -57 -53.5 -92.5t-107.5 -35.5zM-93 633q35 0 40 31q3 14 -4.5 23.5t-24.5 9.5q-15 0 -25.5 -9t-12.5 -23q-5 -32 27 -32z" />
    <glyph glyph-name="uni030B" unicode="&#x30b;" horiz-adv-x="0" 
d="M-414 545h157l113 150h-164zM-222 545h158l122 150h-163z" />
    <glyph glyph-name="uni030C" unicode="&#x30c;" horiz-adv-x="0" 
d="M-96 700h155l-133 -155h-167l-79 155h145l30 -56z" />
    <glyph glyph-name="uni0312" unicode="&#x312;" horiz-adv-x="0" 
d="M-19 985l-74 -220h154l49 220h-129z" />
    <glyph glyph-name="uni0326" unicode="&#x326;" horiz-adv-x="0" 
d="M-148 -277l73 220h-154l-48 -220h129z" />
    <glyph glyph-name="uni0327" unicode="&#x327;" horiz-adv-x="0" 
d="M-131 -46q54 -25 43 -86q-19 -105 -250 -89l19 109q93 -7 98 14q3 17 -50 20l14 78h134z" />
    <glyph glyph-name="uni0328" unicode="&#x328;" horiz-adv-x="0" 
d="M-195 -214q-46 0 -71.5 23t-17.5 68q11 58 84 123h131q-52 -48 -57 -78q-5 -23 17 -23q6 -1 23 3l-18 -99q-45 -17 -91 -17z" />
    <glyph glyph-name="uni0394" unicode="&#x394;" horiz-adv-x="660" 
d="M516 700l105 -700h-670l351 700h214zM224 155h194l-36 342z" />
    <glyph glyph-name="uni03A9" unicode="&#x3a9;" horiz-adv-x="775" 
d="M774 365q-21 -117 -112 -197h63l-29 -168h-281l12 71l12 66l5 31l1 5q57 20 97 67t51 110q14 83 -30 136.5t-125 53.5t-143.5 -53.5t-76.5 -136.5q-11 -63 12 -110t72 -67l-6 -36l-24 -137h-281l29 168h73q-72 86 -51 207q27 150 146.5 245t275.5 95q100 0 177 -45
t114 -126t19 -179z" />
    <glyph glyph-name="pi" unicode="&#x3c0;" horiz-adv-x="661" 
d="M689 500l-27 -157h-75l-60 -343h-166l60 343h-147l-60 -343h-166l60 343h-76l27 157h630z" />
    <glyph glyph-name="uni0401" unicode="&#x401;" horiz-adv-x="535" 
d="M266 735q-33 0 -52 23.5t-14 56.5t33 56.5t61 23.5q32 0 51.5 -23.5t13.5 -56.5q-5 -33 -32.5 -56.5t-60.5 -23.5zM460 735q-32 0 -51.5 23.5t-13.5 56.5q5 33 32.5 56.5t60.5 23.5t52 -23.5t14 -56.5t-33 -56.5t-61 -23.5zM549 533h-265l-18 -98h242l-30 -164h-240
l-18 -103h270l-29 -168h-450l123 700h445z" />
    <glyph glyph-name="uni0402" unicode="&#x402;" horiz-adv-x="695" 
d="M502 450q93 0 136.5 -52.5t26.5 -143.5l-9 -52q-22 -125 -84 -173.5t-188 -41.5l28 159q33 -2 48 11t20 45l5 31q5 31 -8.5 44t-43.5 13q-35 0 -77 -15l-48 -275h-179l93 527h-163l30 173h525l-31 -173h-182l-17 -93q59 16 118 16z" />
    <glyph glyph-name="uni0403" unicode="&#x403;" horiz-adv-x="475" 
d="M555 899l-136 -145h-163l101 145h198zM134 700h414l-30 -173h-235l-93 -527h-179z" />
    <glyph glyph-name="uni0404" unicode="&#x404;" horiz-adv-x="722" 
d="M371 157q102 0 164 87l147 -95q-56 -78 -140.5 -121t-182.5 -43q-161 0 -249.5 108t-62.5 267q25 155 141.5 255t271.5 100q103 0 176 -44.5t110 -122.5l-164 -87q-36 82 -139 82q-61 0 -111.5 -29.5t-79.5 -81.5h251l-30 -164h-249q11 -51 49 -81t98 -30z" />
    <glyph glyph-name="uni0405" unicode="&#x405;" horiz-adv-x="588" 
d="M269 -15q-112 0 -181 46.5t-91 127.5l159 82q28 -87 128 -87q82 0 91 48q6 33 -46 55q-8 4 -73 26q-92 31 -139 84t-31 145q17 96 91.5 149.5t176.5 53.5q88 0 151.5 -41.5t93.5 -118.5l-153 -82q-33 73 -106 73q-63 0 -72 -45q-6 -25 18 -41.5t90 -39.5q46 -16 75 -30
t60.5 -40.5t42.5 -67t2 -95.5q-18 -99 -94 -150.5t-193 -51.5z" />
    <glyph glyph-name="uni0406" unicode="&#x406;" horiz-adv-x="289" 
d="M134 700h179l-123 -700h-179z" />
    <glyph glyph-name="uni0407" unicode="&#x407;" horiz-adv-x="289" 
d="M133 735q-33 0 -52 23.5t-14 56.5t33 56.5t61 23.5q32 0 51.5 -23.5t13.5 -56.5q-5 -33 -32.5 -56.5t-60.5 -23.5zM327 735q-32 0 -51.5 23.5t-13.5 56.5q5 33 32.5 56.5t60.5 23.5t52 -23.5t14 -56.5t-33 -56.5t-61 -23.5zM134 700h179l-123 -700h-179z" />
    <glyph glyph-name="uni0408" unicode="&#x408;" horiz-adv-x="569" 
d="M234 -15q-174 0 -230 145l162 87q10 -31 29 -44.5t52 -13.5q82 0 94 71l83 470h179l-84 -473q-21 -122 -94.5 -182t-190.5 -60z" />
    <glyph glyph-name="uni0409" unicode="&#x409;" horiz-adv-x="938" 
d="M711 464q98 0 161.5 -69t45.5 -173q-18 -105 -97.5 -163.5t-191.5 -58.5h-252l93 527h-131l-44 -254q-13 -75 -39 -129.5t-59 -83t-73 -46t-80.5 -18t-82.5 1.5l29 167q55 -6 84.5 18t42.5 98l74 419h488l-41 -236h73zM740 232q11 62 -59 62h-73l-22 -124h73q70 0 81 62z
" />
    <glyph glyph-name="uni040A" unicode="&#x40a;" horiz-adv-x="943" 
d="M716 465q98 0 161.5 -69.5t45.5 -173.5q-18 -105 -97.5 -163.5t-191.5 -58.5h-252l52 294h-192l-52 -294h-179l123 700h179l-41 -235h192l41 235h179l-41 -235h73zM745 232q11 62 -58 62h-74l-22 -123h73q70 0 81 61z" />
    <glyph glyph-name="uni040B" unicode="&#x40b;" horiz-adv-x="700" 
d="M500 455q91 0 134.5 -51.5t30.5 -144.5l-44 -259h-177l41 237q6 33 -8.5 45.5t-47.5 12.5q-36 0 -71 -13l-50 -282h-179l93 527h-163l30 173h525l-31 -173h-182l-16 -89q59 17 115 17z" />
    <glyph glyph-name="uni040C" unicode="&#x40c;" horiz-adv-x="631" 
d="M614 899l-136 -145h-163l101 145h198zM711 700l-298 -348l178 -352h-185l-160 319l-56 -319h-179l123 700h179l-50 -284l239 284h209z" />
    <glyph glyph-name="uni040E" unicode="&#x40e;" horiz-adv-x="629" 
d="M591 893l-24 -140h-323l24 140h323zM511 700h191l-280 -489q-67 -118 -151 -165.5t-201 -45.5l29 167q89 -4 146 58l-151 475h176l86 -287z" />
    <glyph glyph-name="uni040F" unicode="&#x40f;" horiz-adv-x="650" 
d="M495 700h179l-123 -700h-181l-24 -134h-178l24 134h-181l123 700h179l-93 -527h182z" />
    <glyph glyph-name="uni0410" unicode="&#x410;" horiz-adv-x="671" 
d="M440 0l-11 101h-233l-48 -101h-197l354 700h218l108 -700h-191zM270 255h142l-26 242z" />
    <glyph glyph-name="uni0411" unicode="&#x411;" horiz-adv-x="592" 
d="M378 442q100 0 156 -65.5t39 -164.5q-18 -101 -88.5 -156.5t-184.5 -55.5h-289l123 700h464l-30 -173h-285l-15 -85h110zM396 222q5 29 -9.5 44t-43.5 15h-104l-20 -117h103q29 0 49 14.5t25 43.5z" />
    <glyph glyph-name="uni0412" unicode="&#x412;" horiz-adv-x="602" 
d="M605 494q-16 -90 -90 -137q74 -56 60 -159q-12 -89 -83.5 -143.5t-190.5 -54.5h-290l123 700h266q104 0 162 -58t43 -148zM374 540h-89l-19 -110h88q27 0 46.5 14.5t23.5 40.5q4 25 -9.5 40t-40.5 15zM400 219q5 27 -8.5 43t-43.5 16h-109l-21 -118h108q29 0 49 16.5
t25 42.5z" />
    <glyph glyph-name="uni0413" unicode="&#x413;" horiz-adv-x="475" 
d="M548 700l-30 -173h-235l-93 -527h-179l123 700h414z" />
    <glyph glyph-name="uni0414" unicode="&#x414;" horiz-adv-x="712" 
d="M698 700l-93 -527h76l-55 -307h-178l23 134h-326l-24 -134h-178l54 307h73q61 75 88 222l53 305h487zM262 173h165l64 361h-130l-25 -141q-26 -142 -74 -220z" />
    <glyph glyph-name="uni0415" unicode="&#x415;" horiz-adv-x="535" 
d="M549 533h-265l-18 -98h242l-30 -164h-240l-18 -103h270l-29 -168h-450l123 700h445z" />
    <glyph glyph-name="uni0416" unicode="&#x416;" horiz-adv-x="927" 
d="M998 700l-269 -358l144 -342h-187l-121 312l-55 -312h-179l53 304l-222 -304h-201l277 364l-145 336h187l120 -305l54 305h179l-54 -305l215 305h204z" />
    <glyph glyph-name="uni0417" unicode="&#x417;" horiz-adv-x="560" 
d="M563 495q-16 -95 -97 -142q85 -58 66 -166q-17 -96 -93.5 -149t-199.5 -53q-195 0 -248 164l159 84q24 -79 111 -79q84 0 96 62q9 54 -57 60l-106 1l27 155h70q81 0 91 58q4 28 -12.5 43t-51.5 15q-67 0 -107 -74l-144 93q43 69 114.5 108.5t163.5 39.5q106 0 170.5 -63
t47.5 -157z" />
    <glyph glyph-name="uni0418" unicode="&#x418;" horiz-adv-x="675" 
d="M11 0l123 700h179l-60 -341l307 341h138l-123 -700h-178l60 341l-307 -341h-139z" />
    <glyph glyph-name="uni0419" unicode="&#x419;" horiz-adv-x="675" 
d="M252 754l24 140h323l-24 -140h-323zM11 0l123 700h179l-60 -341l307 341h138l-123 -700h-178l60 341l-307 -341h-139z" />
    <glyph glyph-name="uni041A" unicode="&#x41a;" horiz-adv-x="631" 
d="M711 700l-298 -348l178 -352h-185l-160 319l-56 -319h-179l123 700h179l-50 -284l239 284h209z" />
    <glyph glyph-name="uni041B" unicode="&#x41b;" horiz-adv-x="665" 
d="M-39 -2l29 167q55 -6 84.5 18t42.5 98l74 419h498l-123 -700h-179l93 527h-141l-44 -254q-13 -74 -38.5 -128t-58 -83t-72 -46.5t-81 -18.5t-84.5 1z" />
    <glyph glyph-name="uni041C" unicode="&#x41c;" horiz-adv-x="825" 
d="M848 700l-123 -700h-178l66 378l-219 -282h-18l-119 287l-67 -383h-179l123 700h179l114 -302l231 302h190z" />
    <glyph glyph-name="uni041D" unicode="&#x41d;" horiz-adv-x="665" 
d="M510 700h178l-123 -700h-178l47 269h-197l-47 -269h-179l123 700h179l-46 -259h197z" />
    <glyph glyph-name="uni041E" unicode="&#x41e;" horiz-adv-x="790" 
d="M360 -15q-106 0 -185 53t-112 139t-16 184q26 150 141 252t279 102q159 0 247.5 -111.5t63.5 -262.5q-26 -152 -139.5 -254t-278.5 -102zM376 160q81 0 145.5 53.5t78.5 136.5q15 83 -29 136.5t-125 53.5t-143.5 -53.5t-77.5 -136.5q-15 -84 27.5 -137t123.5 -53z" />
    <glyph glyph-name="uni041F" unicode="&#x41f;" horiz-adv-x="650" 
d="M674 700l-123 -700h-179l93 527h-182l-93 -527h-179l123 700h540z" />
    <glyph glyph-name="uni0420" unicode="&#x420;" horiz-adv-x="592" 
d="M398 700q105 0 167 -71.5t46 -183.5q-15 -106 -92.5 -170.5t-199.5 -64.5h-92l-37 -210h-179l123 700h264zM433 455q7 34 -11 54t-54 20h-85l-26 -149h87q35 0 59 20.5t30 54.5z" />
    <glyph glyph-name="uni0421" unicode="&#x421;" horiz-adv-x="722" 
d="M359 -15q-161 0 -249.5 108t-62.5 267q25 155 141.5 255t271.5 100q103 0 175.5 -44.5t110.5 -122.5l-164 -87q-40 79 -139 79q-82 0 -142.5 -52.5t-75.5 -137.5q-14 -83 26 -136.5t120 -53.5q101 0 164 84l147 -95q-56 -78 -140.5 -121t-182.5 -43z" />
    <glyph glyph-name="uni0422" unicode="&#x422;" horiz-adv-x="545" 
d="M614 700l-31 -173h-172l-93 -527h-179l93 527h-173l30 173h525z" />
    <glyph glyph-name="uni0423" unicode="&#x423;" horiz-adv-x="629" 
d="M511 700h191l-280 -489q-67 -118 -151 -165.5t-201 -45.5l29 167q89 -4 146 58l-151 475h176l86 -287z" />
    <glyph glyph-name="uni0424" unicode="&#x424;" horiz-adv-x="833" 
d="M571 636q138 -21 208 -100.5t50 -195.5q-21 -119 -114.5 -191t-244.5 -87l-15 -82h-172l15 84q-139 20 -209.5 100t-49.5 196q21 120 114.5 191.5t246.5 86.5l14 82h172zM217 350q-20 -104 110 -123l44 249q-135 -20 -154 -126zM652 350q9 54 -17 85t-92 41l-44 -249
q134 20 153 123z" />
    <glyph glyph-name="uni0425" unicode="&#x425;" horiz-adv-x="632" 
d="M698 700l-264 -350l148 -350h-193l-79 186l-141 -186h-208l274 363l-143 337h194l73 -173l131 173h208z" />
    <glyph glyph-name="uni0426" unicode="&#x426;" horiz-adv-x="702" 
d="M590 173h80l-54 -307h-179l24 134h-450l123 700h184l-93 -527h182l93 527h183z" />
    <glyph glyph-name="uni0427" unicode="&#x427;" horiz-adv-x="647" 
d="M492 700h178l-123 -700h-178l39 223q-47 -10 -95 -10q-131 0 -192.5 64t-41.5 178l43 245h178l-40 -231q-8 -46 13 -64.5t73 -19.5q44 0 93 13z" />
    <glyph glyph-name="uni0428" unicode="&#x428;" horiz-adv-x="949" 
d="M794 700h179l-123 -700h-839l123 700h179l-93 -527h152l92 527h179l-93 -527h152z" />
    <glyph glyph-name="uni0429" unicode="&#x429;" horiz-adv-x="992" 
d="M880 173h80l-54 -307h-179l24 134h-740l123 700h179l-93 -527h152l92 527h179l-93 -527h152l92 527h179z" />
    <glyph glyph-name="uni042A" unicode="&#x42a;" horiz-adv-x="697" 
d="M116 0l93 527h-160l30 173h339l-37 -210h92q99 0 161.5 -74.5t44.5 -180.5q-20 -110 -97 -172.5t-195 -62.5h-271zM324 171h93q31 0 54.5 20.5t29.5 53.5t-11 54t-47 21h-92z" />
    <glyph glyph-name="uni042B" unicode="&#x42b;" horiz-adv-x="869" 
d="M11 0l123 700h179l-37 -210h93q99 0 161 -74.5t44 -180.5q-20 -110 -97 -172.5t-195 -62.5h-271zM591 0l123 700h178l-123 -700h-178zM220 171h92q32 0 55.5 20.5t28.5 53.5q6 33 -10.5 54t-47.5 21h-92z" />
    <glyph glyph-name="uni042C" unicode="&#x42c;" horiz-adv-x="592" 
d="M369 490q99 0 161 -74.5t44 -180.5q-20 -110 -97 -172.5t-195 -62.5h-271l123 700h179l-37 -210h93zM396 245q6 33 -10.5 54t-47.5 21h-92l-26 -149h92q32 0 55.5 20.5t28.5 53.5z" />
    <glyph glyph-name="uni042D" unicode="&#x42d;" horiz-adv-x="720" 
d="M398 715q158 0 247 -108t64 -267q-25 -153 -137 -254t-272 -101q-101 0 -177 44.5t-113 122.5l162 86q40 -81 144 -81q61 0 110 29.5t78 81.5h-251l30 164h251q-11 52 -49.5 81.5t-98.5 29.5q-106 0 -167 -85l-143 92q54 77 139 121t183 44z" />
    <glyph glyph-name="uni042E" unicode="&#x42e;" horiz-adv-x="1068" 
d="M748 715q107 0 184.5 -53t109 -138.5t14.5 -183.5q-26 -150 -142 -252.5t-281 -102.5q-130 0 -215 82t-91 207h-89l-48 -274h-179l123 700h179l-45 -254h89q48 121 153.5 195t237.5 74zM879 350q14 83 -30 136.5t-125 53.5t-143.5 -53.5t-77.5 -136.5q-15 -84 27.5 -137
t123.5 -53t145.5 53.5t79.5 136.5z" />
    <glyph glyph-name="uni042F" unicode="&#x42f;" horiz-adv-x="627" 
d="M651 700l-123 -700h-179l40 226h-29l-176 -226h-210l204 252q-61 32 -86 93t-12 130q19 94 96.5 159.5t197.5 65.5h277zM255 456q-6 -34 13.5 -56.5t53.5 -22.5h94l28 158h-95q-35 0 -61 -22t-33 -57z" />
    <glyph glyph-name="uni0430" unicode="&#x430;" horiz-adv-x="615" 
d="M445 500h166l-88 -500h-166l7 39q-58 -53 -146 -53q-107 0 -158.5 81t-33.5 190q17 106 90 181.5t181 75.5q96 0 138 -69zM277 141q47 0 81 29t43 77v3q8 49 -15 79t-71 30q-47 0 -81 -30t-42 -79t15 -79t70 -30z" />
    <glyph glyph-name="uni0431" unicode="&#x431;" horiz-adv-x="570" 
d="M263 -15q-124 0 -189.5 79t-44.5 202q23 128 73.5 200.5t162.5 122.5q15 7 43 19.5t38 17t30.5 14t28 14.5l21 14t20 16.5t15 17t15.5 21.5l125 -78q-26 -57 -73 -91t-135 -66q-70 -25 -102.5 -45t-50.5 -48q59 43 134 43q80 0 137 -65t40 -164q-17 -102 -94.5 -163
t-193.5 -61zM276 129q41 0 72 25.5t37 63.5q7 39 -16 64.5t-64 25.5q-39 0 -71.5 -23.5t-38.5 -63.5q-7 -40 16 -66t65 -26z" />
    <glyph glyph-name="uni0432" unicode="&#x432;" horiz-adv-x="519" 
d="M501 348q-12 -68 -69 -97q62 -40 50 -115q-24 -136 -199 -136h-279l88 500h262q77 0 117.5 -43.5t29.5 -108.5zM307 376h-78l-11 -66h77q41 0 45 32q7 34 -33 34zM321 161q6 33 -33 33h-91l-12 -68h90q40 0 46 35z" />
    <glyph glyph-name="uni0433" unicode="&#x433;" horiz-adv-x="407" 
d="M451 500l-27 -159h-194l-60 -341h-166l60 341l28 159h359z" />
    <glyph glyph-name="uni0434" unicode="&#x434;" horiz-adv-x="600" 
d="M504 157h64l-51 -291h-160l24 134h-260l-24 -134h-160l52 291h59q50 63 68 170l31 173h417zM223 157h119l34 195h-94l-4 -25q-20 -108 -55 -170z" />
    <glyph glyph-name="uni0435" unicode="&#x435;" horiz-adv-x="568" 
d="M324 514q113 0 177 -76.5t44 -186.5q-4 -30 -17 -62h-343q14 -61 96 -61q60 0 99 36l106 -97q-87 -81 -218 -81q-130 0 -195.5 79t-46.5 195q18 110 102 182t196 72zM205 305h189q-5 69 -79 69t-110 -69z" />
    <glyph glyph-name="uni0436" unicode="&#x436;" horiz-adv-x="779" 
d="M815 500l-199 -258l110 -242h-170l-91 214l-38 -214h-164l36 206l-159 -206h-179l203 261l-101 239h168l84 -205l36 205h164l-37 -210l153 210h184z" />
    <glyph glyph-name="uni0437" unicode="&#x437;" horiz-adv-x="456" 
d="M439 356q-14 -73 -75 -105q67 -42 53 -124q-12 -66 -70.5 -104t-156.5 -38q-163 0 -206 120l138 71q18 -53 81 -53q49 0 55 34q2 15 -7.5 23t-29.5 8h-60l22 126h50q40 0 45 30q2 15 -8.5 24t-29.5 9q-50 0 -82 -53l-119 76q85 114 225 114q85 0 135.5 -48t39.5 -110z
" />
    <glyph glyph-name="uni0438" unicode="&#x438;" horiz-adv-x="580" 
d="M448 500h128l-88 -500h-162l40 227l-234 -227h-128l88 500h162l-40 -227z" />
    <glyph glyph-name="uni0439" unicode="&#x439;" horiz-adv-x="580" 
d="M182 554l24 140h323l-24 -140h-323zM448 500h128l-88 -500h-162l40 227l-234 -227h-128l88 500h162l-40 -227z" />
    <glyph glyph-name="uni043A" unicode="&#x43a;" horiz-adv-x="537" 
d="M573 500l-209 -250l129 -250h-181l-104 216l-38 -216h-166l88 500h166l-36 -204l163 204h188z" />
    <glyph glyph-name="uni043B" unicode="&#x43b;" horiz-adv-x="562" 
d="M558 500l-88 -500h-166l60 341h-100l-24 -134q-22 -125 -87 -173t-186 -34l26 154q69 -15 86 77l47 269h432z" />
    <glyph glyph-name="uni043C" unicode="&#x43c;" horiz-adv-x="648" 
d="M644 500l-88 -500h-160l42 241l-136 -166h-18l-77 166l-42 -241h-161l88 500h161l73 -183l145 183h173z" />
    <glyph glyph-name="uni043D" unicode="&#x43d;" horiz-adv-x="575" 
d="M405 500h166l-88 -500h-166l30 172h-147l-30 -172h-166l88 500h166l-30 -172h147z" />
    <glyph glyph-name="uni043E" unicode="&#x43e;" horiz-adv-x="583" 
d="M258 -14q-85 0 -143.5 42.5t-79.5 105.5t-8 132q20 104 100.5 176t201.5 72q120 0 183 -85.5t44 -192.5q-18 -102 -100 -176t-198 -74zM271 146q44 0 77 29t41 75t-14.5 75t-66.5 29q-43 0 -76 -29t-41 -75t14.5 -75t65.5 -29z" />
    <glyph glyph-name="uni043F" unicode="&#x43f;" horiz-adv-x="575" 
d="M571 500l-88 -500h-166l60 343h-147l-60 -343h-166l88 500h479z" />
    <glyph glyph-name="uni0440" unicode="&#x440;" horiz-adv-x="615" 
d="M393 514q103 0 158.5 -81.5t37.5 -192.5q-18 -108 -89.5 -181t-176.5 -73q-98 0 -143 71l-45 -257h-166l123 700h166l-7 -41q57 55 142 55zM423 250q9 50 -14 79.5t-70 29.5q-46 0 -80 -28.5t-44 -76.5l-2 -7q-7 -48 17 -77t70 -29q47 0 81 29.5t42 79.5z" />
    <glyph glyph-name="uni0441" unicode="&#x441;" horiz-adv-x="532" 
d="M260 -14q-120 0 -186 79t-48 195q18 111 102 182.5t196 71.5q79 0 133.5 -35.5t81.5 -95.5l-151 -79q-22 48 -78 48q-44 0 -77.5 -28t-40.5 -73q-8 -45 15.5 -74t65.5 -29q58 0 93 50l132 -84q-38 -63 -101 -95.5t-137 -32.5z" />
    <glyph glyph-name="uni0442" unicode="&#x442;" horiz-adv-x="470" 
d="M506 500l-27 -159h-144l-60 -341h-166l60 341h-145l28 159h454z" />
    <glyph glyph-name="uni0443" unicode="&#x443;" horiz-adv-x="549" 
d="M402 500h191l-254 -485q-65 -125 -148 -174.5t-194 -40.5l28 156q54 0 81 13.5t50 50.5l-112 480h176l52 -289z" />
    <glyph glyph-name="uni0444" unicode="&#x444;" horiz-adv-x="709" 
d="M480 505q113 -21 166.5 -94t36.5 -170q-18 -101 -93.5 -167.5t-200.5 -82.5l-33 -191h-162l34 194q-112 21 -165.5 94.5t-36.5 170.5q18 100 92.5 166.5t199.5 82.5l34 192h162zM519 250q14 78 -66 101l-36 -202q88 24 102 101zM189 250q-14 -76 66 -100l36 200
q-88 -23 -102 -100z" />
    <glyph glyph-name="uni0445" unicode="&#x445;" horiz-adv-x="549" 
d="M586 500l-220 -250l139 -250h-176l-71 127l-111 -127h-191l228 260l-133 240h176l65 -117l102 117h192z" />
    <glyph glyph-name="uni0446" unicode="&#x446;" horiz-adv-x="612" 
d="M496 157h85l-52 -291h-160l24 134h-389l88 500h166l-60 -343h131l61 343h166z" />
    <glyph glyph-name="uni0447" unicode="&#x447;" horiz-adv-x="543" 
d="M372 500h167l-88 -500h-167l24 138q-53 -11 -94 -11q-98 0 -145 54t-32 135l32 184h167l-28 -158q-11 -61 61 -61q28 0 66 11z" />
    <glyph glyph-name="uni0448" unicode="&#x448;" horiz-adv-x="835" 
d="M665 500h166l-88 -500h-739l88 500h166l-60 -343h122l60 343h164l-60 -343h121z" />
    <glyph glyph-name="uni0449" unicode="&#x449;" horiz-adv-x="862" 
d="M756 157h74l-52 -291h-159l24 134h-639l88 500h166l-60 -343h114l60 343h164l-60 -343h114l60 343h166z" />
    <glyph glyph-name="uni044A" unicode="&#x44a;" horiz-adv-x="583" 
d="M391 359q82 0 129 -54t33 -135q-31 -170 -226 -170h-248l60 341h-122l27 159h290l-25 -141h82zM393 180q3 18 -7 29t-30 11h-71l-15 -81h72q44 0 51 41z" />
    <glyph glyph-name="uni044B" unicode="&#x44b;" horiz-adv-x="747" 
d="M315 359q83 0 130 -54t33 -135q-31 -170 -226 -170h-248l88 500h166l-25 -141h82zM577 500h166l-88 -500h-166zM318 180q3 18 -7 29t-30 11h-72l-15 -81h72q20 0 34.5 11t17.5 30z" />
    <glyph glyph-name="uni044C" unicode="&#x44c;" horiz-adv-x="507" 
d="M315 359q83 0 130 -54t33 -135q-31 -170 -226 -170h-248l88 500h166l-25 -141h82zM318 180q3 18 -7 29t-30 11h-72l-15 -81h72q20 0 34.5 11t17.5 30z" />
    <glyph glyph-name="uni044D" unicode="&#x44d;" horiz-adv-x="532" 
d="M278 514q118 0 183 -80.5t45 -193.5q-21 -114 -101 -184t-200 -70q-73 0 -130.5 36t-82.5 94l142 75q21 -55 91 -55q60 0 100 46h-135l24 136h135q-22 46 -84 46q-69 0 -106 -57l-125 79q40 59 105 93.5t139 34.5z" />
    <glyph glyph-name="uni044E" unicode="&#x44e;" horiz-adv-x="807" 
d="M555 514q83 0 139.5 -41.5t77 -103.5t9.5 -131q-17 -103 -99 -177.5t-198 -74.5q-99 0 -157 52.5t-70 133.5h-57l-30 -172h-166l88 500h166l-30 -172h50q34 82 106 134t171 52zM616 250q8 46 -15 75t-67 29q-43 0 -76.5 -29t-41.5 -75q-7 -46 15.5 -75t66.5 -29
q43 0 77 29t41 75z" />
    <glyph glyph-name="uni044F" unicode="&#x44f;" horiz-adv-x="532" 
d="M528 500l-88 -500h-164l25 142h-21l-120 -142h-191l150 172q-39 26 -56 68.5t-10 87.5q11 72 69 122t153 50h253zM214 316q-2 -17 7.5 -29.5t31.5 -12.5h71l15 86h-71q-22 0 -36.5 -13t-17.5 -31z" />
    <glyph glyph-name="uni0451" unicode="&#x451;" horiz-adv-x="568" 
d="M248 542q-33 0 -52 23.5t-14 56.5t33 56.5t61 23.5q32 0 51.5 -23.5t13.5 -56.5q-5 -33 -32.5 -56.5t-60.5 -23.5zM442 542q-32 0 -51.5 23.5t-13.5 56.5q5 33 32.5 56.5t60.5 23.5t52 -23.5t14 -56.5t-33 -56.5t-61 -23.5zM324 514q113 0 177 -76.5t44 -186.5
q-4 -30 -17 -62h-343q14 -61 96 -61q60 0 99 36l106 -97q-87 -81 -218 -81q-130 0 -195.5 79t-46.5 195q18 110 102 182t196 72zM205 305h189q-5 69 -79 69t-110 -69z" />
    <glyph glyph-name="uni0452" unicode="&#x452;" horiz-adv-x="587" 
d="M402 502q81 0 125 -56.5t26 -158.5l-50 -287q-22 -124 -87 -173t-190 -42l27 154q73 -4 84 61l46 266q7 40 -10 60t-52 20q-73 0 -94 -78l-47 -268h-166l95 539h-58l19 106h57l10 55h166l-10 -55h136l-19 -106h-135l-18 -101q58 64 145 64z" />
    <glyph glyph-name="uni0453" unicode="&#x453;" horiz-adv-x="407" 
d="M470 700l-136 -145h-163l101 145h198zM92 500h359l-27 -159h-194l-60 -341h-166l60 341z" />
    <glyph glyph-name="uni0454" unicode="&#x454;" horiz-adv-x="532" 
d="M264 136q71 0 110 57l124 -79q-40 -59 -105 -93.5t-139 -34.5q-116 0 -182 80.5t-46 193.5t103 183.5t198 70.5q73 0 130.5 -36t82.5 -94l-142 -75q-21 55 -89 55q-59 0 -100 -46h133l-24 -136h-135q23 -46 81 -46z" />
    <glyph glyph-name="uni0455" unicode="&#x455;" horiz-adv-x="473" 
d="M210 -14q-166 0 -220 123l146 71q22 -57 83 -57q44 0 48 24q3 15 -21.5 25.5t-60 20.5t-69.5 26.5t-53.5 53t-10.5 90.5q13 75 76 113t139 38q69 0 121.5 -28.5t76.5 -82.5l-141 -68q-18 45 -62 46q-38 2 -44 -27q-3 -16 14 -26.5t44 -15.5t58 -16.5t56.5 -27.5t38 -50.5
t4.5 -82.5q-14 -77 -76 -113t-147 -36z" />
    <glyph glyph-name="uni0456" unicode="&#x456;" horiz-adv-x="262" 
d="M184 541q-39 0 -63 28.5t-17 67.5q6 38 38 66.5t73 28.5q40 0 63.5 -28t16.5 -67q-6 -40 -38 -68t-73 -28zM4 0l88 500h166l-88 -500h-166z" />
    <glyph glyph-name="uni0457" unicode="&#x457;" horiz-adv-x="262" 
d="M83 535q-33 0 -52 23.5t-14 56.5t33 56.5t61 23.5q32 0 51.5 -23.5t13.5 -56.5q-5 -33 -32.5 -56.5t-60.5 -23.5zM277 535q-32 0 -51.5 23.5t-13.5 56.5q5 33 32.5 56.5t60.5 23.5t52 -23.5t14 -56.5t-33 -56.5t-61 -23.5zM4 0l88 500h166l-88 -500h-166z" />
    <glyph glyph-name="uni0458" unicode="&#x458;" horiz-adv-x="277" 
d="M230 732q40 0 63.5 -28t16.5 -67q-6 -40 -38 -68t-73 -28q-39 0 -63 28.5t-17 67.5q6 38 38 66.5t73 28.5zM19 0l88 500h166l-88 -500q-21 -123 -87 -172.5t-190 -42.5l27 154q73 -4 84 61z" />
    <glyph glyph-name="uni0459" unicode="&#x459;" horiz-adv-x="782" 
d="M598 349q75 0 122 -52.5t32 -131.5q-15 -81 -71 -123t-144 -42h-241l60 341h-92l-24 -134q-22 -125 -87 -173t-186 -34l26 154q69 -15 86 77l47 269h425l-27 -151h74zM592 175q3 16 -5.5 25.5t-22.5 9.5h-64l-13 -71h64q14 0 26 9.5t15 26.5z" />
    <glyph glyph-name="uni045A" unicode="&#x45a;" horiz-adv-x="793" 
d="M609 349q75 0 122 -52.5t32 -131.5q-15 -81 -71.5 -123t-143.5 -42h-241l35 197h-137l-35 -197h-166l88 500h166l-27 -151h137l27 151h166l-27 -151h75zM603 175q3 16 -5.5 25.5t-23.5 9.5h-64l-13 -71h65q14 0 26 9.5t15 26.5z" />
    <glyph glyph-name="uni045B" unicode="&#x45b;" horiz-adv-x="587" 
d="M402 502q81 0 125 -56.5t26 -158.5l-50 -287h-166l46 266q7 40 -10 60t-52 20q-73 0 -94 -78l-47 -268h-166l95 539h-58l19 106h57l10 55h166l-10 -55h136l-19 -106h-135l-18 -101q58 64 145 64z" />
    <glyph glyph-name="uni045C" unicode="&#x45c;" horiz-adv-x="537" 
d="M530 700l-136 -145h-163l101 145h198zM573 500l-209 -250l129 -250h-181l-104 216l-38 -216h-166l88 500h166l-36 -204l163 204h188z" />
    <glyph glyph-name="uni045E" unicode="&#x45e;" horiz-adv-x="549" 
d="M502 694l-24 -140h-323l24 140h323zM402 500h191l-254 -485q-65 -125 -148 -174.5t-194 -40.5l28 156q54 0 81 13.5t50 50.5l-112 480h176l52 -289z" />
    <glyph glyph-name="uni045F" unicode="&#x45f;" horiz-adv-x="575" 
d="M405 500h166l-88 -500h-159l-24 -134h-160l24 134h-160l88 500h166l-60 -343h147z" />
    <glyph glyph-name="uni0490" unicode="&#x490;" horiz-adv-x="475" 
d="M392 820h178l-52 -293h-235l-93 -527h-179l123 700h236z" />
    <glyph glyph-name="uni0491" unicode="&#x491;" horiz-adv-x="407" 
d="M310 602h159l-45 -261h-194l-60 -341h-166l60 341l28 159h200z" />
    <glyph glyph-name="Wgrave" unicode="&#x1e80;" horiz-adv-x="1004" 
d="M680 755l-61 145h-188l95 -145h154zM157 0l-73 700h181l35 -441l202 441h143l48 -441l188 441h196l-318 -700h-189l-43 395l-181 -395h-189z" />
    <glyph glyph-name="wgrave" unicode="&#x1e81;" horiz-adv-x="790" 
d="M541 555h-154l-95 145h188zM647 500h181l-241 -500h-162l-27 251l-109 -251h-170l-65 500h166l23 -272l118 272h145l29 -267z" />
    <glyph glyph-name="Wacute" unicode="&#x1e82;" horiz-adv-x="1004" 
d="M500 755h163l136 145h-198zM157 0l-73 700h181l35 -441l202 441h143l48 -441l188 441h196l-318 -700h-189l-43 395l-181 -395h-189z" />
    <glyph glyph-name="wacute" unicode="&#x1e83;" horiz-adv-x="790" 
d="M660 700l-136 -145h-163l101 145h198zM647 500h181l-241 -500h-162l-27 251l-109 -251h-170l-65 500h166l23 -272l118 272h145l29 -267z" />
    <glyph glyph-name="Wdieresis" unicode="&#x1e84;" horiz-adv-x="1004" 
d="M489 735q-33 0 -52 23.5t-14 56.5t33 56.5t61 23.5q32 0 51.5 -23.5t13.5 -56.5q-5 -33 -32.5 -56.5t-60.5 -23.5zM683 735q-32 0 -51.5 23.5t-13.5 56.5q5 33 32.5 56.5t60.5 23.5t52 -23.5t14 -56.5t-33 -56.5t-61 -23.5zM157 0l-73 700h181l35 -441l202 441h143
l48 -441l188 441h196l-318 -700h-189l-43 395l-181 -395h-189z" />
    <glyph glyph-name="wdieresis" unicode="&#x1e85;" horiz-adv-x="790" 
d="M350 535q-33 0 -52 23.5t-14 56.5t33 56.5t61 23.5q32 0 51.5 -23.5t13.5 -56.5q-5 -33 -32.5 -56.5t-60.5 -23.5zM544 535q-32 0 -51.5 23.5t-13.5 56.5q5 33 32.5 56.5t60.5 23.5t52 -23.5t14 -56.5t-33 -56.5t-61 -23.5zM647 500h181l-241 -500h-162l-27 251
l-109 -251h-170l-65 500h166l23 -272l118 272h145l29 -267z" />
    <glyph glyph-name="Ygrave" unicode="&#x1ef2;" horiz-adv-x="631" 
d="M494 755h-154l-95 145h188zM710 700l-295 -395l-54 -305h-179l54 305l-157 395h190l75 -225l154 225h212z" />
    <glyph glyph-name="ygrave" unicode="&#x1ef3;" horiz-adv-x="549" 
d="M407 555h-154l-95 145h188zM402 500h191l-254 -485q-65 -125 -148 -174.5t-194 -40.5l28 156q54 0 81 13.5t50 50.5l-112 480h176l52 -289z" />
    <glyph glyph-name="endash" unicode="&#x2013;" horiz-adv-x="612" 
d="M50 222l28 158h502l-28 -158h-502z" />
    <glyph glyph-name="emdash" unicode="&#x2014;" horiz-adv-x="712" 
d="M50 222l28 158h602l-28 -158h-602z" />
    <glyph glyph-name="quoteleft" unicode="&#x2018;" horiz-adv-x="302" 
d="M64 386l140 314h134l-90 -314h-184z" />
    <glyph glyph-name="quoteright" unicode="&#x2019;" horiz-adv-x="302" 
d="M341 700l-140 -314h-134l90 314h184z" />
    <glyph glyph-name="quotesinglbase" unicode="&#x201a;" horiz-adv-x="302" 
d="M248 174l-140 -314h-134l90 314h184z" />
    <glyph glyph-name="quotedblleft" unicode="&#x201c;" horiz-adv-x="525" 
d="M64 386l140 314h134l-90 -314h-184zM287 386l140 314h134l-90 -314h-184z" />
    <glyph glyph-name="quotedblright" unicode="&#x201d;" horiz-adv-x="525" 
d="M341 700l-140 -314h-134l90 314h184zM564 700l-140 -314h-134l90 314h184z" />
    <glyph glyph-name="quotedblbase" unicode="&#x201e;" horiz-adv-x="525" 
d="M248 174l-140 -314h-134l90 314h184zM471 174l-140 -314h-134l90 314h184z" />
    <glyph glyph-name="dagger" unicode="&#x2020;" horiz-adv-x="471" 
d="M494 582l-28 -158h-116l-75 -424h-167l75 424h-117l28 158h116l21 118h167l-21 -118h117z" />
    <glyph glyph-name="daggerdbl" unicode="&#x2021;" horiz-adv-x="471" 
d="M466 424h-116l-27 -148h117l-28 -158h-116l-21 -118h-167l21 118h-117l28 158h116l27 148h-117l28 158h116l21 118h167l-21 -118h117z" />
    <glyph glyph-name="bullet" unicode="&#x2022;" horiz-adv-x="399" 
d="M189 186q-67 0 -107 50.5t-28 119.5q12 67 67 112.5t125 45.5q67 0 106.5 -49.5t27.5 -116.5q-12 -69 -66 -115.5t-125 -46.5z" />
    <glyph glyph-name="ellipsis" unicode="&#x2026;" horiz-adv-x="788" 
d="M98 -14q-43 0 -68 31t-17 75q8 43 42.5 72.5t79.5 29.5q43 0 68 -31.5t17 -74.5q-8 -44 -41.5 -73t-80.5 -29zM347 -14q-43 0 -68 31t-17 75q8 43 42.5 72.5t79.5 29.5q43 0 68 -31.5t17 -74.5q-8 -44 -41.5 -73t-80.5 -29zM597 -14q-43 0 -68 31t-17 75q8 43 42.5 72.5
t79.5 29.5q43 0 68 -31.5t17 -74.5q-8 -44 -41.5 -73t-80.5 -29z" />
    <glyph glyph-name="perthousand" unicode="&#x2030;" horiz-adv-x="1220" 
d="M242 356q-79 0 -123 54.5t-33 126.5q12 75 69.5 126.5t141.5 51.5q80 0 124 -57.5t30 -132.5q-15 -72 -71.5 -120.5t-137.5 -48.5zM115 111l546 500l63 -41l-546 -501zM259 483q23 0 40 15.5t21 37.5t-8 37t-34 15t-38.5 -15t-20.5 -37q-5 -23 6.5 -38t33.5 -15zM564 -14
q-80 0 -124 55.5t-32 128.5t69.5 124t140.5 51q79 0 123.5 -57t30.5 -131q-14 -72 -70.5 -121.5t-137.5 -49.5zM960 -14q-80 0 -124 55.5t-32 128.5q13 74 70 124.5t140 50.5q80 0 124.5 -57t29.5 -131q-14 -72 -70.5 -121.5t-137.5 -49.5zM580 113q23 0 40 15.5t21 36.5
q4 23 -7.5 38t-34.5 15q-22 0 -38.5 -15t-20.5 -38q-5 -22 6.5 -37t33.5 -15zM977 113q22 0 39 15.5t21 36.5q4 23 -7.5 38t-33.5 15t-38.5 -15t-21.5 -38q-4 -22 7.5 -37t33.5 -15z" />
    <glyph glyph-name="guilsinglleft" unicode="&#x2039;" horiz-adv-x="364" 
d="M354 504l-147 -200l76 -190h-139l-79 195l144 195h145z" />
    <glyph glyph-name="guilsinglright" unicode="&#x203a;" horiz-adv-x="365" 
d="M241 504l79 -195l-144 -195h-145l147 200l-76 190h139z" />
    <glyph glyph-name="fraction" unicode="&#x2044;" horiz-adv-x="180" 
d="M-94 0h-119l522 700h119z" />
    <glyph glyph-name="Euro" unicode="&#x20ac;" horiz-adv-x="632" 
d="M351 159q61 0 109 72l138 -87q-90 -159 -270 -159q-111 0 -175.5 72t-69.5 193h-70l15 84h60q2 20 4 28l1 7h-59l15 84h66q40 124 124.5 193t201.5 69q81 0 138 -40t84 -112l-157 -83q-27 61 -88 61q-78 0 -118 -88h166l-15 -84h-178q-2 -5 -4 -19l-3 -16h179l-15 -84
h-167q9 -91 88 -91z" />
    <glyph glyph-name="uni20BD" unicode="&#x20bd;" horiz-adv-x="610" 
d="M427 700q99 0 161.5 -71.5t44.5 -173.5q-19 -110 -95 -167t-194 -57h-93l-7 -40h205l-17 -99h-206l-16 -92h-179l16 92h-65l17 99h66l7 40h-65l28 159h65l55 310h272zM455 460q6 32 -10.5 51t-47.5 19h-94l-24 -140h93q31 0 54.5 19t28.5 51z" />
    <glyph glyph-name="uni2116" unicode="&#x2116;" horiz-adv-x="1055" 
d="M876 366q-75 0 -118.5 53.5t-30.5 125.5q12 74 69 122t135 48q76 0 119.5 -53.5t30.5 -126.5t-69.5 -121t-135.5 -48zM11 0l123 700h139l182 -366l65 366h178l-123 -700h-138l-182 366l-65 -366h-179zM896 495q20 0 34.5 12.5t17.5 32.5q4 20 -6 33t-30 13t-34.5 -13
t-18.5 -33q-3 -20 7 -32.5t30 -12.5zM675 166l28 159h328l-28 -159h-328z" />
    <glyph glyph-name="trademark" unicode="&#x2122;" horiz-adv-x="481" 
d="M272 631h-50l-23 -131h-73l23 131h-52l12 69h176zM530 700l-35 -200h-70l16 94l-51 -61h-7l-29 60l-16 -93h-70l35 200h70l27 -67l52 67h78z" />
    <glyph glyph-name="estimated" unicode="&#x212e;" horiz-adv-x="780" 
d="M471 710q161 0 247.5 -104.5t59.5 -255.5q-3 -15 -18 -15h-560q-15 0 -18 -15l-33 -192q-3 -11 3 -19q69 -89 218 -89q143 0 250 97q9 9 19 9h35q10 0 12 -6t-6 -13q-130 -117 -316 -117q-173 0 -262.5 108t-62.5 262q27 152 146.5 251t285.5 99zM668 574q1 11 -4 19
q-67 87 -198 87q-129 0 -229 -89q-9 -9 -10 -19l-34 -192q-3 -15 12 -15h410q15 0 18 15z" />
    <glyph glyph-name="oneeighth" unicode="&#x215b;" horiz-adv-x="804" 
d="M585 700h119l-522 -700h-119zM163 556l-81 -20l-11 118l135 46h114l-71 -400h-132zM783 288q-9 -53 -58 -82q48 -37 39 -100q-9 -57 -55 -88.5t-122 -31.5q-72 0 -111 35.5t-29 92.5q11 66 76 98q-39 32 -30 85q10 56 54.5 86.5t108.5 30.5q61 0 99 -35t28 -91zM602 280
q-2 -13 5.5 -20t23.5 -7q33 0 38 27q6 28 -28 28q-33 0 -39 -28zM647 127q5 33 -32 33q-39 0 -44 -33q-7 -34 32 -34q37 0 44 34z" />
    <glyph glyph-name="threeeighths" unicode="&#x215c;" horiz-adv-x="863" 
d="M356 417q-23 -131 -178 -131q-122 0 -152 94l111 59q14 -40 54 -40q33 0 36 26q4 25 -27 25h-29l-33 68l66 66h-123l21 116h286l-16 -87l-78 -79q35 -15 52 -46t10 -71zM644 700h119l-522 -700h-119zM842 288q-9 -53 -58 -82q48 -37 39 -100q-9 -57 -55 -88.5t-122 -31.5
q-72 0 -111 35.5t-29 92.5q11 66 76 98q-39 32 -30 85q10 56 54.5 86.5t108.5 30.5q61 0 99 -35t28 -91zM661 280q-2 -13 5.5 -20t23.5 -7q34 0 38 27q6 28 -28 28q-33 0 -39 -28zM706 127q5 33 -32 33q-39 0 -44 -33q-7 -34 32 -34q37 0 44 34z" />
    <glyph glyph-name="fiveeighths" unicode="&#x215d;" horiz-adv-x="860" 
d="M344 412q-11 -64 -56.5 -95t-110.5 -31q-115 0 -149 93l113 54q12 -38 48 -38q33 0 36 26q5 28 -25 28h-136l60 251h252l-20 -116h-142l-8 -33h18q60 0 96 -36t24 -103zM641 700h119l-522 -700h-119zM839 288q-9 -53 -58 -82q48 -37 39 -100q-9 -57 -55 -88.5t-122 -31.5
q-72 0 -111 35.5t-29 92.5q11 66 76 98q-39 32 -30 85q10 56 54.5 86.5t108.5 30.5q61 0 99 -35t28 -91zM658 280q-2 -13 5.5 -20t23.5 -7q33 0 38 27q6 28 -28 28q-33 0 -39 -28zM703 127q5 33 -32 33q-39 0 -44 -33q-7 -34 32 -34q37 0 44 34z" />
    <glyph glyph-name="seveneighths" unicode="&#x215e;" horiz-adv-x="830" 
d="M188 300h-138l154 284h-145l20 116h289l-17 -99zM611 700h119l-522 -700h-119zM809 288q-9 -53 -58 -82q48 -37 39 -100q-9 -57 -55 -88.5t-122 -31.5q-72 0 -111 35.5t-29 92.5q11 66 76 98q-39 32 -30 85q10 56 54.5 86.5t108.5 30.5q61 0 99 -35t28 -91zM628 280
q-2 -13 5.5 -20t23.5 -7q33 0 38 27q6 28 -28 28q-33 0 -39 -28zM673 127q5 33 -32 33q-39 0 -44 -33q-7 -34 32 -34q37 0 44 34z" />
    <glyph glyph-name="arrowleft" unicode="&#x2190;" horiz-adv-x="785" 
d="M781 429l-27 -158h-427l182 -221h-209l-247 300l353 300h229l-260 -221h406z" />
    <glyph glyph-name="arrowup" unicode="&#x2191;" horiz-adv-x="671" 
d="M661 400l-36 -207l-178 216l-72 -409h-167l69 390l-255 -216l40 226l352 300z" />
    <glyph glyph-name="arrowright" unicode="&#x2192;" horiz-adv-x="785" 
d="M521 650l247 -300l-353 -300h-229l260 221h-407l28 158h427l-182 221h209z" />
    <glyph glyph-name="arrowdown" unicode="&#x2193;" horiz-adv-x="671" 
d="M430 310l254 217l-40 -227l-353 -300l-247 300l37 207l178 -216l72 409h167z" />
    <glyph glyph-name="arrowboth" unicode="&#x2194;" horiz-adv-x="1137" 
d="M1120 350l-335 -285h-225l240 206h-475l169 -206h-206l-235 285l335 285h226l-242 -206h475l-169 206h207z" />
    <glyph glyph-name="arrowupdn" unicode="&#x2195;" horiz-adv-x="640" 
d="M629 388l-166 202l-81 -462l237 201l-40 -223l-334 -285l-234 285l36 206l166 -202l81 462l-237 -201l40 223l334 285l234 -285z" />
    <glyph glyph-name="uni2196" unicode="&#x2196;" horiz-adv-x="652" 
d="M653 474h-319l264 -320l-126 -106l-263 319l-56 -317l-126 153l75 424h424z" />
    <glyph glyph-name="uni2197" unicode="&#x2197;" horiz-adv-x="652" 
d="M259 627h424l-74 -424l-181 -153l52 296l-357 -302l-105 125l359 305h-298z" />
    <glyph glyph-name="uni2198" unicode="&#x2198;" horiz-adv-x="652" 
d="M532 642l127 -153l-75 -424h-424l-126 153h318l-264 320l126 106l263 -318z" />
    <glyph glyph-name="uni2199" unicode="&#x2199;" horiz-adv-x="652" 
d="M667 523l-359 -305h299l-180 -153h-424l75 424l179 153l-52 -299l358 304z" />
    <glyph glyph-name="partialdiff" unicode="&#x2202;" horiz-adv-x="584" 
d="M322 715q120 0 193 -106.5t45 -268.5q-31 -178 -121 -266.5t-221 -88.5q-105 0 -157 67.5t-37 159.5q16 96 86 159.5t172 63.5q67 0 116 -27q3 148 -125 151q-58 1 -121 -31l27 151q63 36 143 36zM245 139q85 0 128 128q-35 24 -85 24q-36 0 -64 -22.5t-35 -61.5
q-5 -31 11.5 -49.5t44.5 -18.5z" />
    <glyph glyph-name="emptyset" unicode="&#x2205;" horiz-adv-x="804" 
d="M832 720l-114 -122q88 -109 62 -258q-27 -150 -146.5 -251t-269.5 -101q-95 0 -171 49l-53 -57h-133l114 122q-89 110 -62 258q26 150 146.5 251t270.5 101q94 0 170 -49l53 57h133zM172 350q-16 -92 29 -162l364 389q-44 23 -101 23q-103 0 -188 -73t-104 -177zM667 350
q16 92 -29 162l-364 -389q44 -23 101 -23q104 0 189 73t103 177z" />
    <glyph glyph-name="product" unicode="&#x220f;" horiz-adv-x="631" 
d="M-24 -200l158 900h520l-158 -900h-166l130 741h-187l-130 -741h-167z" />
    <glyph glyph-name="summation" unicode="&#x2211;" horiz-adv-x="561" 
d="M-54 -200l27 152l253 321l-128 301l21 126h470l-28 -163h-267l118 -277l-233 -297h296l-29 -163h-500z" />
    <glyph glyph-name="minus" unicode="&#x2212;" horiz-adv-x="560" 
d="M44 271l29 158h478l-28 -158h-479z" />
    <glyph glyph-name="radical" unicode="&#x221a;" horiz-adv-x="693" 
d="M209 0l-81 179h-110l28 158h194l59 -146l311 609h180l-421 -800h-160z" />
    <glyph glyph-name="infinity" unicode="&#x221e;" horiz-adv-x="819" 
d="M629 542q85 0 133 -56.5t33 -142.5q-15 -85 -75.5 -135t-144.5 -50q-88 0 -163 86q-96 -86 -185 -86q-85 0 -134 57t-33 142q15 85 75.5 135t145.5 50q88 0 163 -86q96 86 185 86zM263 310q35 0 76 40q-28 40 -62 40q-18 0 -32 -11t-17 -29q-4 -18 6.5 -29t28.5 -11z
M627 350q3 18 -6.5 29t-27.5 11q-36 0 -76 -40q27 -40 62 -40q17 0 30.5 11t17.5 29z" />
    <glyph glyph-name="integral" unicode="&#x222b;" horiz-adv-x="461" 
d="M-80 -204l29 164q25 -16 60.5 -2t48.5 54l181 521q40 117 120 155.5t182 13.5l-30 -164q-25 16 -60 2t-49 -54l-180 -521q-27 -80 -76 -124.5t-105.5 -51t-120.5 6.5z" />
    <glyph glyph-name="approxequal" unicode="&#x2248;" horiz-adv-x="568" 
d="M312 371q-42 20 -75 24.5t-52.5 -1.5t-48.5 -21l-72 38q36 108 106 143t151 -5q58 -30 91.5 -27.5t52.5 45.5l113 -58q-39 -105 -112.5 -141.5t-153.5 3.5zM139 131l-115 58q41 106 114 142t154 -4q43 -20 75 -24t52 1.5t48 21.5l73 -39q-37 -108 -106.5 -143t-151.5 5
q-58 30 -91 27.5t-52 -45.5z" />
    <glyph glyph-name="notequal" unicode="&#x2260;" horiz-adv-x="511" 
d="M497 380h-162l-37 -60h189l-28 -159h-259l-69 -111h-86l68 111h-93l28 159h164l37 60h-191l29 159h260l68 111h87l-69 -111h93z" />
    <glyph glyph-name="lessequal" unicode="&#x2264;" horiz-adv-x="521" 
d="M562 684l-32 -179l-292 -70l268 -69l-30 -166l-422 158l30 168zM-5 21l28 159h450l-28 -159h-450z" />
    <glyph glyph-name="greaterequal" unicode="&#x2265;" horiz-adv-x="521" 
d="M112 684l422 -158l-30 -168l-478 -158l32 179l292 69l-268 69zM-5 21l28 159h450l-28 -159h-450z" />
    <glyph glyph-name="lozenge" unicode="&#x25ca;" horiz-adv-x="588" 
d="M177 0l-124 350l247 350h146l125 -350l-248 -350h-146zM280 207l110 156l-46 130l-110 -156z" />
    <glyph glyph-name="i.loclTRK" horiz-adv-x="262" 
d="M182 543q-37 0 -59 26.5t-15 62.5q7 37 37.5 63.5t67.5 26.5t59 -26.5t16 -63.5q-8 -36 -39 -62.5t-67 -26.5zM4 0l88 500h166l-88 -500h-166z" />
    <glyph glyph-name="f_f_j" horiz-adv-x="855" 
d="M851 500l-88 -500q-21 -123 -87 -172.5t-191 -42.5l28 154q72 -4 83 61l60 341h-113l-60 -341h-167l60 341h-116l-60 -341h-166l60 341h-62l27 159h63q40 230 290 215l-27 -154q-84 6 -97 -61h116l2 10q19 111 90 163t200 52q66 0 127 -15l-25 -145q-54 9 -109 9
q-105 0 -116 -64l-2 -10h280z" />
    <glyph glyph-name="f_j" horiz-adv-x="572" 
d="M568 500l-88 -500q-21 -123 -87 -172.5t-190 -42.5l27 154q73 -4 84 61l60 341h-114l-60 -341h-166l60 341h-62l27 159h63q19 111 90 163t200 52q66 0 127 -15l-25 -145q-54 9 -109 9q-105 0 -117 -64h280z" />
    <glyph glyph-name="uni0414.loclBGR" horiz-adv-x="740" 
d="M634 173h82l-55 -307h-178l24 134h-362l-24 -134h-179l55 307h82l263 527h214zM268 173h186l-35 327z" />
    <glyph glyph-name="uni041B.loclBGR" horiz-adv-x="640" 
d="M-49 0l341 700h214l95 -700h-188l-44 492l-218 -492h-200z" />
    <glyph glyph-name="uni0424.loclBGR" horiz-adv-x="869" 
d="M599 704q140 -25 211.5 -124t46.5 -240q-26 -146 -127.5 -237t-256.5 -110l-16 -93h-169l17 96q-139 25 -211 124t-47 240q26 146 127 237t257 110l16 93h169zM679 350q27 155 -109 189l-67 -378q148 32 176 189zM225 350q-27 -156 109 -188l67 376q-150 -33 -176 -188z
" />
    <glyph glyph-name="uni0414.ss01" horiz-adv-x="712" 
d="M698 700l-93 -527h76l-31 -173h-683l30 173h73q61 75 88 222l53 305h487zM262 173h165l64 361h-130l-25 -141q-26 -142 -74 -220z" />
    <glyph glyph-name="uni0426.ss01" horiz-adv-x="702" 
d="M590 173h80l-30 -173h-629l123 700h184l-93 -527h182l93 527h183z" />
    <glyph glyph-name="uni0429.ss01" horiz-adv-x="992" 
d="M880 173h80l-30 -173h-919l123 700h179l-93 -527h152l92 527h179l-93 -527h152l92 527h179z" />
    <glyph glyph-name="uni0414.loclBGR.ss01" horiz-adv-x="740" 
d="M634 173h82l-31 -173h-719l31 173h82l263 527h214zM268 173h186l-35 327z" />
    <glyph glyph-name="uni0432.loclBGR" horiz-adv-x="562" 
d="M537 522q-13 -69 -80 -124q96 -60 73 -190q-19 -108 -90 -165t-187 -57q-108 0 -167.5 70t-40.5 179l42 239q21 118 89.5 179t176.5 61q89 0 143.5 -55t40.5 -137zM332 560q-29 0 -50 -23.5t-28 -62.5l-10 -55l21 4q24 5 46 6q54 39 60 79q5 23 -6 37.5t-33 14.5z
M364 218q8 43 -22 59.5t-89 4.5l-35 -7l-8 -47q-6 -38 11.5 -61t52.5 -23q37 0 61 19.5t29 54.5z" />
    <glyph glyph-name="uni0433.loclBGR" horiz-adv-x="472" 
d="M210 -14q-94 0 -154 49.5t-45 135.5q9 51 40 83t68.5 43t74 17t63 14.5t29.5 25.5q3 24 -33 24q-42 0 -70 -43l-129 67q66 112 213 112q84 0 141 -51.5t43 -131.5q-9 -50 -39 -81t-67.5 -42.5t-74 -17.5t-62.5 -14t-29 -23t8 -22.5t32 -7.5q56 0 86 55l131 -75
q-66 -117 -226 -117z" />
    <glyph glyph-name="uni0434.loclBGR" horiz-adv-x="619" 
d="M451 500h164l-85 -480q-21 -121 -101.5 -178t-193.5 -57q-84 0 -146 31t-88 91l147 77q28 -54 102 -54q46 0 77 22.5t39 67.5l7 38q-59 -52 -142 -52q-75 0 -125 38.5t-67.5 96.5t-7.5 126q15 100 87.5 173.5t181.5 73.5q97 0 141 -73zM284 157q44 0 78 26t45 67l3 20
q4 41 -20.5 67t-68.5 26q-47 0 -81.5 -29t-42.5 -74t16 -74t71 -29z" />
    <glyph glyph-name="uni0436.loclBGR" horiz-adv-x="779" 
d="M-39 0l203 261l-101 239h168l84 -203l71 403h165l-73 -408l153 208h184l-199 -258l110 -242h-170l-91 212l-38 -212h-164l36 205l-159 -205h-179z" />
    <glyph glyph-name="uni0438.loclBGR" 
d="M408 500h166l-88 -500h-166l9 51q-57 -65 -146 -65q-81 0 -124.5 56.5t-26.5 158.5l53 299h166l-49 -278q-6 -40 11 -59.5t51 -19.5q38 0 63.5 23t33.5 68v-1z" />
    <glyph glyph-name="uni0439.loclBGR" 
d="M520 694l-24 -140h-323l24 140h323zM408 500h166l-88 -500h-166l9 51q-57 -65 -146 -65q-81 0 -124.5 56.5t-26.5 158.5l53 299h166l-49 -278q-6 -40 11 -59.5t51 -19.5q38 0 63.5 23t33.5 68v-1z" />
    <glyph glyph-name="uni043A.loclBGR" horiz-adv-x="537" 
d="M573 500l-210 -251l130 -249h-178l-106 220l-39 -220h-166l123 700h166l-70 -398l159 198h191z" />
    <glyph glyph-name="uni043B.loclBGR" horiz-adv-x="533" 
d="M489 0h-169l-41 283l-140 -283h-183l270 500h169z" />
    <glyph glyph-name="uni043F.loclBGR" 
d="M395 514q81 0 124.5 -56.5t26.5 -158.5l-53 -299h-166l49 278q6 40 -11 59.5t-51 19.5q-38 0 -63.5 -23t-33.5 -68v1l-47 -267h-166l88 500h166l-9 -51q57 65 146 65z" />
    <glyph glyph-name="uni0442.loclBGR" horiz-adv-x="850" 
d="M662 514q85 0 129.5 -56t27.5 -152l-53 -306h-167l50 287q13 70 -49 70q-63 0 -81 -68l-51 -289h-166l50 287q11 70 -50 70q-65 0 -83 -77l-49 -280h-166l88 500h166l-8 -46q56 60 139 60q87 0 120 -67q65 67 153 67z" />
    <glyph glyph-name="uni0446.loclBGR" horiz-adv-x="620" 
d="M543 152h45l-51 -286h-158l26 149q-32 15 -47 44q-67 -73 -169 -73q-85 0 -130 57t-27 158l52 299h167l-49 -278q-7 -40 10 -59.5t52 -19.5q72 0 93 76l50 281h167l-56 -318q-5 -30 25 -30z" />
    <glyph glyph-name="uni0448.loclBGR" horiz-adv-x="850" 
d="M680 500h166l-88 -500h-166l8 46q-56 -60 -139 -60q-87 0 -120 67q-65 -67 -153 -67q-85 0 -129.5 56t-27.5 152l53 306h167l-50 -287q-13 -70 49 -70q63 0 81 68l51 289h166l-50 -287q-11 -70 50 -70q65 0 83 77z" />
    <glyph glyph-name="uni0449.loclBGR" horiz-adv-x="892" 
d="M815 152h45l-51 -286h-157l26 149q-31 14 -46 41q-65 -70 -164 -70q-91 0 -126 66q-63 -66 -154 -66q-85 0 -129.5 56t-27.5 152l53 306h167l-50 -287q-13 -70 49 -70q63 0 81 68l51 289h166l-50 -287q-11 -70 50 -70q65 0 83 78l49 279h166l-56 -318q-5 -30 25 -30z" />
    <glyph glyph-name="uni044C.loclBGR" horiz-adv-x="495" 
d="M292 373q92 0 140.5 -57t33.5 -145q-15 -86 -78.5 -136t-163.5 -50q-104 0 -157 59t-36 152l53 304h162l-22 -127h68zM306 184q5 22 -6.5 35.5t-37.5 13.5h-63l-7 -40q-5 -26 8 -41t40 -15q26 0 44.5 13.5t21.5 33.5z" />
    <glyph glyph-name="uni044A.loclBGR" 
d="M375 373q95 0 142 -56.5t32 -145.5q-15 -86 -78.5 -136t-163.5 -50q-104 0 -157 59t-36 152l26 150h-123l27 154h285l-22 -127h68zM389 184q5 22 -6.5 35.5t-37.5 13.5h-63l-7 -40q-5 -26 8 -41t40 -15q26 0 44.5 13.5t21.5 33.5z" />
    <glyph glyph-name="uni044E.loclBGR" horiz-adv-x="807" 
d="M555 514q83 0 139.5 -41.5t77 -103.5t9.5 -131q-17 -103 -99 -177.5t-198 -74.5q-99 0 -157 52.5t-70 133.5h-57l-30 -172h-166l123 700h166l-65 -372h50q34 82 106 134t171 52zM616 250q8 46 -15 75t-67 29q-43 0 -76.5 -29t-41.5 -75q-7 -46 15.5 -75t66.5 -29
q43 0 77 29t41 75z" />
    <glyph glyph-name="zero.sinf" horiz-adv-x="409" 
d="M136 -174q-82 0 -126.5 61.5t-27.5 159.5q18 99 75.5 153t141.5 54q81 0 126.5 -62t27.5 -159q-17 -99 -74.5 -153t-142.5 -54zM153 -43q51 0 65 83q16 83 -36 83q-50 0 -66 -83q-14 -83 37 -83z" />
    <glyph glyph-name="one.sinf" horiz-adv-x="279" 
d="M125 240h114l-71 -400h-132l46 256l-81 -20l-11 118z" />
    <glyph glyph-name="two.sinf" horiz-adv-x="353" 
d="M-47 -160l15 89l168 141q36 31 38 46q5 22 -20 22q-28 0 -56 -45l-100 63q63 98 177 98q62 0 101.5 -38t27.5 -101q-6 -32 -26.5 -59t-60.5 -59l-49 -40h111l-20 -117h-306z" />
    <glyph glyph-name="three.sinf" horiz-adv-x="342" 
d="M307 240l-16 -87l-78 -79q35 -15 52 -46t10 -71q-23 -131 -178 -131q-122 0 -152 94l111 59q14 -40 54 -40q33 0 36 26q4 25 -27 25h-29l-33 68l66 66h-123l21 116h286z" />
    <glyph glyph-name="four.sinf" horiz-adv-x="362" 
d="M307 11l-20 -115h-35l-10 -56h-122l10 56h-184l20 115l152 229h141l-147 -229h39l11 63h121l-11 -63h35z" />
    <glyph glyph-name="five.sinf" horiz-adv-x="331" 
d="M275 124h-142l-8 -33h18q60 0 96 -36t24 -103q-11 -64 -56.5 -95t-110.5 -31q-115 0 -149 93l113 54q12 -38 48 -38q33 0 36 26q5 28 -25 28h-136l60 251h252z" />
    <glyph glyph-name="six.sinf" horiz-adv-x="343" 
d="M184 112q52 -13 78.5 -53t17.5 -94q-11 -64 -58.5 -101.5t-120.5 -37.5q-70 0 -108.5 43.5t-27.5 107.5q8 44 32 76l145 187h140zM160 -29q7 36 -31 36q-37 0 -44 -36q-4 -18 5 -27.5t26 -9.5q38 0 44 37z" />
    <glyph glyph-name="seven.sinf" horiz-adv-x="302" 
d="M-2 240h289l-17 -99l-163 -301h-138l154 284h-145z" />
    <glyph glyph-name="eight.sinf" horiz-adv-x="349" 
d="M299 128q-9 -53 -58 -82q48 -37 39 -100q-9 -57 -55 -88.5t-122 -31.5q-72 0 -111 35.5t-29 92.5q11 66 76 98q-39 32 -30 85q10 56 54.5 86.5t108.5 30.5q61 0 99 -35t28 -91zM118 120q-2 -13 5.5 -20t23.5 -7q33 0 38 27q6 28 -28 28q-33 0 -39 -28zM163 -33
q5 33 -32 33q-39 0 -44 -33q-7 -34 32 -34q37 0 44 34z" />
    <glyph glyph-name="nine.sinf" horiz-adv-x="343" 
d="M168 254q70 0 108.5 -43.5t27.5 -107.5q-7 -47 -38 -83l-139 -180h-140l98 128q-52 13 -78.5 53t-17.5 94q11 64 58.5 101.5t120.5 37.5zM109 109q-7 -36 31 -36q37 0 44 36q4 18 -5 27.5t-26 9.5q-38 0 -44 -37z" />
    <glyph glyph-name="zero.tf" horiz-adv-x="589" 
d="M256 -15q-134 0 -197.5 105t-34.5 270t119 260t226 95q134 0 197 -105t34 -270t-118.5 -260t-225.5 -95zM278 159q112 0 145 191t-77 191q-111 0 -144 -191q-35 -191 76 -191z" />
    <glyph glyph-name="one.tf" horiz-adv-x="589" 
d="M383 173h178l-31 -173h-549l30 173h194l58 331l-127 -31l-16 159l202 68h154z" />
    <glyph glyph-name="two.tf" horiz-adv-x="589" 
d="M-14 0l22 130l303 236q82 62 91 109q5 27 -10 46.5t-50 19.5q-73 0 -122 -88l-143 92q47 84 124 127t168 43q103 0 167.5 -69t46.5 -172q-11 -62 -45 -108t-104 -101l-118 -92h224l-30 -173h-524z" />
    <glyph glyph-name="three.tf" horiz-adv-x="589" 
d="M608 700l-24 -141l-146 -143q66 -26 99 -80.5t20 -128.5q-20 -113 -100.5 -167.5t-198.5 -54.5q-101 0 -168 44t-88 132l164 85q24 -87 109 -87q91 0 104 68q11 68 -80 68h-36l-52 104l133 130h-250l29 171h485z" />
    <glyph glyph-name="four.tf" horiz-adv-x="589" 
d="M578 270l-29 -163h-70l-19 -107h-178l19 107h-321l29 163l285 430h206l-286 -430h116l23 131h178l-23 -131h70z" />
    <glyph glyph-name="five.tf" horiz-adv-x="589" 
d="M576 529h-275l-19 -75h58q112 0 176 -64.5t44 -179.5q-19 -111 -100.5 -168t-194.5 -57q-214 0 -262 170l166 84q23 -80 110 -80q90 0 104 63q5 31 -15 48.5t-66 17.5h-237l101 412h440z" />
    <glyph glyph-name="six.tf" horiz-adv-x="589" 
d="M378 486q107 -15 157.5 -88t34.5 -170q-17 -105 -99.5 -174t-214.5 -69t-196.5 78t-44.5 186q16 86 73 146l266 305h208zM394 237q7 42 -17 65.5t-69 23.5q-47 0 -78 -23.5t-38 -65.5q-8 -42 15.5 -65t69.5 -23t77.5 23t39.5 65z" />
    <glyph glyph-name="seven.tf" horiz-adv-x="589" 
d="M99 700h539l-25 -148l-339 -552h-201l322 527h-326z" />
    <glyph glyph-name="eight.tf" horiz-adv-x="589" 
d="M595 502q-16 -91 -102 -140q90 -65 71 -171q-17 -97 -97 -151t-213 -54q-130 0 -197 60t-50 157q21 112 131 166q-68 53 -53 143q17 97 96.5 149.5t191.5 52.5q109 0 174 -57.5t48 -154.5zM251 492q-5 -28 15 -44t61 -16q40 0 65.5 16t30.5 44q5 27 -15 43.5t-60 16.5
q-41 0 -66.5 -16t-30.5 -44zM391 222q5 35 -17 54t-71 19q-101 0 -114 -73q-6 -34 16 -53t72 -19q100 0 114 72z" />
    <glyph glyph-name="nine.tf" horiz-adv-x="589" 
d="M368 715q132 0 197 -78t45 -186q-16 -87 -76 -149l-264 -302h-208l184 214q-107 15 -157.5 88t-34.5 170q18 105 100.5 174t213.5 69zM231 463q-7 -42 16.5 -65.5t68.5 -23.5q47 0 78.5 23.5t38.5 65.5t-16.5 65t-69.5 23q-47 0 -78 -23t-38 -65z" />
    <glyph glyph-name="zero.dnom" horiz-adv-x="409" 
d="M164 -14q-82 0 -126.5 61.5t-27.5 159.5q18 99 75.5 153t141.5 54q81 0 126.5 -62t27.5 -159q-17 -99 -74.5 -153t-142.5 -54zM181 117q51 0 65 83q16 83 -36 83q-50 0 -66 -83q-14 -83 37 -83z" />
    <glyph glyph-name="one.dnom" horiz-adv-x="276" 
d="M153 400h114l-71 -400h-132l46 256l-81 -20l-11 118z" />
    <glyph glyph-name="two.dnom" horiz-adv-x="356" 
d="M-19 0l15 89l168 141q36 31 38 46q5 22 -20 22q-28 0 -56 -45l-100 63q63 98 177 98q62 0 101.5 -38t27.5 -101q-6 -32 -26.5 -59t-60.5 -59l-49 -40h111l-20 -117h-306z" />
    <glyph glyph-name="three.dnom" horiz-adv-x="335" 
d="M335 400l-16 -87l-78 -79q35 -15 52 -46t10 -71q-23 -131 -178 -131q-122 0 -152 94l111 59q14 -40 54 -40q33 0 36 26q4 25 -27 25h-29l-33 68l66 66h-123l21 116h286z" />
    <glyph glyph-name="four.dnom" horiz-adv-x="361" 
d="M335 171l-20 -115h-35l-10 -56h-122l10 56h-184l20 115l152 229h141l-147 -229h39l11 63h121l-11 -63h35z" />
    <glyph glyph-name="five.dnom" horiz-adv-x="332" 
d="M303 284h-142l-8 -33h18q60 0 96 -36t24 -103q-11 -64 -56.5 -95t-110.5 -31q-115 0 -149 93l113 54q12 -38 48 -38q33 0 36 26q5 28 -25 28h-136l60 251h252z" />
    <glyph glyph-name="six.dnom" horiz-adv-x="342" 
d="M212 272q52 -13 78.5 -53t17.5 -94q-11 -64 -58.5 -101.5t-120.5 -37.5q-70 0 -108.5 43.5t-27.5 107.5q8 44 32 76l145 187h140zM188 131q7 36 -31 36q-37 0 -44 -36q-4 -18 5 -27.5t26 -9.5q38 0 44 37z" />
    <glyph glyph-name="seven.dnom" horiz-adv-x="302" 
d="M26 400h289l-17 -99l-163 -301h-138l154 284h-145z" />
    <glyph glyph-name="eight.dnom" horiz-adv-x="348" 
d="M327 288q-9 -53 -58 -82q48 -37 39 -100q-9 -57 -55 -88.5t-122 -31.5q-72 0 -111 35.5t-29 92.5q11 66 76 98q-39 32 -30 85q10 56 54.5 86.5t108.5 30.5q61 0 99 -35t28 -91zM146 280q-2 -13 5.5 -20t23.5 -7q33 0 38 27q6 28 -28 28q-33 0 -39 -28zM191 127
q5 33 -32 33q-39 0 -44 -33q-7 -34 32 -34q37 0 44 34z" />
    <glyph glyph-name="nine.dnom" horiz-adv-x="342" 
d="M196 414q70 0 108.5 -43.5t27.5 -107.5q-7 -47 -38 -83l-139 -180h-140l98 128q-52 13 -78.5 53t-17.5 94q11 64 58.5 101.5t120.5 37.5zM137 269q-7 -36 31 -36q37 0 44 36q4 18 -5 27.5t-26 9.5q-38 0 -44 -37z" />
    <glyph glyph-name="zero.numr" horiz-adv-x="409" 
d="M217 286q-82 0 -126.5 61.5t-27.5 159.5q18 99 75.5 153t141.5 54q81 0 126.5 -62t27.5 -159q-17 -99 -74.5 -153t-142.5 -54zM234 417q51 0 65 83q16 83 -36 83q-50 0 -66 -83q-14 -83 37 -83z" />
    <glyph glyph-name="one.numr" horiz-adv-x="276" 
d="M206 700h114l-71 -400h-132l46 256l-81 -20l-11 118z" />
    <glyph glyph-name="two.numr" horiz-adv-x="356" 
d="M34 300l15 89l168 141q36 31 38 46q5 22 -20 22q-28 0 -56 -45l-100 63q63 98 177 98q62 0 101.5 -38t27.5 -101q-6 -32 -26.5 -59t-60.5 -59l-49 -40h111l-20 -117h-306z" />
    <glyph glyph-name="three.numr" horiz-adv-x="335" 
d="M388 700l-16 -87l-78 -79q35 -15 52 -46t10 -71q-23 -131 -178 -131q-122 0 -152 94l111 59q14 -40 54 -40q33 0 36 26q4 25 -27 25h-29l-33 68l66 66h-123l21 116h286z" />
    <glyph glyph-name="four.numr" horiz-adv-x="361" 
d="M388 471l-20 -115h-35l-10 -56h-122l10 56h-184l20 115l152 229h141l-147 -229h39l11 63h121l-11 -63h35z" />
    <glyph glyph-name="five.numr" horiz-adv-x="332" 
d="M356 584h-142l-8 -33h18q60 0 96 -36t24 -103q-11 -64 -56.5 -95t-110.5 -31q-115 0 -149 93l113 54q12 -38 48 -38q33 0 36 26q5 28 -25 28h-136l60 251h252z" />
    <glyph glyph-name="six.numr" horiz-adv-x="342" 
d="M265 572q52 -13 78.5 -53t17.5 -94q-11 -64 -58.5 -101.5t-120.5 -37.5q-70 0 -108.5 43.5t-27.5 107.5q8 44 32 76l145 187h140zM241 431q7 36 -31 36q-37 0 -44 -36q-4 -18 5 -27.5t26 -9.5q38 0 44 37z" />
    <glyph glyph-name="seven.numr" horiz-adv-x="302" 
d="M79 700h289l-17 -99l-163 -301h-138l154 284h-145z" />
    <glyph glyph-name="eight.numr" horiz-adv-x="349" 
d="M380 588q-9 -53 -58 -82q48 -37 39 -100q-9 -57 -55 -88.5t-122 -31.5q-72 0 -111 35.5t-29 92.5q11 66 76 98q-39 32 -30 85q10 56 54.5 86.5t108.5 30.5q61 0 99 -35t28 -91zM199 580q-2 -13 5.5 -20t23.5 -7q34 0 38 27q6 28 -28 28q-33 0 -39 -28zM244 427
q5 33 -32 33q-39 0 -44 -33q-7 -34 32 -34q37 0 44 34z" />
    <glyph glyph-name="nine.numr" horiz-adv-x="342" 
d="M249 714q70 0 108.5 -43.5t27.5 -107.5q-7 -47 -38 -83l-139 -180h-140l98 128q-52 13 -78.5 53t-17.5 94q11 64 58.5 101.5t120.5 37.5zM190 569q-7 -36 31 -36q37 0 44 36q4 18 -5 27.5t-26 9.5q-38 0 -44 -37z" />
    <glyph glyph-name="zero.sups" horiz-adv-x="409" 
d="M245 446q-82 0 -126.5 61.5t-27.5 159.5q18 99 75.5 153t141.5 54q81 0 126.5 -62t27.5 -159q-17 -99 -74.5 -153t-142.5 -54zM262 577q51 0 65 83q16 83 -36 83q-50 0 -66 -83q-14 -83 37 -83z" />
    <glyph glyph-name="one.sups" horiz-adv-x="276" 
d="M234 860h114l-71 -400h-132l46 256l-81 -20l-11 118z" />
    <glyph glyph-name="two.sups" horiz-adv-x="356" 
d="M62 460l15 89l168 141q36 31 38 46q5 22 -20 22q-28 0 -56 -45l-100 63q63 98 177 98q62 0 101.5 -38t27.5 -101q-6 -32 -26.5 -59t-60.5 -59l-49 -40h111l-20 -117h-306z" />
    <glyph glyph-name="three.sups" horiz-adv-x="336" 
d="M417 860l-16 -87l-78 -79q35 -15 52 -46t10 -71q-23 -131 -178 -131q-122 0 -152 94l111 59q14 -40 54 -40q33 0 36 26q4 25 -27 25h-29l-33 68l66 66h-123l21 116h286z" />
    <glyph glyph-name="four.sups" horiz-adv-x="361" 
d="M416 631l-20 -115h-35l-10 -56h-122l10 56h-184l20 115l152 229h141l-147 -229h39l11 63h121l-11 -63h35z" />
    <glyph glyph-name="five.sups" horiz-adv-x="331" 
d="M384 744h-142l-8 -33h18q60 0 96 -36t24 -103q-11 -64 -56.5 -95t-110.5 -31q-115 0 -149 93l113 54q12 -38 48 -38q33 0 36 26q5 28 -25 28h-136l60 251h252z" />
    <glyph glyph-name="six.sups" horiz-adv-x="343" 
d="M293 732q52 -13 78.5 -53t17.5 -94q-11 -64 -58.5 -101.5t-120.5 -37.5q-70 0 -108.5 43.5t-27.5 107.5q8 44 32 76l145 187h140zM269 591q7 36 -31 36q-37 0 -44 -36q-4 -18 5 -27.5t26 -9.5q38 0 44 37z" />
    <glyph glyph-name="seven.sups" horiz-adv-x="303" 
d="M108 860h289l-17 -99l-163 -301h-138l154 284h-145z" />
    <glyph glyph-name="eight.sups" horiz-adv-x="348" 
d="M408 748q-9 -53 -58 -82q48 -37 39 -100q-9 -57 -55 -88.5t-122 -31.5q-72 0 -111 35.5t-29 92.5q11 66 76 98q-39 32 -30 85q10 56 54.5 86.5t108.5 30.5q61 0 99 -35t28 -91zM227 740q-2 -13 5.5 -20t23.5 -7q34 0 38 27q6 28 -28 28q-33 0 -39 -28zM272 587
q5 33 -32 33q-39 0 -44 -33q-7 -34 32 -34q37 0 44 34z" />
    <glyph glyph-name="nine.sups" horiz-adv-x="342" 
d="M277 874q70 0 108.5 -43.5t27.5 -107.5q-7 -47 -38 -83l-139 -180h-140l98 128q-52 13 -78.5 53t-17.5 94q11 64 58.5 101.5t120.5 37.5zM218 729q-7 -36 31 -36q37 0 44 36q4 18 -5 27.5t-26 9.5q-38 0 -44 -37z" />
    <glyph glyph-name="cent.tf" horiz-adv-x="589" 
d="M320 248q58 0 93 50l132 -84q-38 -63 -101 -95.5t-137 -32.5q-29 0 -66 7l-46 -93h-65l56 113q-65 33 -95.5 99t-17.5 148q18 111 102 182.5t196 71.5q33 0 60 -6l46 92h65l-55 -112q66 -33 99 -105l-151 -79q-10 20 -24 31l-93 -187h2zM239 351q-9 -54 24 -83l91 184
q-43 -1 -75.5 -28.5t-39.5 -72.5z" />
    <glyph glyph-name="dollar.tf" horiz-adv-x="589" 
d="M377 421q46 -16 75 -30.5t60.5 -41.5t43 -68t1.5 -96q-17 -93 -87 -144t-177 -56l-15 -85h-70l15 87q-178 19 -222 167l159 82q25 -71 93 -82l22 124l-14 5q-93 36 -140.5 90t-31.5 146q16 95 89 145t174 51l15 85h70l-16 -91q133 -26 183 -149l-154 -82q-20 48 -59 63
l-21 -118q1 0 3.5 -0.5t3.5 -1.5zM265 503q-6 -32 40 -54l17 99q-51 -7 -57 -45zM380 202q5 29 -40 51l-17 -99q50 10 57 48z" />
    <glyph glyph-name="Euro.tf" horiz-adv-x="589" 
d="M321 159q58 0 102 66l136 -87q-89 -153 -258 -153q-102 0 -158.5 72t-58.5 193h-71l15 84h61q2 16 4 26q1 2 1 5t1 4h-61l15 84h66q40 125 117 193.5t185 68.5q154 0 211 -154l-158 -83q-20 63 -75 63q-62 0 -98 -88h137l-15 -84h-145q-2 -5 -4 -19l-3 -16h146l-15 -84
h-137q1 -91 60 -91z" />
    <glyph glyph-name="florin.tf" horiz-adv-x="589" 
d="M329 537q36 80 90.5 124.5t112.5 51t122 -6.5l-28 -164q-102 30 -137 -52l-26 -59h108l-28 -159h-149l-133 -303q-51 -118 -137 -156t-188 -13l29 164q98 -29 133 52l114 256h-108l29 159h149z" />
    <glyph glyph-name="uni20BD.tf" horiz-adv-x="589" 
d="M404 700q99 0 161.5 -71.5t44.5 -173.5q-19 -109 -95.5 -166.5t-193.5 -57.5h-72l-7 -40h184l-17 -99h-185l-16 -92h-179l16 92h-63l17 99h64l7 40h-63l28 159h63l54 310h252zM432 460q6 32 -10.5 51t-47.5 19h-73l-24 -140h72q31 0 54.5 19t28.5 51z" />
    <glyph glyph-name="sterling.tf" horiz-adv-x="589" 
d="M270 272l-18 -99h314l-31 -173h-554l31 173h62l17 99h-51l25 140h51l14 79q20 113 91.5 168.5t169.5 55.5q168 0 227 -156l-161 -82q-25 67 -80 67q-27 0 -46 -16.5t-24 -44.5l-12 -71h204l-25 -140h-204z" />
    <glyph glyph-name="yen.tf" horiz-adv-x="589" 
d="M668 700l-230 -328h120l-16 -94h-153l-7 -41h152l-16 -93h-153l-25 -144h-179l25 144h-152l16 93h153l7 41h-152l16 94h120l-115 328h192l57 -211l131 211h209z" />
    <glyph glyph-name="brevecy" horiz-adv-x="403" 
d="M94 554l24 140h323l-24 -140h-323z" />
    </font>
</defs>
</svg>
